#TITLE:Don't Stop;
#SUBTITLE:;
#ARTIST:S&K;
#TITLETRANSLIT:;
#SUBTITLETRANSLIT:;
#ARTISTTRANSLIT:;
#GENRE:;
#CREDIT:;
#BANNER:Dont Stop.png;
#BACKGROUND:;
#LYRICSPATH:;
#CDTITLE:;
#MUSIC:Don't Stop.ogg;
#OFFSET:-0.601;
#SAMPLESTART:37.990;
#SAMPLELENGTH:13.180;
#SELECTABLE:YES;
#BPMS:0.000=125.010;
#STOPS:;
#BGCHANGES:;
#KEYSOUNDS:;

//---------------dance-single - ----------------
#NOTES:
     dance-single:
     :
     Hard:
     8:
     0.590,0.542,0.318,0.000,0.259,456.000,38.000,0.000,0.000,0.000,0.000,0.590,0.542,0.318,0.000,0.259,456.000,38.000,0.000,0.000,0.000,0.000:
0000
0000
0000
0000
,
1000
0001
0100
1000
0100
0001
0010
1000
0010
0001
0000
0000
,
1000
0010
0100
0010
1000
0100
0010
0001
,
0100
0010
1000
0100
0010
0001
0101
0000
,
0000
0010
1000
0100
1000
0001
0100
1000
,
0100
0010
1000
0100
1000
0001
0101
0000
,
0010
1000
0100
1000
0001
0100
0001
0000
,
0010
1000
0100
1000
0001
0100
0010
0000
,
0010
1000
1000
0000
1000
0001
0100
0000
,
0010
1000
0100
1000
0001
0100
0110
0000
,
0010
1000
0100
1000
0001
0100
0100
0000
,
0010
1000
0100
0010
0001
0100
0010
0000
,
0010
1000
0100
1000
0001
0100
0010
0000
,
0010
0000
0000
1000
0000
0000
0001
0000
0000
0100
0000
0000
0010
0000
0010
0000
0010
0000
0010
0000
0010
0000
0010
0000
,
0010
1000
0001
0100
0010
1000
0100
0000
,
0001
0100
0010
1000
0100
1000
0101
0000
,
0010
1000
0100
1000
0001
0100
0001
0000
,
0010
0000
0000
1000
0000
0000
0100
0000
0000
1000
0000
0000
0001
0000
1000
0000
0010
0000
1010
0000
1000
0000
0100
0000
,
0010
0001
1000
0010
0100
0010
1000
0000
,
0100
1000
0001
0100
0010
1000
0000
1010
,
0000
0010
0100
0001
1000
0100
1000
0000
,
0001
0100
0010
1000
0100
1000
0001
0000
,
0001
0100
0010
1000
0100
0010
0001
0000
,
0001
0100
1000
0100
0010
1000
0000
1010
,
0000
0010
0100
0001
1000
0100
0011
0000
,
0001
0000
0000
0101
0000
0000
0000
0000
0000
1000
0000
0000
1100
0000
0100
0000
0010
0000
0001
0000
0100
0000
1000
0000
,
0100
0000
0010
0000
1000
0100
0000
0010
0000
0001
0100
0000
0010
0000
1000
0000
,
0100
0000
0010
0000
0001
0100
0000
0010
0000
1000
0001
0000
0100
0000
1000
0000
,
0100
0010
0000
0100
0010
0000
0100
0010
0000
1000
0000
0001
0100
0000
0010
1000
,
0000
0001
0000
0100
0010
0000
1000
0000
1001
0000
0000
1001
0000
0000
0110
0000
,
1010
1000
0001
0100
0010
1000
0100
1000
,
0001
0100
0010
1000
0100
0010
0000
0011
,
0000
0001
0100
0010
1000
0100
1100
0000
,
0011
0000
0101
0000
1001
0100
0010
0000
,
1000
0001
1000
1000
0001
1000
0100
0100
,
1000
0001
0100
0010
1000
0100
0100
1000
,
0001
0100
0010
1000
0001
0100
0010
0000
,
1000
0100
0001
0100
1000
0010
0100
0000
,
0010
1000
0001
0010
1000
0010
0001
0000
,
0001
0100
1000
0001
0010
1000
0100
0000
,
0100
1000
0001
0100
0010
1000
0100
0000
,
1000
0100
0010
0001
0000
0000
0001
0010
0100
1000
0100
1000
,
0100
0010
0001
0100
1000
0010
1000
0000
,
1000
0100
0001
0010
0100
1000
0001
0000
,
1000
0010
0100
0010
1000
0100
0010
0000
,
0001
0000
0000
1000
0000
0000
0010
0000
0000
0100
0000
0000
0010
0000
1000
0000
0001
0000
0110
0000
0010
0000
1000
0000
,
0001
1000
0010
1000
0100
0010
0011
0000
,
0001
0100
0010
1000
0100
0010
0000
0011
,
0000
0001
0100
0010
1000
0100
0110
0000
,
0001
0100
0010
1000
0001
1000
1010
0000
,
1000
0001
0100
0010
0001
0010
1010
0000
,
1000
0100
0010
0001
1000
0010
0000
0110
,
0000
0010
1000
0001
0100
0010
1010
0000
,
0001
0000
0000
0101
0000
0000
0000
0000
0000
0010
0000
0000
0110
0000
0010
0000
1000
0000
0001
0000
0010
0000
0100
0000
,
1000
0000
0001
0000
0001
0100
0000
0010
0000
1000
0100
0000
0010
0000
0001
0000
,
0100
0000
0010
0000
1000
0100
0000
0010
0001
0000
0001
1000
0000
1000
0010
0000
,
0100
0010
0000
0010
0000
0100
0010
0000
1000
0000
0001
0000
0100
0010
0000
1000
,
0000
0001
0000
0100
0010
0000
1000
0000
1001
0000
0000
0110
0000
0000
1001
0000
,
0001
1000
0010
0100
0010
1000
0010
1000
,
0010
1000
0001
0100
0010
1000
0000
0101
,
0000
0010
1000
0001
0100
1000
0101
0000
,
1010
0000
1100
0000
0011
0001
0011
0000
;

//---------------dance-single - ----------------
#NOTES:
     dance-single:
     :
     Medium:
     6:
     0.373,0.361,0.125,0.000,0.000,297.000,15.000,0.000,0.000,0.000,0.000,0.373,0.361,0.125,0.000,0.000,297.000,15.000,0.000,0.000,0.000,0.000:
0000
0000
0000
0000
,
1000
0010
0100
1001
,
0000
0010
0000
1000
0000
0100
0000
1000
,
0000
0001
0000
0100
0000
0010
1000
0000
,
0000
0001
0000
0010
0000
0100
0000
1000
,
0000
0001
0000
0100
0000
0010
1010
0000
,
0001
0000
1000
0000
0010
0100
0001
0000
,
0001
0000
0010
0000
0100
1000
0001
0000
,
0100
0000
0010
0000
1000
0001
0100
0000
,
0010
0000
1000
0000
0100
1000
0001
0000
,
0001
0000
0100
0000
0010
1000
0100
0000
,
1000
0000
0001
0000
0010
0100
1000
0000
,
0001
0000
0100
0000
0010
1000
0100
0000
,
1000
0001
0100
0000
0010
0000
1000
0000
,
0100
1000
0001
0000
0101
0000
1010
0000
,
0010
1000
0100
0000
1100
0000
0011
0000
,
0001
0000
0100
0000
0010
1000
0100
0000
,
1000
0001
0100
0010
,
1100
0001
0100
0010
,
1000
0100
1000
0000
0001
0100
0000
0101
,
0000
0010
0000
1000
0000
0100
1000
0000
,
0001
0000
0100
0000
0010
1000
0100
0000
,
0000
1000
0000
0001
0000
0100
0010
0000
,
0010
1000
0100
0000
1000
0001
0000
0101
,
0000
0010
0000
1000
0000
0100
1000
0000
,
0001
0100
0000
0100
0010
0000
1000
0000
,
0100
1000
0001
0000
0100
0010
1000
0000
,
1000
0001
0100
0000
0100
0001
0010
0000
,
0010
0100
1000
0001
0100
1000
0100
0010
,
1000
0100
1000
0001
,
0100
0010
0000
1000
0000
0001
0000
0100
,
0010
0000
1000
0100
0000
1000
0001
0100
,
0000
0010
0000
1000
0000
0001
0010
0000
,
0010
0100
0000
0000
0000
1000
0001
0000
,
0001
0000
0100
0000
0010
1000
0100
1000
,
0001
0000
0100
0000
0010
1000
0001
0000
,
0001
0000
0100
0000
0010
0010
0010
0000
,
0010
0000
1000
0000
0100
0100
0100
0000
,
1000
0000
0001
0000
0100
0010
1000
0000
,
0100
0000
1000
0000
0001
0010
0100
0000
,
1000
0000
0001
0000
0100
0010
1000
0000
,
0001
1000
0001
1100
,
0001
0100
0010
0000
0010
0010
0010
0000
,
0010
1000
0100
0000
1000
0100
1000
0000
,
0001
0000
0100
0000
0010
1000
0100
0000
,
1000
0000
0001
0000
0100
0100
0100
0000
,
0010
0000
1000
0000
0100
0000
1000
0001
,
0100
0000
0010
0000
0010
1000
0000
0100
,
0000
1000
0000
0001
0000
0100
0010
0000
,
0010
0000
1000
0000
0100
1000
0001
0000
,
0000
0100
0000
0010
0000
1000
0001
0000
,
0100
0000
0010
0000
1000
0100
0000
1100
,
0000
0001
0000
0100
0000
1000
0100
0000
,
0001
0010
0000
1000
0010
0000
0001
0000
,
0100
0000
0010
0000
1000
0100
1000
0000
,
0001
0000
0100
0000
0010
1000
0100
1000
,
0001
0100
0010
0010
,
1000
0100
1100
0101
,
0010
1000
0000
0100
0000
1000
0000
0001
,
0100
0000
0010
1000
0000
0100
1000
0001
,
0000
0001
0000
0100
0000
0010
0100
0000
,
1100
0000
0011
0000
0000
0100
1000
0000
;

//---------------dance-single - ----------------
#NOTES:
     dance-single:
     :
     Easy:
     3:
     0.247,0.230,0.117,0.008,0.000,192.000,14.000,1.000,0.000,0.000,0.000,0.247,0.230,0.117,0.008,0.000,192.000,14.000,1.000,0.000,0.000,0.000:
0000
0000
0000
0000
,
1000
0000
0001
0000
,
0001
0000
0100
0000
,
0010
0000
1000
1000
,
0000
0001
0100
0000
,
0010
1000
0100
0000
,
1000
0001
0100
0100
,
0010
1000
0001
1000
,
0100
0000
1000
0000
,
0001
0100
0010
1001
,
0100
0000
1000
0001
,
0100
0000
0010
1000
,
1001
0000
0010
1000
,
0100
1000
0001
0101
,
1010
0100
1000
0100
,
0000
1000
0001
0100
,
0010
0000
0010
1000
,
0001
0100
1010
0101
,
0010
1000
0100
1000
,
0001
0100
0010
0000
,
1001
0000
0001
0000
,
0100
0010
1000
0001
,
0000
0001
0000
0100
,
0000
0010
1000
0100
,
0000
0100
1000
0000
,
0001
0100
0010
0000
,
0010
1000
0001
0100
,
0010
0010
1000
0100
,
1000
0001
0100
0010
,
1000
0001
2000
3000
,
0001
1000
0010
0100
,
0001
1000
0100
1100
,
0000
0100
1000
0010
,
0101
1010
0000
0001
,
1000
0010
0100
0001
,
0001
0000
0010
0000
,
1000
0100
0010
0000
,
1000
0000
0010
0100
,
0001
0000
1000
0000
,
0010
0000
0100
0001
,
1000
0000
0010
0000
,
0100
0100
0001
0001
,
0010
0000
1000
0000
,
0010
0000
0100
0000
,
0001
1000
0010
0000
,
0100
0000
1000
0000
,
0010
0010
0010
0010
,
0010
0000
1000
0000
,
0001
0001
0001
0100
,
0010
0000
1000
0000
,
0001
0100
0010
1000
,
0100
0000
0010
0000
,
1000
0100
0010
1000
,
1010
0101
0010
0000
,
0010
1000
1000
0100
,
0010
1000
0001
0100
,
0010
1000
0001
0100
,
0010
0001
0100
1000
,
0010
0001
0100
1000
,
0010
0001
0100
0010
,
1000
0001
0100
0010
,
1010
0101
0000
0000
;
