#TITLE:Boss Theme;
#SUBTITLE:;
#ARTIST:Castle of Illusion;
#TITLETRANSLIT:;
#SUBTITLETRANSLIT:;
#ARTISTTRANSLIT:;
#GENRE:;
#CREDIT:;
#BANNER:Boss Theme.png;
#BACKGROUND:;
#LYRICSPATH:;
#CDTITLE:;
#MUSIC:Castle_of_Illusion_-_Boss_Theme.ogg;
#OFFSET:0.571;
#SAMPLESTART:40.510;
#SAMPLELENGTH:15.000;
#SELECTABLE:YES;
#BPMS:0.000=152.720;
#STOPS:;
#BGCHANGES:;
#KEYSOUNDS:;

//---------------dance-single - ----------------
#NOTES:
     dance-single:
     :
     Challenge:
     11:
     1.000,0.924,0.000,0.239,1.000,498.000,0.000,17.000,26.000,0.000,0.000,1.000,0.924,0.000,0.239,1.000,498.000,0.000,17.000,26.000,0.000,0.000:
0000
0000
0000
0000
,
1000
0010
0100
0010
1000
0001
0100
0010
1000
0100
0010
0100
1000
0001
1000
0000
,
1000
0010
1000
0100
0010
0001
0100
0010
1000
0100
0010
0001
1000
0001
0100
0000
,
0001
0100
0001
0100
0001
0000
0010
0100
1000
0100
1000
0100
1000
0000
0001
0000
,
0100
0010
0100
0010
0100
0000
0001
1000
0001
1000
0001
1000
0001
0000
0010
0001
,
0010
0100
1000
0100
1000
0010
1000
0010
1000
0001
1000
0001
1000
0001
1000
0000
,
1000
0100
1000
0100
1000
0010
1000
0010
0100
0001
0100
0001
0010
0001
0100
0000
,
0001
0100
0001
0100
0001
0000
1000
0010
1000
0100
1000
0100
1000
0000
0001
0010
,
0001
0010
0001
0010
0001
0000
1000
0001
1000
0001
1000
0001
1000
0001
1000
0100
,
0010
0001
0010
0100
1000
0000
0002
0000
0000
0000
1003
0000
1000
0000
1000
0000
,
0010
1000
0010
1000
0010
0000
2000
0000
0000
0000
3100
0000
0100
0000
0100
0000
,
0010
0001
0010
0001
0010
0000
0002
0000
0000
0000
0103
0000
0100
0000
0100
0000
,
0010
1000
0010
1000
0010
0000
2000
0000
0000
0000
3010
0000
0010
0000
0010
0000
,
0100
0010
0100
0010
0200
0000
0000
0000
0310
1000
0010
1000
0100
1000
0100
1000
,
0001
1000
0001
1000
0010
0000
0100
0000
0010
0100
0010
0100
0001
0100
0001
0100
,
0001
1000
0001
1000
0100
0000
0010
0000
0001
0100
0001
0100
0001
0000
1000
0100
,
1000
0100
1000
0100
1000
0000
0010
0000
0100
0001
0100
0001
0100
0000
0010
1000
,
0010
1000
0010
1000
0020
0000
0000
0000
1030
0001
0100
0010
1000
0001
0100
0010
,
1000
0100
0010
0001
0100
0010
1000
0000
0001
0100
0010
0100
0001
0010
0100
1000
,
0001
0100
0010
1000
0100
0010
0001
0000
1000
0100
1000
0100
1000
0000
0001
0100
,
0010
1000
0010
1000
0010
0000
1000
0100
1000
0100
1000
0100
1000
0000
0001
1000
,
0001
1000
0001
1000
0001
0100
0010
0100
0010
0100
0010
0100
0010
0000
2000
0000
,
0000
0000
3001
0000
0001
0000
0001
0000
1000
0100
1000
0100
1000
0000
0020
0000
,
0000
0000
0130
0000
0100
0000
0100
0000
0010
1000
0010
1000
0010
0000
2000
0000
,
0000
0000
3100
0000
0100
0000
0100
0000
0010
0001
0010
0001
0010
0000
0002
0000
,
0000
0000
0103
0000
0100
0000
0100
0000
0001
0100
0001
0100
0001
0000
0001
0100
,
0010
1000
0100
0010
0001
0100
0010
0100
0010
1000
0100
0010
0001
1000
0001
0000
,
1000
0010
0100
0010
1000
0100
0010
0001
0100
0010
1000
0100
0010
0001
1000
0000
,
0010
1000
0010
1000
0010
0000
0100
0010
0100
0010
0100
0010
0100
0000
0001
0100
,
0001
0100
0001
0100
0001
0000
1000
0001
1000
0001
1000
0001
2000
0000
0000
0000
,
3010
1000
0100
0010
0001
1000
0010
0100
0010
1000
0100
0010
0001
1000
0001
0000
,
1000
0100
1000
0010
0100
0001
0010
0001
0100
0010
1000
0100
0010
0001
1000
0000
,
0010
1000
0010
1000
0010
0000
0100
0001
0100
0001
0100
0001
0100
0000
0001
0010
,
0001
0010
0001
0010
0001
0000
1000
0100
1000
0100
1000
0100
2000
0000
0100
0010
,
3001
1000
0010
0100
0010
0000
2000
0000
0000
0000
3001
0000
0001
0000
0001
0000
,
1000
0010
1000
0010
1000
0000
0020
0000
0000
0000
0130
0000
0100
0000
0100
0000
,
0001
0100
0001
0100
0001
0000
2000
0000
0000
0000
3100
0000
0100
0000
0100
0000
,
0010
0001
0010
0001
0010
0000
0002
0000
0000
0000
1003
0000
1000
0000
1000
0000
,
0010
1000
0000
0010
1000
0000
1000
0100
0010
0001
1000
0010
0100
0001
0010
0100
,
1000
0001
0100
0010
1000
0100
0010
0000
0001
0010
0100
1000
0010
0100
0001
1000
,
0100
1000
0010
0100
0001
1000
0200
0000
0000
0000
0000
0000
0000
0000
0000
0000
,
0000
0000
0000
0000
0000
0000
0000
0000
0000
0000
0000
0000
0000
0000
0000
M000
00M0
0000
000M
0000
00M0
0000
M000
0000
,
00M0
000M
00M0
000M
M000
00M0
000M
M000
000M
00M0
M000
00M0
,
000M
00M0
000M
M000
00M0
000M
00M0
M000
00M0
0300
0000
0000
;

//---------------dance-single - ----------------
#NOTES:
     dance-single:
     :
     Hard:
     8:
     0.650,0.555,0.000,0.352,0.331,298.000,0.000,25.000,22.000,0.000,0.000,0.650,0.555,0.000,0.352,0.331,298.000,0.000,25.000,22.000,0.000,0.000:
0000
0000
0000
0000
,
1000
0010
0100
0010
1000
0100
0010
0010
,
0001
0100
0010
1000
0100
0001
0100
0100
,
1000
0010
2000
3000
1000
0001
2000
3000
,
1000
0100
2000
3000
0001
0010
0002
0003
,
0001
1000
0010
0100
0010
1000
0100
0100
,
0010
0001
0100
0010
1000
0100
0001
0001
,
0100
1000
0200
0300
1000
0001
2000
3000
,
0010
1000
0020
0030
0100
0010
0200
0300
,
0010
1000
0010
1000
0010
0000
0000
0000
1000
0000
0000
0000
0010
0000
1000
0000
,
0010
1000
0010
1000
0010
0000
0000
0000
0100
0000
0000
0000
0001
0000
0100
0000
,
0001
0100
0001
0100
0001
0000
0000
0000
1000
0000
0000
0000
0010
0000
0100
0000
,
0010
0100
0010
0100
0010
0000
0000
0000
1000
0000
0000
0000
0100
0000
0010
0000
,
0001
0010
0000
0001
0010
0000
0001
0010
0001
0000
1000
0000
0010
0000
0100
0000
,
0010
1000
0100
0100
0010
0001
0100
1000
,
0001
0010
1000
1000
0100
0010
0200
0300
,
1000
0100
2000
3000
0010
1000
0020
0030
,
0100
0010
0200
0300
0001
0100
1000
0100
,
0001
0100
1000
1000
0100
0001
0010
1000
,
0010
0001
0010
0010
0001
0100
0002
0003
,
0001
1000
0002
0003
0001
0010
0002
0003
,
1000
0000
0100
0000
2000
0000
3000
0000
1000
0100
1000
0100
1000
0000
0000
0000
,
0001
0000
0000
0000
0100
0000
0010
0000
0100
0010
0100
0010
0100
0000
0000
0000
,
1000
0000
0000
0000
0001
0000
1000
0000
0001
1000
0001
1000
0001
0000
0000
0000
,
1000
0000
0000
0000
0010
0000
1000
0000
0010
1000
0010
1000
0010
0000
0000
0000
,
1000
0000
0000
0000
0100
0000
1000
0000
0100
1000
0000
0100
1000
0000
0100
1000
,
0100
1000
0010
0100
0001
0010
0100
0100
,
1000
0010
0100
0010
1000
0100
0010
0010
,
0001
1000
0002
0003
1000
0010
2000
3000
,
0001
0010
0002
0003
1000
0100
2000
3000
,
0001
0100
0010
1000
0100
0010
0001
0001
,
1000
0010
0100
0010
0001
0010
1000
1000
,
0100
1000
0200
0300
0010
0100
0020
0030
,
0001
0010
0002
0003
1000
0001
2000
3000
,
0001
0010
0001
0010
0001
0000
0000
0000
1000
0000
0000
0000
0001
0000
0010
0000
,
0100
1000
0100
1000
0100
0000
0000
0000
0010
0000
0000
0000
0001
0000
1000
0000
,
0010
1000
0010
1000
0010
0000
0000
0000
0100
0000
0000
0000
0010
0000
1000
0000
,
0100
1000
0100
1000
0100
0000
0000
0000
0010
0000
0000
0000
0001
0000
1000
0000
,
0010
1000
0000
0010
1000
0000
1000
0100
1000
0000
0001
0000
0100
0000
0010
0000
,
1000
0001
1000
1000
0100
0010
0001
1000
,
0100
0001
0100
0200
0000
0000
0000
0000
,
0000
0000
0000
0000
0000
0000
0000
0000
0000
0000
0000
0000
0000
0000
0000
M000
00M0
0000
000M
0000
00M0
0000
M000
0000
,
00M0
000M
00M0
000M
M000
00M0
000M
M000
000M
00M0
M000
00M0
,
000M
00M0
000M
M000
00M0
0000
0000
0000
0000
0300
0000
0000
;

//---------------dance-single - ----------------
#NOTES:
     dance-single:
     :
     Medium:
     6:
     0.400,0.370,0.014,0.014,0.000,197.000,1.000,1.000,0.000,0.000,0.000,0.400,0.370,0.014,0.014,0.000,197.000,1.000,1.000,0.000,0.000,0.000:
0000
0000
0000
0000
,
1000
0000
0010
0000
0100
0010
0100
0000
,
0010
0000
1000
0000
0100
1000
0100
0000
,
1000
0000
0001
0000
0001
0100
0001
0000
,
1000
0000
1000
0000
0100
1000
0100
0000
,
1000
0000
0010
0000
0100
0010
0100
0000
,
0010
0000
1000
0000
0001
0100
0001
0000
,
1000
0000
1000
0000
0100
1000
0100
0000
,
1000
0000
1000
0000
0001
0100
0001
0000
,
1000
1000
0100
0100
,
1000
0001
0100
0000
0100
0000
0100
0000
,
0010
1000
0100
0000
0010
0000
0010
0000
,
0001
0100
1100
0000
0100
0000
0010
0000
,
0010
1000
0100
0000
0100
0000
1000
0000
,
0001
0100
0001
0000
1000
0000
0010
0000
,
1000
0001
0100
0000
0001
0000
0010
0000
,
0100
1000
0001
0000
0100
0000
0010
0000
,
0010
1000
0100
0000
1000
0000
0001
0000
,
0100
0001
0010
0000
0100
0000
1000
0000
,
0010
0100
0001
0000
1000
0000
0100
0000
,
1000
0001
0100
0000
0010
0000
1000
0000
,
0001
0100
0001
0000
1000
0100
1000
0000
,
0001
0000
0001
0000
0001
0100
0001
0000
,
1000
0000
1000
0000
0010
0100
0010
0000
,
1000
0000
1000
0000
0001
0100
0001
0000
,
1000
1000
0010
0100
,
0010
1000
0100
0000
1000
0001
0100
0000
,
0001
0000
1000
0000
0010
1000
0100
0000
,
1000
0001
0100
0000
0001
1000
0100
0000
,
1000
0010
0100
0000
0010
0100
0010
0000
,
1000
1000
0001
0001
,
0100
0100
0010
0010
,
1000
0010
1000
0000
0010
0000
0010
0000
,
0100
0010
0100
0000
0010
0000
0010
0000
,
1000
0001
0100
0000
0010
0000
0010
0000
,
1000
0100
0010
0000
0001
0000
0001
0000
,
0100
1000
0100
0000
0010
0000
1000
0000
,
0100
1000
0100
0000
1000
0000
0001
0000
,
0100
0010
1000
0000
0001
0000
0100
0000
,
0010
1000
0100
0000
1000
0000
0001
0000
,
0100
0002
0000
0000
,
0000
0000
0000
0000
,
0000
0000
0000
0000
,
0000
0000
0000
0003
;

//---------------dance-single - ----------------
#NOTES:
     dance-single:
     :
     Easy:
     3:
     0.247,0.225,0.014,0.000,0.000,122.000,1.000,0.000,0.000,0.000,0.000,0.247,0.225,0.014,0.000,0.000,122.000,1.000,0.000,0.000,0.000,0.000:
0000
0000
0000
0000
,
1000
0010
0100
0100
,
0010
1000
0100
0100
,
1000
0000
0001
0000
,
0100
0000
0010
0000
,
1000
0001
0100
0100
,
0010
1000
0100
0100
,
1000
0001
0100
0100
,
0010
1000
0100
1000
,
0001
0100
0000
0100
,
0010
1000
0000
1000
,
0001
0100
0000
0001
,
1000
0010
0000
0010
,
0100
1001
0010
0100
,
0001
1000
1000
1000
,
0100
1000
0010
0000
,
0100
0000
0001
0000
,
1000
0000
0100
0010
,
0001
0100
0010
1000
,
0001
0100
0010
0000
,
1000
0000
0001
0000
,
0100
0000
0010
1000
,
0000
0001
0100
0010
,
0000
0010
1000
0100
,
0000
1000
0001
0100
,
0000
0001
0010
0100
,
1000
0001
0100
0100
,
0010
1000
0100
0100
,
1000
0000
0001
0000
,
0100
0000
0010
0000
,
1000
0001
0100
0010
,
1000
0100
0010
0001
,
0100
0000
0010
0000
,
1000
0000
0001
0000
,
0100
0010
0000
1000
,
0001
0100
0000
0001
,
1000
0100
0000
0010
,
0001
0100
0000
0010
,
1000
0100
1000
0000
,
0001
0000
0100
0000
,
0010
0000
0000
0000
;
