#TITLE:Because of You;
#SUBTITLE:(The Eurohouse Dance Remix);
#ARTIST:MC BOY;
#TITLETRANSLIT:;
#SUBTITLETRANSLIT:;
#ARTISTTRANSLIT:;
#GENRE:;
#CREDIT:;
#BANNER:Because of You.png;
#BACKGROUND:;
#LYRICSPATH:;
#CDTITLE:;
#MUSIC:SAI 1269 - Mc Boy - Because Of You (The Eurohouse Dance Remix).ogg;
#OFFSET:0.086;
#SAMPLESTART:60.350;
#SAMPLELENGTH:17.380;
#SELECTABLE:YES;
#BPMS:0.000=130.000;
#STOPS:;
#BGCHANGES:;
#KEYSOUNDS:;

//---------------dance-single - ----------------
#NOTES:
     dance-single:
     :
     Hard:
     7:
     0.500,0.461,0.173,0.428,0.005,318.000,19.000,47.000,16.000,0.000,0.000,0.500,0.461,0.173,0.428,0.005,318.000,19.000,47.000,16.000,0.000,0.000:
0000
0000
0000
0000
1001
0000
1001
1000
,
0001
0010
0100
1000
0000
0001
1000
0010
,
0100
0010
1000
0100
0000
0000
0010
0001
,
0000
0001
0000
1000
0000
0001
0100
1000
,
0100
0001
0010
0000
0110
0000
0001
0010
,
1000
0010
0001
1000
0000
0010
0100
0010
,
0010
1000
0100
1000
1010
0000
0000
0000
,
0110
0000
0000
0101
0000
0000
1000
0000
,
0001
1000
0001
1000
MMMM
0000
MMMM
0000
,
MMMM
0000
MMMM
0000
1000
0010
0100
0010
,
1000
0100
0010
0001
1000
0100
0001
0100
,
1000
0001
0100
1000
0100
0000
0010
1000
,
0000
0100
0000
0010
0000
0001
0100
0010
,
1000
0001
0001
0001
0001
0000
0001
0010
,
0100
0010
0001
1000
0010
0000
0010
1000
,
0001
0010
1000
0010
0001
0000
0000
0000
,
1001
0000
0000
0011
0000
0000
1000
0000
,
0001
0000
0010
0000
0100
1000
0001
0100
,
0010
0100
0010
1000
0000
0001
0100
0010
,
1000
0100
0020
0000
0030
0001
1000
0010
,
0100
0010
1000
0001
1000
0100
0100
0000
,
0100
0010
0002
0000
0003
1000
0010
0100
,
0010
1000
0100
1000
0000
0001
0100
1000
,
0100
0001
0020
0000
0030
0100
1000
0001
,
0100
0010
1000
0001
0100
0000
0010
1000
,
0100
0001
0200
0300
1001
1000
1000
0001
,
0001
0100
0100
0020
1030
1000
0001
0001
,
0010
0010
0100
0100
1000
1000
0010
0010
,
0100
0100
0001
0001
1000
1000
0001
0001
,
0100
1000
0100
0001
0020
0000
0030
0000
,
0000
0110
0000
0000
0001
1000
0010
0001
,
1000
0000
0000
0100
0000
0000
0002
0000
2000
0000
0000
0000
0000
0000
3003
0000
,
1001
0000
0000
1100
1000
0000
0001
0010
,
1000
0010
0001
0100
0010
0000
0000
0000
,
1000
0001
0000
0220
0000
0000
0330
0000
,
0001
1000
0000
2000
0000
3000
0001
0100
,
0000
2002
0000
0000
3003
0000
1000
0001
,
0100
1000
0100
0002
2000
3003
0000
1001
,
0001
0100
0010
2000
0200
3300
0000
0000
,
1000
0001
0010
0200
0300
2000
0000
3000
,
0000
0001
0100
0100
0020
0000
2030
0000
,
3002
0000
0013
0100
2100
0000
3002
0000
,
0023
0000
0130
1000
0002
0000
0203
0000
,
0320
0000
1030
0001
0020
0000
0230
0000
,
2300
0000
3001
1000
0002
0000
2003
0000
,
3020
0000
0130
0010
2000
0000
3002
0000
,
0023
0100
0130
1000
0002
0000
0103
0010
,
1000
0000
0001
0010
0200
0000
0000
0000
,
0320
0000
0000
0032
0000
0000
0000
0000
,
0003
0000
1000
0010
0200
0000
0000
0000
,
0320
0000
0000
2030
0000
0000
0000
0000
,
3000
0000
0001
0010
0200
0000
0300
1000
,
0001
0010
0100
0010
0001
0000
0001
1000
,
0010
0100
0010
1000
0001
0000
0010
0100
,
0000
0010
0000
1000
0000
0001
0010
0100
,
0010
0001
1000
0010
0100
0000
0010
1000
,
0001
0010
1000
0010
0001
0000
1000
0010
,
0100
0100
0100
0010
0110
0000
0000
0000
,
1001
0000
0000
0220
0000
0000
0000
0000
,
0000
0000
0330
0000
;

//---------------dance-single - ----------------
#NOTES:
     dance-single:
     :
     Medium:
     5:
     0.367,0.430,0.091,0.282,0.000,241.000,10.000,31.000,0.000,0.000,0.000,0.367,0.430,0.091,0.282,0.000,241.000,10.000,31.000,0.000,0.000,0.000:
0000
0000
1001
0000
,
0001
0000
0100
0010
0000
0000
1000
0000
,
0001
0000
1000
0100
0000
0000
1000
0001
,
0000
0100
0000
0100
0000
0000
0010
1000
,
0100
1000
1001
1000
,
0100
1000
0000
0001
0000
0000
0001
0000
,
0100
0000
0000
0010
1000
0000
0000
0100
,
1000
0000
0001
0100
0000
0010
1000
0000
,
0001
1000
0001
0001
,
0001
0001
0001
1000
,
0100
1000
0100
0000
1000
0000
0001
0000
,
0010
0001
0010
0000
0100
0000
1000
0000
,
0001
0100
0010
1000
,
0001
0010
0001
0000
1000
0000
0100
0000
,
1000
0001
0100
0000
0010
0000
1000
0000
,
0001
1000
0100
0000
,
1000
0000
0000
0001
0000
0000
0100
0000
,
0010
1000
0001
0100
,
0100
0100
0100
0000
0010
0000
1000
0000
,
0100
1000
0100
0000
1000
0000
0001
0000
,
0100
0010
1000
0001
,
0001
0100
1000
0000
0100
0000
0010
0000
,
1000
0001
0100
0000
0010
0000
1000
0000
,
0001
0010
0100
0000
1000
0000
0001
0000
,
0100
0010
1000
0001
,
1000
1100
0000
1000
,
0001
0000
0100
0000
0010
1000
0001
0000
,
0001
1000
0100
0000
1000
0000
0001
0000
,
0100
0001
0011
1100
,
1010
0101
1001
0000
,
1000
0100
0000
0000
1000
0000
0001
0000
,
0100
0010
2000
0000
,
3002
0000
0103
0010
,
1000
0001
0100
0000
,
0010
0100
0000
1001
0000
0000
0000
0000
,
0100
1000
0000
2000
0000
0000
3001
0100
,
0000
0200
0000
0000
0300
0000
0010
0000
,
1000
0000
0001
0200
0000
0300
0100
0000
,
0010
0000
1000
0200
0000
0000
1300
0000
,
0001
0100
0010
1000
,
0001
1000
0002
0203
,
0320
1030
0200
2300
,
3002
0103
0020
2030
,
3002
0203
0320
2030
,
3200
0320
0032
0203
,
0320
2030
3002
0023
,
0230
2300
3002
0103
,
0010
0000
1000
0100
1000
0000
0000
1000
,
0001
0000
0000
0100
0001
0000
0001
0000
,
1000
0000
0100
1000
0100
0000
0000
1000
,
0001
0000
0000
0100
0001
0000
0001
0000
,
1000
0100
1000
0010
,
0100
0001
0100
0000
0010
0000
1000
0000
,
0100
1000
0100
0000
1000
0000
0001
0000
,
0100
0000
0010
0000
1000
0000
0001
1000
,
0100
1000
0001
0010
,
0100
1000
0001
0000
0100
0000
0010
0000
,
1000
0001
0100
0000
0010
0000
0000
0000
,
0100
0000
0000
0220
0000
0000
0000
0000
,
0330
0000
0000
0000
;

//---------------dance-single - ----------------
#NOTES:
     dance-single:
     :
     Easy:
     3:
     0.233,0.213,0.082,0.000,0.000,170.000,9.000,0.000,0.000,0.000,0.000,0.233,0.213,0.082,0.000,0.000,170.000,9.000,0.000,0.000,0.000,0.000:
0000
0000
1001
0000
,
0001
0100
0100
0000
,
0010
1000
1001
0000
,
0001
0100
0100
0000
,
0010
1000
0001
0000
,
0100
0010
1000
0000
,
1000
0001
0010
0000
,
0100
0000
0000
1000
0000
0000
0001
0000
,
0100
0010
1001
0000
,
0000
0000
0001
0000
,
0100
0010
1000
0000
,
1000
0001
0100
0000
,
0001
1000
0100
0000
,
1000
0001
0100
0000
,
0001
1000
0010
0000
,
0010
0100
0001
0000
,
1000
0000
0000
0001
0000
0000
0100
0000
,
0100
1000
0000
0001
,
0100
0100
0000
0010
,
1000
1001
0000
0001
,
0010
0100
1000
0001
,
0001
0100
0000
0010
,
1000
0001
0000
1000
,
0100
1000
0000
0001
,
0100
0010
1000
0001
,
0010
0100
0000
1000
,
0001
0100
0010
0010
,
0010
0100
0001
1000
,
0100
1000
0001
0100
,
0010
1000
1001
0000
,
0000
1001
0000
0000
0100
0000
0000
0000
,
1000
0001
0100
0000
,
0010
0000
1000
0000
,
0001
1000
1001
0000
,
1000
0000
0000
1001
0000
0000
0000
0000
,
0001
0000
0000
0001
0000
0000
0000
0100
,
0000
0010
0000
0000
0000
0000
1000
0000
,
0100
1000
0001
0000
,
0100
0000
0000
0010
0000
0000
0000
0000
,
1000
0100
1000
0000
,
0001
0000
0100
0010
,
1000
0100
1000
0000
,
0001
0000
0100
0010
,
0100
0010
1000
0000
,
0001
0000
0010
0100
,
1000
0001
0100
0000
,
0010
0000
1000
0001
,
0100
0000
0010
0000
,
1000
0000
0000
0001
0000
0000
0000
0000
,
0100
0010
1000
0000
,
0100
0000
0000
0010
0000
0000
1000
0000
,
0001
0100
0010
0000
,
1000
0001
0010
0000
,
0100
1000
0001
0000
,
0100
0010
1000
0000
,
1000
0001
0100
0000
,
0100
0010
1000
0000
,
0001
0010
0100
0000
,
1000
0000
0000
1001
0000
0000
0000
0000
;
