#TITLE:Animals;
#SUBTITLE:;
#ARTIST:Nickelback;
#TITLETRANSLIT:;
#SUBTITLETRANSLIT:;
#ARTISTTRANSLIT:;
#GENRE:;
#CREDIT:;
#BANNER:Animals.png;
#BACKGROUND:;
#LYRICSPATH:;
#CDTITLE:;
#MUSIC:04 - Animals.ogg;
#OFFSET:0.162;
#SAMPLESTART:37.990;
#SAMPLELENGTH:13.160;
#SELECTABLE:YES;
#BPMS:0.000=154.000;
#STOPS:;
#BGCHANGES:;
#KEYSOUNDS:;

//---------------dance-single - ----------------
#NOTES:
     dance-single:
     :
     Hard:
     9:
     0.627,1.000,0.085,0.054,0.196,553.000,11.000,7.000,0.000,0.000,0.000,0.627,1.000,0.085,0.054,0.196,553.000,11.000,7.000,0.000,0.000,0.000:
0000
0000
0000
0000
,
0000
0000
0000
0000
1001
0000
0001
1000
,
1001
0000
0001
1000
0000
0001
0000
1000
,
0000
0000
0010
0000
0000
0000
1000
0000
0001
1000
0010
0100
0010
1000
0100
0010
,
0001
1000
0001
1000
0010
0000
1000
0000
0000
0000
0001
0000
0000
0000
1000
0000
,
0000
0000
0000
0010
0000
0000
0000
0000
0000
0100
0000
0000
0110
0000
0000
0000
0000
0000
0000
0000
0000
1000
0100
1000
,
0100
0000
1000
0001
0000
0100
0000
0010
,
0000
0000
1000
0000
0001
1000
0010
0100
0010
1000
0001
0100
0010
0000
1000
0000
,
0001
0100
0010
1000
0100
0000
0010
0000
0000
0000
0001
0000
0000
0000
0100
0000
,
0000
0010
1000
0001
0100
0200
0000
0310
,
1000
0001
0100
0100
0000
0010
0000
1000
,
0000
0000
0100
0000
0001
0000
0100
0000
1000
0000
0000
1000
0010
0000
0100
0000
,
0110
0000
1000
0001
0000
0010
0000
0100
,
1000
1000
0001
0100
0001
0002
0000
1003
,
0010
0100
0010
1000
0000
0100
0000
0010
,
0000
0000
0001
0000
0000
0000
0001
1000
0100
0000
0010
0000
0010
0000
0001
0000
,
0001
0000
0010
0001
0000
0001
0100
0010
,
0000
1000
0001
0100
0000
0001
1000
0100
,
0000
0010
0001
1000
0000
0010
1000
0100
,
0000
0010
0001
0100
0000
0010
1000
0001
,
0000
1000
0010
0100
0000
0100
0010
0001
,
0000
0001
0010
1000
0000
1000
0001
0100
,
0100
0010
1000
0001
0001
0100
0010
1000
,
1000
0100
0010
0001
0001
1000
0010
0100
,
0010
1000
1010
0000
0000
1000
0100
0010
,
0000
0001
0100
0010
0000
1000
0001
0100
,
0000
0010
1000
0100
0000
0010
0001
1000
,
0000
1000
0001
0100
0000
0100
0010
1000
,
0000
0001
0100
0100
0000
0010
1000
1000
,
0000
0100
0010
0010
0001
1000
0010
0010
,
1000
1000
1000
0100
0010
0010
0010
0001
,
1000
1000
1000
0010
0100
0010
0100
0010
,
0100
0010
0110
2000
0000
3200
0000
0320
,
0000
0031
1000
0010
0000
0010
0100
0010
,
1000
0010
1000
0001
0000
0001
0000
1000
,
0000
0000
0100
0000
0010
0000
0001
0000
0000
0000
1000
0000
0001
0000
1000
0001
,
0100
0100
0110
0010
0000
1000
0000
0001
,
0000
0010
0010
0010
0000
0002
0000
1003
,
0001
0100
0010
0010
0000
1000
0000
0100
,
0000
0000
0010
0000
0001
0000
0001
0000
0000
0000
1000
0000
1000
0000
0010
0100
,
0010
0100
0010
0000
1000
0000
0001
0000
0000
0000
0010
0000
0000
0000
0100
0000
,
0000
0000
1000
0000
0000
0000
0001
0000
0001
0000
0000
1000
0001
0000
1000
0000
,
0010
0000
0100
0010
0000
1000
0000
0001
,
0000
0000
0010
0000
0100
0000
0100
0000
1000
0000
0100
0000
1000
0000
0001
0100
,
0001
0100
0001
0000
1000
0000
0010
0000
0000
0000
0100
0000
0000
0000
0010
0000
,
0000
0000
1000
0000
0000
0000
0100
0000
0100
0000
0000
0010
0001
0000
1000
0000
,
1010
0000
0010
0100
0000
0010
0000
1000
,
0000
0000
0100
0000
1000
0000
1000
0001
1000
0000
0001
1000
0001
0000
0100
0000
,
0010
0100
0010
0000
1000
0000
0100
0000
0000
0000
0010
0000
0001
0000
1000
0000
,
0000
0010
0100
0010
0000
1000
0100
0010
,
0100
1000
0001
0100
0000
0010
1000
0100
,
0000
0010
0100
1000
0000
0001
0100
0010
,
0000
1000
0001
0100
0000
0010
1000
0001
,
0000
0010
0100
1000
0000
0001
0100
0010
,
0100
0010
0010
1000
0100
0100
0010
0010
,
0001
0001
1000
1000
0010
0010
0100
0100
,
0010
0010
0110
0010
0000
1000
0001
0100
,
0000
0001
1000
0100
0000
0010
0001
0100
,
0000
0010
1000
0001
0000
0001
0010
0100
,
0000
1000
0001
0100
0000
0010
1000
0100
,
0000
0000
1000
0100
0010
0000
0001
0000
0000
0000
0001
0000
0100
0000
0010
0000
,
0000
1000
0001
0100
0000
0010
1000
0100
,
0000
1000
0001
0010
0000
1000
0100
0010
,
0001
0010
0100
0100
0100
0100
0100
0100
,
0100
0100
0110
0100
0000
1000
0000
0001
,
0000
0100
0010
0010
0000
2000
0000
3100
,
0010
0100
1000
0001
0000
0100
0000
0010
,
0000
0000
1000
0000
0100
0000
0100
0000
0100
0000
0010
0000
0001
0000
0100
0010
,
1000
0100
0010
0001
0000
1000
0000
0010
,
0000
0100
0010
0010
0000
1000
0000
0100
,
0010
0010
0001
1000
0000
0010
0000
0100
,
0000
0000
0010
0000
1000
0000
1000
0000
0001
0000
0010
0000
0100
1000
0001
0000
,
0100
0000
0010
1000
0001
0000
1000
0000
0000
0000
0010
0000
0000
0000
0100
0000
,
0000
0000
1000
0000
0100
0000
0001
0000
0010
0000
0000
0100
1000
0000
0001
0000
,
0100
0000
0010
0100
0000
0010
0000
0100
,
0000
0010
0100
0100
0010
1000
0100
0010
,
0100
1000
0010
0100
0000
0010
0000
1000
,
0000
0000
0001
0000
0010
0000
0100
0000
1000
0000
0001
0100
0010
0000
1000
0000
,
1100
0000
0010
1000
0000
0001
0000
0010
,
0000
0000
1000
0000
0010
0000
0001
1000
0001
0000
0100
0010
0100
0000
0010
0000
,
1000
0100
1000
0100
1000
0100
1000
0100
1000
0100
1000
0010
1000
0010
1000
0010
,
1000
0010
1000
0001
1000
0001
1000
0001
1000
0001
0100
0010
0100
0010
0100
0010
,
0100
0010
0001
0000
0000
0000
0000
0000
0000
0000
0000
0000
0000
0000
0000
0000
;

//---------------dance-single - ----------------
#NOTES:
     dance-single:
     :
     Challenge:
     9:
     0.625,1.000,0.200,0.015,0.127,541.000,26.000,2.000,0.000,0.000,0.000,0.625,1.000,0.200,0.015,0.127,541.000,26.000,2.000,0.000,0.000,0.000:
0000
0000
0000
0000
,
0000
0000
0000
0000
1001
0000
0001
1000
,
1001
0000
0001
1000
0000
0001
0000
1000
,
0000
0000
0010
0000
0000
0000
1000
0000
0001
1000
0010
0100
0010
1000
0100
0010
,
0001
1000
0001
1000
0010
0000
1000
0000
0000
0000
0001
0000
0000
0000
1000
0000
,
0000
0000
0000
0010
0000
0000
0000
0000
0000
0100
0000
0000
0110
0000
0000
0000
0000
0000
0000
0000
0000
1000
0100
1000
,
0100
0000
1000
0001
0000
0100
0000
0010
,
0000
0000
1000
0000
0001
1000
0010
0100
0010
1000
0001
0100
0010
0000
1000
0000
,
0001
0100
0010
1000
0100
0000
0010
0000
0000
0000
0001
0000
0000
0000
0100
0000
,
0000
0010
1000
0001
0100
0200
0000
0310
,
1000
0001
0100
0100
0000
0010
0000
1000
,
0000
0000
0100
0000
0001
0000
0100
0000
1000
0000
0000
1000
0010
0000
0100
0000
,
0110
0000
1000
0001
0000
0010
0000
0100
,
1000
1000
0001
0100
0001
0002
0000
1003
,
0010
0100
0010
1000
0000
0100
0000
0010
,
0000
0000
0001
0000
0000
0000
0001
1000
0100
0000
0010
0000
0010
0000
0001
0000
,
0001
0000
1000
0000
0000
0010
0100
0010
,
1000
0100
0010
0000
0000
0010
0001
0100
,
0010
1000
0010
1000
0100
0010
0001
0100
,
1000
0001
0010
1000
0100
0010
0001
0100
,
0010
1000
1010
0000
0000
0010
0110
0000
,
0000
0010
1010
0000
0010
1000
0001
0100
,
0010
1000
0100
0010
0001
0100
0100
0010
,
1000
0100
0010
0001
0100
1000
0100
0010
,
1000
0010
1010
0000
0000
0010
1000
0001
,
0100
0001
0101
0000
0000
0001
0100
0010
,
1000
0100
1001
0001
0100
0010
1000
0100
,
0010
0001
0100
1000
0001
0010
1000
0100
,
1000
0001
0101
0000
0000
0001
0101
0000
,
0000
1000
0100
0001
0010
1000
0010
0001
,
0100
0010
1000
0001
0100
0010
1000
0100
,
0010
0001
0100
0010
1000
0100
1000
0001
,
0100
0001
0101
0000
0000
1000
0100
1000
,
0001
0100
0001
0000
0000
0001
0100
0010
,
1000
0100
1000
0000
0001
0100
0000
0100
,
0010
1000
0100
1000
0100
0000
0100
1000
,
0001
0000
0101
0000
0000
0010
1000
0100
,
1000
0001
0001
0000
0000
0001
0100
0010
,
1000
0100
1000
0000
0001
0100
0000
0100
,
0010
1000
0100
1000
0001
0000
0001
0100
,
0010
0000
0010
1000
0000
1000
0000
0001
,
0000
0100
0000
0010
1000
0010
1000
0001
,
0100
0010
1000
0001
0000
0100
0000
0010
,
0000
1000
0000
0100
1000
0001
0000
0001
,
0100
0010
1000
0100
0000
1000
0000
0001
,
0000
0100
0000
0010
1000
0010
1000
0001
,
0100
0010
1000
0001
0000
0100
0000
0010
,
0000
1000
0000
0001
0100
0000
0010
1000
,
0100
0000
1000
0000
0000
1000
0001
0100
,
0010
1000
0100
0000
0100
1000
0001
0100
,
0010
1000
1000
0100
0010
0001
0100
0100
,
0010
1000
0100
0010
0001
0100
1000
0001
,
0010
1000
1100
0000
0000
1000
1100
0000
,
0000
1000
1100
0000
1000
1000
0001
1000
,
0010
0100
0001
1000
0010
0010
1000
0100
,
0010
0001
0100
0100
0010
1000
0100
1000
,
0001
0100
0101
0000
0000
0010
1010
0000
,
0000
0010
1100
0000
0000
1000
0001
0100
,
0010
1000
1000
0001
0100
0010
1000
0100
,
0010
0001
0100
0100
0010
1000
0100
0010
,
0001
0100
0100
0000
0000
0010
1010
0000
,
0000
1000
1001
0000
0000
0100
0010
1000
,
0100
0010
0001
0100
0100
0010
1000
0100
,
0010
0001
0100
0010
1000
0001
0001
1000
,
1000
0010
0110
0000
0001
0100
0010
1000
,
0100
1000
0100
0000
0000
1000
0001
0100
,
0010
1000
1001
0000
1000
0001
0000
0100
,
0010
1000
0100
1000
0001
0000
0001
0100
,
0001
0000
1001
0000
0000
0010
0100
0010
,
1000
0100
0010
0000
0000
0010
0001
0100
,
0010
1000
0100
0000
1000
0001
0000
0100
,
0010
1000
0100
0010
0001
0000
0001
0100
,
1000
0000
0001
0010
0000
1000
0000
0100
,
0000
0010
0000
0001
0100
1000
0001
0010
,
1000
0100
1000
0100
0000
1000
0000
0001
,
0000
0100
0000
0010
1000
0010
0000
1000
,
0010
0100
0001
1000
0000
0100
0000
1000
,
0000
0001
0000
0100
0010
1000
0100
0010
,
0001
0011
0010
0001
0000
0100
0000
0010
,
0000
1000
0000
0100
1000
0000
0100
1000
,
1000
0100
0010
0001
1000
0010
1000
0010
1000
0100
1000
0100
1000
0100
0010
0100
,
0010
0001
0010
0001
0010
0001
0010
0100
1000
0100
1000
0100
1000
0001
0010
0100
,
1000
0100
1000
0000
0000
0000
0000
0000
0000
0000
0000
0000
0000
0000
0000
0000
;

//---------------dance-single - ----------------
#NOTES:
     dance-single:
     :
     Medium:
     6:
     0.378,0.379,0.392,0.000,0.000,293.000,51.000,0.000,0.000,0.000,0.000,0.378,0.379,0.392,0.000,0.000,293.000,51.000,0.000,0.000,0.000,0.000:
0000
0000
0000
0000
,
0000
0000
0000
0000
,
0000
0000
0001
0000
0000
0100
0000
0010
,
0000
1000
0000
0001
0100
0000
0001
0000
,
0100
0000
0010
0000
0000
0100
0000
0010
,
0000
1000
0000
0001
1000
0000
0000
0000
,
1100
0000
0001
0100
0000
0010
0000
1000
,
0000
0001
0000
0100
0000
0001
0000
0000
,
0000
0000
1000
0100
0000
1000
0000
0001
,
0000
0100
0000
0100
0000
0010
0000
1000
,
0001
0000
1000
0100
0000
1000
0000
0001
,
0000
0100
0000
0001
1000
0000
0100
1000
,
0001
0000
0001
0100
0000
0100
0000
0010
,
0000
1000
0000
0001
1000
0100
0000
0100
,
1000
0000
0001
0100
0000
0100
0000
0010
,
0000
1000
0000
0001
0100
0000
0100
0010
,
1000
0001
0000
0001
,
0100
0110
0000
0010
,
1000
1001
0100
1000
,
0001
0100
0010
1000
,
0001
0011
0000
1100
,
0000
0101
0000
1010
,
0001
0100
0010
1001
,
0100
1000
0001
0100
,
0010
1001
0000
1100
,
0000
0101
0000
0001
,
1000
1100
1000
0001
,
0100
1010
0010
1000
,
0100
1001
0000
0101
,
0000
1010
0010
1000
,
0001
0100
0010
1000
,
0001
0010
0100
1000
,
0001
0101
0000
0010
,
1000
1001
0000
1000
,
0100
1100
1000
0001
,
0100
0101
0101
1010
,
1010
1100
0000
1000
,
0001
1001
0000
0001
,
0100
0000
0110
0000
0000
0010
0000
0000
,
1000
0100
1100
1000
,
0001
0000
0001
0000
0000
0100
0000
0010
,
0000
1000
0000
0001
0100
0000
0100
0000
,
0010
0000
1000
0000
0000
0001
0000
0100
,
0000
0010
0000
1000
0001
0000
1000
0000
,
0100
0000
1000
0000
0000
0100
0000
0001
,
0000
1000
0000
0010
1000
0000
0001
0000
,
0100
0000
0001
0010
0000
0100
0000
1000
,
0000
0001
0000
0100
0000
0001
0000
0000
,
0000
1000
0000
0100
,
1000
1001
0010
0100
,
0001
1100
0001
0100
,
0010
1001
0010
0100
,
0001
1001
0000
1100
,
0000
0011
0001
0100
,
0010
1010
0010
0100
,
0001
1100
0001
0100
,
0010
1001
0000
0101
,
0000
1010
0000
0100
,
1000
0001
0100
0010
,
1000
0001
0010
0100
,
1000
1001
0000
0101
,
0000
1010
0000
1100
,
1000
0001
0100
0010
,
1000
0001
0010
0100
,
1000
1001
0000
0001
,
0100
0110
0000
0010
,
1000
1001
0000
0001
,
0100
0110
0000
1001
,
0000
1100
0000
1000
,
0001
0101
0000
0010
,
1000
0000
1001
0000
0000
1000
0000
0000
,
0100
1000
0001
0001
,
0100
0000
0010
0000
0000
1000
0000
0001
,
0000
0010
0000
0100
1000
0000
0001
0000
,
0100
0000
0010
0000
0000
1000
0000
0001
,
0000
0010
0000
0100
1000
0000
0001
0000
,
0100
0000
0001
0000
0000
1000
0000
0100
,
0000
0010
0000
0001
0100
0000
0010
0000
,
1000
0000
0001
0000
0000
1000
0000
0100
,
0000
1000
0000
0010
0000
0100
0000
0001
,
1000
0000
1000
0001
0000
0100
0000
0001
,
0000
0001
0000
0100
0000
0001
0000
0100
,
0000
1001
0000
0000
0000
0000
0000
0000
;

//---------------dance-single - ----------------
#NOTES:
     dance-single:
     :
     Easy:
     3:
     0.267,0.252,0.100,0.000,0.000,230.000,13.000,0.000,0.000,0.000,0.000,0.267,0.252,0.100,0.000,0.000,230.000,13.000,0.000,0.000,0.000,0.000:
0000
0000
0000
0000
,
0000
0000
0001
0000
,
0101
0000
0001
0000
0000
1000
0000
1000
,
0000
1000
0000
0000
0101
0000
0000
0000
,
1000
0000
0001
0000
0000
0001
0000
1000
,
0000
0001
0000
1000
0001
0000
0000
0000
,
1001
0000
0001
0000
0000
0100
0000
0100
,
0000
0100
0000
0000
0010
0000
0000
0000
,
1000
0000
0001
0000
0000
0100
0000
0100
,
0000
0100
0000
0000
0000
0010
0000
0000
,
0000
0000
1000
0000
0000
1000
0000
1000
,
0000
1000
0000
0000
0001
0000
0000
0000
,
0110
0000
0000
0000
0010
0000
0000
1000
,
0000
1000
0000
1000
0000
0100
0000
0000
,
1000
0000
0001
0000
0000
0100
0000
0100
,
0000
0100
0000
0000
0010
0000
0000
0000
,
1000
0001
0000
0100
,
0100
0100
0000
0010
,
0010
0010
0000
1000
,
0000
0001
0000
0100
,
0000
0110
0000
1001
,
0000
0100
0000
1000
,
1000
1000
0001
0001
,
0001
0100
0100
0100
,
0010
0110
0000
0010
,
0010
0010
0000
1000
,
0001
0100
0000
0100
,
0010
1000
0000
0001
,
0001
1001
0000
1001
,
0000
0110
0000
0010
,
0000
1000
1000
1000
,
0000
0100
0100
0100
,
1000
1001
0000
0001
,
0100
0100
0000
0010
,
1000
0001
0000
0100
,
0001
1000
1000
0000
,
0000
0001
0000
0100
,
0100
0100
0000
0010
,
1000
0000
0001
0000
0000
0100
0000
0000
,
0000
0001
1000
0100
,
0000
0000
1000
0000
0000
0100
0000
0100
,
0000
0100
0000
0000
1000
0000
0000
0000
,
0100
0000
1000
0000
0000
0001
0000
0001
,
0000
0001
0000
0000
0100
0000
0000
0000
,
0100
0000
0010
0000
0000
0100
0000
0100
,
0000
0100
0000
0000
0010
0000
0000
0000
,
1000
0000
1000
0000
0000
0001
0000
0001
,
0000
0001
0000
0000
0100
0000
0000
0000
,
0010
1000
0000
1000
,
1000
1000
0000
0001
,
0100
0100
0000
0010
,
1000
1000
0000
0001
,
1000
1000
0000
0010
,
0000
0100
0000
0001
,
1000
1000
0100
1000
,
0001
0100
0000
0001
,
1000
1100
0000
1000
,
0000
0001
0000
0100
,
0100
0100
0010
1000
,
0000
0001
0000
0100
,
0100
0100
0000
0010
,
0000
1000
0000
0001
,
1000
0100
0000
1000
,
0001
0100
0100
0100
,
0100
0100
0000
0001
,
0000
1000
0000
0100
,
0000
1000
0000
0001
,
0000
0100
0100
0100
,
0100
0100
0000
1000
,
0000
0001
0000
0010
,
0000
0100
0000
1000
,
0000
0001
0001
0001
,
0001
0001
0000
1000
,
0000
0100
0100
0100
,
0100
0100
0000
1000
,
0000
0001
0001
0001
,
0001
0001
0000
0100
,
0000
0010
0010
0010
,
0010
0010
0000
1000
,
0000
0100
0000
1000
,
0000
0000
0001
0000
0000
0100
0000
0000
,
0000
0001
0000
0000
0000
1000
0000
0000
,
0000
1100
0000
0000
0000
0000
0000
0000
;
