#TITLE:Angel;
#SUBTITLE:(Crash and Burn Remix);
#ARTIST:Shaggy feat. Rayvon;
#TITLETRANSLIT:;
#SUBTITLETRANSLIT:;
#ARTISTTRANSLIT:;
#GENRE:;
#CREDIT:;
#BANNER:Angel.png;
#BACKGROUND:;
#LYRICSPATH:;
#CDTITLE:;
#MUSIC:Angel (Crash And Burn Remix).ogg;
#OFFSET:-2.161;
#SAMPLESTART:57.170;
#SAMPLELENGTH:13.200;
#SELECTABLE:YES;
#BPMS:0.000=134.960;
#STOPS:;
#BGCHANGES:;
#KEYSOUNDS:;

//---------------dance-single - ----------------
#NOTES:
     dance-single:
     :
     Hard:
     10:
     0.619,0.744,0.210,0.096,0.311,460.000,24.000,11.000,0.000,0.000,0.000,0.619,0.744,0.210,0.096,0.311,460.000,24.000,11.000,0.000,0.000,0.000:
0000
0000
0000
0000
0000
0000
0000
0000
0000
0000
0000
0000
0000
0000
0000
0001
,
1000
0001
1000
0010
0000
0100
0100
0000
,
0010
0000
1000
0000
1000
0000
0000
0000
0000
0000
0100
0000
0110
0000
0000
0010
,
0001
0100
0010
1000
0000
1000
0010
0010
,
0100
0000
0000
0000
0100
0000
0001
0000
0000
0000
1000
0000
1100
0000
0000
0100
,
1000
0001
0100
0010
0000
1000
0100
0010
,
0001
0001
1000
0000
0000
0010
0110
0000
,
1000
0100
0001
0100
1000
0010
0001
0010
,
1000
0100
0010
0001
1000
0100
0010
0001
,
0100
1000
0100
0001
0010
1000
0010
0001
,
1000
0010
0100
0001
1000
0010
0100
0001
,
1000
0010
0001
1000
0100
0001
1000
0100
,
0001
1000
0010
0001
0100
0010
0100
0010
,
1000
0100
1000
0100
0001
0100
0001
0100
,
1000
0010
1000
0010
0001
0010
0001
0010
,
1000
0010
0000
1010
0000
0010
0100
0000
,
0001
0100
0010
1000
0100
0010
0001
0100
,
1000
0100
0000
0110
0000
0010
1000
0000
,
0100
1000
0010
0100
0010
1000
0100
0010
,
0001
0100
0000
0110
0000
0010
1000
0000
,
0100
1000
0001
0100
1000
0100
0010
1000
,
0100
1000
0000
1001
0000
0010
0100
0000
,
0001
0100
0000
0010
0000
1000
0100
0000
,
1000
0001
0000
0100
0000
0010
1000
0000
,
0100
1000
0001
1000
0001
0100
0101
0000
,
0010
1000
0000
1000
0000
0100
0010
0000
,
0001
0100
0000
0000
0000
1000
0100
0010
,
1000
0100
0000
1000
0000
0001
0100
0000
,
0010
1000
0100
1000
0001
0100
1000
0100
,
0010
1000
0000
0100
0000
1000
0001
0000
,
0100
0010
1000
0100
0010
0001
0100
0000
,
0000
0010
0000
1000
0001
0000
0100
0000
0010
1000
0001
1000
0100
0000
0010
0000
,
0000
0001
1000
0000
0010
1000
0001
0100
0010
0000
1000
0100
0010
0000
0001
0000
,
0101
0000
0001
1000
0010
0000
1000
0001
0100
0010
1000
0000
0010
0000
0010
0000
,
0100
0000
0001
0010
0100
0000
1000
0000
0010
0100
0001
0010
0100
0000
1000
0000
,
1100
0000
0010
0001
1000
0001
0000
1000
0001
0000
1000
0010
1000
0000
0001
0000
,
0000
0000
1000
0010
0100
0000
0010
1000
0001
0000
1000
0010
0100
0000
0001
0000
,
0101
0000
0000
0000
0000
0000
0001
0000
0000
1000
0000
0000
0100
0000
0000
0000
0000
0000
0010
0000
0000
0001
0000
0000
1000
0000
0000
0000
0001
0000
0000
0000
1000
0000
0000
0000
0010
0000
0000
0000
0000
0000
0010
0000
0000
0000
0000
0000
,
1000
0100
0010
0001
1000
0000
0001
0000
0001
0100
0010
1000
0100
0000
0010
0000
,
0001
0000
1000
0010
0100
0000
0010
1000
0001
1000
0001
1000
0001
0000
1001
0000
,
0000
0000
0001
0010
0100
1000
0100
0010
0001
1000
0001
0100
0010
0000
0100
0000
,
0110
0000
0010
1000
0001
0000
1000
0010
0100
0000
0010
1000
0100
0000
0110
0000
,
0010
0000
0001
1000
0010
0000
0110
0000
0010
1000
0001
0000
0010
0000
0100
0000
,
0000
0000
0000
0000
0000
0000
0100
0000
0000
0010
0000
0000
0001
0000
0000
0000
0000
0000
1000
0000
0000
0010
0000
0000
0100
0000
0000
0000
0010
0000
0000
0000
1000
0000
0000
0000
0100
0000
0000
0000
0000
0000
0100
0000
0000
0000
0000
0000
,
0000
0000
0010
0001
1000
0010
0100
0010
1000
0100
0010
0001
1000
0000
0001
0000
,
1001
0000
0001
0010
0100
1000
0001
0100
0010
1000
0010
0100
0010
0000
1010
0000
,
1000
0100
0010
0001
1000
0000
1001
0000
1000
0010
0100
0010
0100
0000
0110
0000
,
0000
0000
1010
0000
1000
0000
0001
0000
0010
0000
1100
0000
0000
0000
0001
0010
,
0200
2300
3002
0203
,
0300
0000
0010
1000
0100
0000
0010
0000
0001
0000
1000
0010
0000
0000
0100
0000
,
0020
0030
2000
3200
,
0300
0000
1000
0100
1000
0000
0001
0000
0100
0000
0010
0000
0000
0000
1000
0001
,
0200
0320
2030
3002
,
0003
0000
1000
0000
0001
0000
0100
0000
0010
0000
1000
0100
0000
0000
0010
0000
,
0001
1000
0000
0000
1001
0000
1010
0000
,
0010
1000
0000
0001
0000
0100
0010
0000
,
0010
1000
0000
0000
0000
0001
0100
0000
,
0010
1000
0000
0100
0000
1000
0001
0000
,
0100
0001
0000
0000
0000
1000
0010
0000
,
0100
0010
0000
1000
0000
0100
0010
0000
,
0001
0100
0000
0000
0000
0100
0010
0000
,
1000
0100
0000
1000
0000
0001
1000
0000
,
0001
0000
1000
0000
1000
0000
0000
0000
0001
0000
0000
0001
0000
0000
1001
0000
;

//---------------dance-single - ----------------
#NOTES:
     dance-single:
     :
     Medium:
     6:
     0.359,0.302,0.018,0.000,0.000,285.000,2.000,0.000,0.000,0.000,0.000,0.359,0.302,0.018,0.000,0.000,285.000,2.000,0.000,0.000,0.000,0.000:
0000
0000
0000
0000
,
1000
0001
0100
0000
0100
0000
0010
0000
,
0010
1000
0100
0000
0000
1000
0001
0000
,
0001
0000
0100
0000
0000
0010
1000
0000
,
0001
0000
0100
0000
0000
0001
1000
0000
,
0100
0000
1000
0000
0000
0001
0100
0000
,
0010
0000
1000
0000
0000
0001
1000
0000
,
0001
0100
0100
0010
,
1000
0100
1000
0001
,
0100
0010
1000
0001
,
0100
0100
0100
0000
0010
0010
0010
0000
,
1000
0100
0010
0001
,
1000
1000
1000
0000
0001
0001
0001
0000
,
0100
0010
1000
0001
,
1000
1000
1000
0000
0001
0001
0001
0000
,
1000
0000
0100
0000
1000
0001
0100
0000
,
0001
1000
0010
0100
,
0001
0000
1000
0000
0010
0100
0001
0000
,
1000
0100
1000
0001
,
0100
0000
0010
0000
1000
0001
0100
0000
,
0010
1000
0001
0010
,
0100
0000
1000
0000
0001
0100
0010
0000
,
1000
0000
0001
0000
1000
0100
1000
0000
,
0001
0000
0100
0000
0010
1000
0001
0000
,
1000
0000
0100
0000
1000
0001
0100
0000
,
0010
0000
1000
0000
0001
0001
0001
0000
,
0100
0000
0010
0000
1000
0001
0100
0000
,
0010
0000
1000
0000
0100
1000
0100
0000
,
1000
0001
0100
0100
,
0010
0000
1000
0000
0001
1000
0100
0000
,
1000
0001
0100
0001
,
0000
0001
1000
0100
,
1000
0001
0100
0010
,
0010
1000
0100
1000
,
0001
0100
0100
0010
,
1000
0000
0001
0000
0100
0001
0100
0000
,
0010
0000
1000
0000
0100
0000
1000
0100
,
1000
0000
0001
0000
0100
0010
0100
0000
,
0010
1000
0010
0000
0100
0001
0100
0000
,
0010
0000
1000
0000
0001
0100
0001
0000
,
1000
0000
0100
0000
1000
0001
0100
0000
,
0010
0000
1000
0000
0001
0100
0010
0000
,
0010
1000
0001
0000
0001
0100
0010
0000
,
0010
0000
1000
0000
0001
1000
0100
0000
,
1000
0000
0010
0000
0100
0001
1000
0000
,
0010
0000
1000
0001
0010
0000
0100
0000
,
1000
0001
0100
0000
0010
1000
0001
0000
,
1000
0000
0100
0000
1000
0001
0000
0100
,
0010
1000
0100
1000
,
0000
0001
0100
0000
0010
0000
1000
0001
,
1000
0100
1001
0110
,
0000
0010
1000
0000
0100
1000
0000
0001
,
0100
0010
1000
0100
,
0000
0100
1000
0001
0100
0000
0010
0000
,
1000
0001
0000
0001
0100
0000
0010
0000
,
0010
0000
0000
1000
0000
0100
1000
0000
,
0001
0001
0000
0000
0100
0000
0010
0000
,
0010
0000
0000
1000
0000
0100
1000
0000
,
0001
0000
0001
0100
,
0010
0000
0000
1000
0000
0001
0100
0000
,
0010
1000
1000
0100
,
0100
0000
0000
1000
0000
0001
0100
0000
,
0010
1000
1000
0001
;

//---------------dance-single - ----------------
#NOTES:
     dance-single:
     :
     Easy:
     4:
     0.290,0.220,0.018,0.000,0.000,230.000,2.000,0.000,0.000,0.000,0.000,0.290,0.220,0.018,0.000,0.000,230.000,2.000,0.000,0.000,0.000,0.000:
0000
0000
0000
0000
,
1000
0001
0100
0010
,
0100
0001
0000
0001
,
1000
0001
0000
1000
,
0100
1000
0000
1000
,
0100
1000
0000
0100
,
0010
0001
0000
0001
,
0001
0100
0100
0010
,
1000
0100
1000
0001
,
0100
0010
1000
0001
,
0100
0100
0010
0010
,
1000
0100
0010
0001
,
1000
1000
0001
0001
,
0100
0010
1000
0001
,
1000
1000
0001
0001
,
1000
0100
1000
0100
,
1000
1000
0010
0100
,
0001
1000
0010
1000
,
0001
0100
0001
1000
,
0100
0010
0001
0100
,
0010
1000
0001
0010
,
0100
1000
0001
0010
,
0001
1000
0001
1000
,
0001
0100
0010
1000
,
0001
0100
0001
0100
,
0010
1000
0001
0001
,
0100
0010
1000
0100
,
0010
0001
0100
0100
,
0001
1000
0100
0100
,
0010
0001
1000
0100
,
1000
0001
0100
0001
,
0000
0001
1000
0100
,
1000
0001
0100
0010
,
0010
1000
0100
1000
,
0001
0100
0100
0010
,
1000
0001
0100
0100
,
0010
1000
0100
1000
,
1000
0001
0100
0100
,
0010
0010
0100
0100
,
0010
1000
0001
0001
,
1000
0100
1000
0100
,
0010
0001
0001
0010
,
0010
0001
0001
0010
,
0010
0001
1000
0100
,
1000
0010
0100
0001
,
0010
0001
0010
0100
,
1000
0100
0010
0001
,
1000
0100
1000
0000
,
0010
1000
0100
1000
,
0000
1000
0010
1000
,
1000
0100
1001
0110
,
0000
1000
0100
0000
,
0100
0010
0001
0100
,
0000
0001
0100
0010
,
1000
0000
0100
0010
,
0010
0000
0001
1000
,
0001
0000
0100
0010
,
0010
0000
0010
1000
,
0001
0000
0001
0100
,
0010
0100
0000
0100
,
0010
1000
1000
0100
,
0100
0000
0010
0100
,
0010
0001
0001
1000
;
