#TITLE:Amazing;
#SUBTITLE:;
#ARTIST:Inna;
#TITLETRANSLIT:;
#SUBTITLETRANSLIT:;
#ARTISTTRANSLIT:;
#GENRE:;
#CREDIT:;
#BANNER:Amazing.png;
#BACKGROUND:;
#LYRICSPATH:;
#CDTITLE:;
#MUSIC:Inna-Amazing.ogg;
#OFFSET:0.938;
#SAMPLESTART:40.510;
#SAMPLELENGTH:14.960;
#SELECTABLE:YES;
#BPMS:0.000=130.010;
#STOPS:194.750=0.140
;
#BGCHANGES:;
#KEYSOUNDS:;

//---------------dance-single - ----------------
#NOTES:
     dance-single:
     :
     Hard:
     8:
     0.518,0.488,0.208,0.375,0.388,365.000,25.000,45.000,0.000,0.000,0.000,0.518,0.488,0.208,0.375,0.388,365.000,25.000,45.000,0.000,0.000,0.000:
0000
0000
0000
0000
,
0000
0000
0000
0000
,
0000
0000
0000
0000
,
0000
0000
0000
0000
,
0000
0000
0000
0000
,
1000
0000
0001
0000
0100
0000
0000
0010
,
0000
1000
0001
0100
0000
0010
1000
0001
,
0100
0000
0010
0000
1000
0001
0000
1000
,
0000
0100
0000
0010
0000
0001
1000
0010
,
0100
0000
0000
0010
0000
1000
0000
0001
0000
1000
0000
0001
1000
0000
0010
0000
,
0100
0000
0000
0010
0000
1000
0000
0100
0000
0001
0000
0100
1000
0000
0010
0000
,
0100
0000
0000
0010
0000
1000
0000
0001
0000
0100
0000
0010
1000
0000
0001
0000
,
0100
0000
0000
0010
0000
1000
0000
0100
0000
0010
0000
0001
0100
0000
0010
0000
,
1000
0000
0000
0010
0000
1000
0000
0010
0000
1000
0000
1000
0001
0000
0100
0000
,
0010
0000
0010
1000
0000
1000
0000
0001
0000
0001
0000
0100
0010
0000
1000
0000
,
0001
0000
0000
1000
0000
0010
0000
0100
0000
0010
0000
1000
0100
0000
0100
0000
,
1000
0000
0010
0000
0010
1000
0100
0000
,
0020
0000
0032
0000
1003
0010
0100
0020
,
0000
0000
0030
0000
1000
0001
0010
0000
,
0110
0000
0010
0010
0001
0100
0010
2000
,
0000
0000
3000
0000
0001
0010
0100
0000
,
2100
0000
3020
0000
0130
0001
0010
0200
,
2000
0000
3300
0000
0010
1000
0100
0000
,
1100
0000
0010
0000
0001
0100
1000
0200
,
0301
0000
0000
0001
0000
0000
0001
0000
1000
0000
0100
0000
0010
0000
0000
0000
,
0011
0000
0001
1000
0010
0100
0010
2000
,
0000
0000
3000
0000
0001
0010
0100
0000
,
0011
0000
0001
0000
0100
1000
0100
0002
,
2000
0000
3003
0000
0010
0001
0100
0000
,
2010
0000
3002
0000
0103
0010
1000
0200
,
2300
0000
3000
0010
0000
0010
0000
1000
0000
0001
0000
1000
0001
0000
0100
0000
,
0010
0000
0000
0000
0000
0000
0000
0000
0000
0010
0000
0000
0000
0000
0000
0000
0000
0000
0010
0000
0000
0000
0000
0000
0000
0000
0000
0000
1000
0000
0000
0000
0000
0000
0000
0000
1000
0000
0000
0000
0000
0000
0001
0000
0000
0000
0000
0000
,
0100
0000
0000
0100
0000
0000
0100
0000
0000
0010
0000
0000
2000
0002
0000
3003
,
1001
0000
0011
0000
1100
1000
0000
1000
,
0000
0010
1000
0001
0000
1000
0010
0100
,
0101
0000
1010
0000
1100
0100
0000
0010
,
0000
0000
0001
0000
0000
0000
1000
0000
0000
0000
0010
0000
1000
0001
0100
0000
,
0110
0000
1010
0000
1100
1000
0000
0001
,
0000
0010
0100
1000
0000
0001
0100
1000
,
0100
0000
0010
0000
1000
0001
0000
0010
,
0000
0000
0100
0000
0000
0000
0000
1001
0000
0000
0000
0000
0000
0000
0000
0000
,
1000
0000
0001
0000
0100
0010
1000
2200
,
0000
3300
0000
0010
0001
1000
0010
0200
,
0020
0330
0000
1000
0010
0100
0010
2000
,
0002
3003
0000
1000
0010
0110
1001
0000
,
1100
0000
0011
0000
0100
0010
1000
0200
,
0000
0300
0000
0010
0001
1000
0010
0200
,
0000
0320
0000
1030
0100
0010
0001
0200
,
0000
0320
0000
0030
1000
0000
0000
1000
,
0000
0001
0000
0100
0000
0010
0000
1000
0000
0001
0100
0000
0010
0000
1000
0000
,
1000
0100
0000
0100
0000
0100
0000
0100
0000
0100
1000
0000
0001
0000
0100
0000
,
0000
0010
0000
1000
0000
0001
0000
0100
0000
0010
1000
0000
0001
0000
1000
0000
,
0001
0010
0000
0010
0000
0010
0000
0010
0000
0010
0001
0000
0001
0000
1000
0000
,
0010
0100
0000
0100
0000
0100
0000
0100
0000
0100
0010
0000
0100
0000
0001
0000
,
0000
0100
0000
0010
0000
1000
0000
0100
0000
0010
0001
0000
1000
0000
0100
0000
,
0000
0010
0000
0001
0000
0100
0000
0010
0000
1000
0100
0000
0010
0000
0001
0000
,
0100
1000
0000
1000
0000
1000
0000
1000
0000
1000
0100
0000
0001
0000
1000
0000
,
0000
1100
0000
0010
0001
0100
0020
0000
,
0030
0000
0010
0100
0010
1000
0200
0020
,
0330
0000
0001
0001
1000
0010
0200
0020
,
0330
0000
1000
0001
1001
0220
0330
0020
,
0000
0030
2000
0000
0000
0000
3001
0000
0010
0000
0100
0000
2000
0000
0000
0000
,
3000
0000
0001
0100
0010
1000
0200
0000
,
0320
0000
0031
1000
0010
0100
0020
0000
,
2030
0001
0000
0001
3000
0001
0000
0100
0000
0010
1000
0000
2002
0000
0000
0000
,
3003
0000
0000
0000
;

//---------------dance-single - ----------------
#NOTES:
     dance-single:
     :
     Medium:
     6:
     0.346,0.324,0.075,0.000,0.000,282.000,9.000,0.000,0.000,0.000,0.000,0.346,0.324,0.075,0.000,0.000,282.000,9.000,0.000,0.000,0.000,0.000:
0000
0000
0000
0000
,
0000
0000
0000
0000
,
0000
0000
0000
0000
,
0000
0000
0000
0000
,
0000
0000
0000
0000
,
1000
0000
0001
0000
0100
0000
0000
0010
,
0000
1000
0000
0100
0000
0000
1000
0000
,
0100
0000
0010
0000
0001
0000
0000
1000
,
0000
0100
0000
0010
0000
0001
1000
0010
,
0100
0000
0010
0000
1000
0100
1000
0000
,
0001
0000
0100
0000
0010
1000
0001
0000
,
1000
0000
0100
0000
1000
0100
1000
0000
,
0001
0000
0010
0000
0100
1000
0010
0000
,
0100
0000
0001
0000
1000
0100
1000
0000
,
0001
0000
0010
0000
0100
1000
0100
0000
,
1000
0000
0001
0000
0100
0001
0100
0000
,
0010
0000
0010
0000
1000
0100
1000
0000
,
0010
1000
0100
0010
,
0001
0100
0010
0000
1000
0000
0100
0000
,
1000
0000
0001
0000
0010
0000
0001
0100
,
0010
1000
0100
0010
,
0001
0000
0100
0000
0010
1000
0100
0000
,
1000
0001
0100
0000
0010
0000
1000
0000
,
0100
0000
0010
0000
0001
1000
0100
0000
,
0010
0001
0100
0000
0010
1000
0100
0000
,
1001
0000
0010
0000
0100
0001
1000
0000
,
0100
0000
1100
0000
0001
0100
0010
0000
,
1010
0000
0010
0000
0100
0001
1000
0000
,
0100
0000
1100
0000
0001
0100
0010
0000
,
1000
0000
1001
0000
0100
1000
0001
0000
,
0100
0000
0101
0000
1000
0010
1000
0000
,
0100
1000
0001
0100
,
0010
1000
0100
1000
,
0001
1000
0001
0000
0001
0000
0000
1000
,
0000
0010
0000
1000
0000
0000
0100
1000
,
0100
0000
1000
0000
0001
0000
0000
0001
,
0000
0100
0000
0010
0000
1000
0000
0100
,
1000
0000
0001
0000
0100
0000
0000
0010
,
0000
1000
0000
0001
0000
0000
0100
0000
,
0010
0000
1000
0100
1000
0000
0000
0001
,
0000
0100
0000
0010
0000
0000
0000
0000
,
1000
0000
0100
0000
1000
0000
0001
1000
,
0000
0010
1000
0000
0100
1000
0000
0001
,
0100
0010
0000
1000
0100
0000
1000
0001
,
0000
0100
0010
0000
1000
0100
1000
0000
,
0001
0000
0100
0000
0010
0000
1000
0100
,
0000
1000
0001
0000
0100
0010
1000
0000
,
0100
1000
0001
0000
0001
0000
1000
0000
,
0010
0000
1000
0000
0001
0000
0000
1000
,
0000
0001
0000
0100
1000
0001
0000
1000
,
0000
0010
0000
0100
0001
1000
0000
0100
,
0000
1000
0000
0001
0100
0010
0000
1000
,
0000
0100
0000
0010
0001
0100
0000
0010
,
0000
1000
0000
0001
0100
0001
0000
1000
,
0000
0100
0000
1000
0010
1000
0000
0100
,
0000
0010
0000
0001
0100
0010
0000
1000
,
0000
0100
0000
1000
0001
1000
0000
0100
,
0000
1000
0000
0010
0100
0001
0000
1000
,
0000
0100
0000
1100
0000
0001
0100
0010
,
0000
1000
0000
0100
1000
0001
0000
0100
,
0000
0010
0000
1010
0000
0100
0000
1000
,
0000
0001
0000
0100
0010
1000
0000
0000
,
0100
1000
0000
0001
0100
0010
0000
1000
,
0000
0100
0000
1000
0001
0100
0000
0010
,
0000
1000
0000
0001
0000
1100
1000
0000
;

//---------------dance-single - Copied from----------------
#NOTES:
     dance-single:
     Copied from:
     Challenge:
     9:
     0.611,0.623,0.150,0.333,0.588,455.000,18.000,40.000,0.000,0.000,0.000,0.611,0.623,0.150,0.333,0.588,455.000,18.000,40.000,0.000,0.000,0.000:
0000
0000
0000
0000
,
0000
0000
0000
0000
,
0000
0000
0000
0000
,
0000
0000
0000
0000
,
0000
0000
0000
0000
,
1000
1000
0001
0001
0100
0000
0000
0010
,
0000
0010
1000
0100
0000
0100
1000
0001
,
0100
0000
0010
0000
1000
0001
0000
1000
,
0000
0100
0000
0010
0000
0001
1000
0010
,
0100
0000
0100
0010
0000
1000
0000
0001
0000
1000
0000
0001
1000
0000
0010
0000
,
0100
0000
0100
0010
0000
1000
0000
0100
0000
0001
0000
0100
1000
0000
0010
0000
,
0100
0000
0100
0010
0000
1000
0000
0001
0000
0100
0000
0010
1000
0000
0001
0000
,
0100
0000
0100
0010
0000
1000
0000
0100
0000
0010
0000
0001
0100
0000
0010
0000
,
1000
0000
1000
0010
0000
1000
0000
0010
0000
1000
0000
1000
0001
0000
0100
0000
,
0010
0000
0010
1000
0000
1000
0000
0001
0000
0001
0000
0100
0010
0000
1000
0000
,
0001
0000
0001
1000
0000
0010
0000
0100
0000
0010
0000
1000
0100
0000
0100
0000
,
1000
0000
1000
0001
0000
0100
0000
0010
0000
1000
0000
1000
0100
0000
0100
0000
,
0010
0000
0001
1000
0100
0000
1000
0010
0100
0000
1000
0000
0100
0000
0001
0000
,
1001
0000
0000
1100
0000
0000
0101
0000
1000
0000
0001
0000
0010
0000
0000
0100
,
0010
0000
0000
0100
0010
0000
0010
0000
0001
0000
0100
0000
0010
0000
2000
0000
,
0001
0000
0000
0001
3000
0000
0001
0000
0001
0000
0010
0000
0100
0000
1000
0000
,
2100
0000
0000
0000
3020
0100
0000
0000
0130
0000
0001
0000
0010
0000
0200
0000
,
2000
0000
3300
0000
0010
1000
0100
0000
,
1100
0000
0010
0000
0001
0100
1000
0200
,
0301
0000
0000
0001
0000
0000
0001
0000
1000
0000
0100
0000
0010
0000
0000
0000
,
0011
0000
0001
1000
0000
1000
0000
1000
0000
1000
0000
1000
0001
0000
2000
0000
,
0001
0000
0000
0001
3000
0001
0000
1000
0001
0000
0010
0000
0100
0000
0000
0000
,
0011
0000
0000
0000
0001
1000
0000
0001
0100
0000
1000
0000
0100
0000
0002
0000
,
2000
0000
3003
0000
0010
0001
0100
0000
,
2010
0000
3002
0000
0103
0010
1000
0200
,
2300
0000
3000
0010
0000
0010
0000
1000
0000
0001
0000
1000
0001
0000
0100
0000
,
0010
0000
0000
0000
0000
0000
0000
0000
0000
0010
0000
0000
0000
0000
0000
0000
0000
0000
0010
0000
0000
0000
0000
0000
0000
0000
0000
0000
1000
0000
0000
0000
0000
0000
0000
0000
1000
0000
0000
0000
0000
0000
0001
0000
0000
0000
0000
0000
,
0100
0000
0000
0000
0000
0000
0100
0000
0000
0000
0000
0000
0100
0000
0000
0000
0000
0000
0010
0000
0000
0000
0000
0000
1000
0001
1000
0001
1000
0001
1000
0001
,
1000
0000
0010
1000
0010
0000
1000
0100
1000
0000
0001
0000
1000
0000
0010
0000
,
0100
0010
1000
0100
0010
0001
0100
1000
,
0100
0000
0010
1000
0100
0000
1000
0001
0100
0000
0010
0000
1000
0000
0100
0000
,
0010
0001
0100
1000
0100
0010
1000
0001
,
1000
0000
0100
1000
0001
0000
0100
0010
1000
0000
0100
0000
0010
0000
0001
0000
,
0100
0100
0010
1000
0100
1000
0001
0100
,
0010
0000
1000
0100
0010
0000
0001
0100
1000
0000
0101
0000
0010
0000
1000
0000
,
0100
0000
0000
0000
1000
0000
0000
0000
0001
0000
0000
0000
0100
0000
0001
0000
0000
0000
0001
0000
0000
0000
0000
0000
0001
1000
0001
1000
0001
1000
0001
1000
,
0100
0000
1000
0000
0100
1000
0001
2200
,
0000
3300
0000
0010
0001
1000
0010
0200
,
0020
0000
0330
0000
0000
0000
1000
0000
0010
0000
0100
0010
1000
0000
2000
0000
,
0002
3003
0000
1000
0010
0110
1001
0000
,
1100
0000
0011
0000
0100
0010
1000
0200
,
0000
0300
0000
0010
0001
1000
0010
0200
,
0000
0320
0000
1030
0100
0010
0001
0200
,
0000
0320
0000
0030
1000
0000
0000
1000
,
1000
0001
0000
0100
0000
0010
0000
1000
0000
0001
0100
0000
0010
0000
1000
0000
,
1000
0100
0000
0100
0000
0100
0000
0100
0000
0100
1000
0000
0001
0000
0100
0000
,
0100
0010
0000
1000
0000
0001
0000
0100
0000
0010
1000
0000
0001
0000
1000
0000
,
0001
0010
0000
0010
0000
0010
0000
0010
0000
0010
0001
0000
0001
0000
1000
0000
,
0010
0100
0000
0100
0000
0100
0000
0100
0000
0100
0010
0000
0100
0000
0001
0000
,
0001
0100
0000
0010
0000
1000
0000
0100
0000
0010
0001
0000
1000
0000
0100
0000
,
0100
0010
0000
0001
0000
0100
0000
0010
0000
1000
0100
0000
0010
0000
0001
0000
,
0100
0000
1000
0000
0000
0000
1000
0000
0000
0000
1000
0000
0000
0000
1000
0000
0000
0000
1000
0000
0100
0001
0100
0001
0100
0001
0100
0001
0100
0000
0000
0000
,
0000
1100
0000
0010
0001
0100
0020
0000
,
0030
0000
0010
0100
0010
1000
0200
0020
,
0330
0000
0001
0001
1000
0010
0200
0020
,
0330
0000
1000
0001
1001
0220
0330
0020
,
0000
0030
2000
0000
0000
0000
3001
0000
0010
0000
0100
0000
2000
0000
0001
0000
,
3000
0000
0001
0100
0010
1000
0200
0000
,
0320
0000
0031
1000
0010
0100
0020
0000
,
2030
0001
0000
0001
3000
0001
0000
0100
0000
0010
1000
0000
2002
0000
0000
0000
,
3003
0000
0000
0000
;

//---------------dance-single - ----------------
#NOTES:
     dance-single:
     :
     Easy:
     3:
     0.238,0.270,0.142,0.008,0.000,182.000,17.000,1.000,0.000,0.000,0.000,0.238,0.270,0.142,0.008,0.000,182.000,17.000,1.000,0.000,0.000,0.000:
0000
0000
0000
0000
,
0000
0000
0000
0000
,
0000
0000
0000
0000
,
0000
0000
0000
0000
,
0000
0000
0000
0000
,
1000
0001
0100
0000
,
1000
0001
0100
0000
,
1000
0001
0100
0000
,
0010
0100
1000
0000
,
1000
0001
0100
0100
,
0010
1000
0100
0100
,
0000
1000
0001
0100
,
0000
0001
1000
0100
,
0000
0010
0001
0100
,
0000
0010
1000
0100
,
0000
1000
0001
0100
,
0000
0010
1000
0100
,
1001
0001
0100
0001
,
1001
0000
1000
0100
,
1001
0010
0100
0001
,
1001
0000
1000
0001
,
1001
0010
0100
0001
,
1001
0000
1000
0010
,
1001
0010
0100
0001
,
1001
0000
1000
0010
,
0100
0000
0002
0003
1000
0000
0001
0000
,
0100
0000
0010
1000
,
1001
0001
0100
0010
,
1001
0000
1000
0000
,
0001
1000
0010
0100
,
0001
0000
1000
0001
,
0100
0000
0100
0000
,
0010
0000
0010
0000
,
1000
1000
1000
0000
,
0001
0000
0100
0000
,
0010
0010
0010
0000
,
1000
0000
0001
0100
,
1000
0100
0010
0000
,
0010
1000
0100
0000
,
0010
0001
0100
0000
,
0001
0100
0000
0000
,
0010
1000
0100
0100
,
1000
0000
1000
0001
,
0100
0000
0001
0010
,
0100
0000
1001
0110
,
1001
0100
1000
0001
,
0100
0000
1000
0100
,
1000
0000
0010
0100
,
0001
0000
1000
0000
,
0000
0000
0000
0000
0000
0000
0000
1000
,
0000
0000
0000
0000
0000
0000
0000
0001
,
0000
0000
0000
0000
0000
0000
0000
0100
,
0000
0000
0000
0010
0000
0000
0000
1000
,
0000
0100
0000
0010
0000
0001
0000
1000
,
0000
0100
0000
0010
0000
0001
0000
1000
,
0000
0100
0000
0010
0000
0001
0000
1000
,
0000
0100
0000
0010
0000
0001
0000
0001
,
0000
0000
0000
0100
0000
0010
0000
1001
,
0000
0000
0000
0100
0000
0001
0000
0101
,
0000
0000
0000
1000
0000
0100
0000
1100
,
0000
0000
0000
0010
0000
0011
0000
0001
,
0000
0100
0000
0100
0000
0010
0000
1000
,
0000
0000
0000
1000
0000
0000
0000
0001
,
0000
0000
0000
0100
0000
0010
0000
1000
,
0000
0000
0000
0001
0000
1000
0001
0000
;
