#TITLE:12 Inch;
#SUBTITLE:;
#ARTIST:DJ Inphinity;
#TITLETRANSLIT:;
#SUBTITLETRANSLIT:;
#ARTISTTRANSLIT:;
#GENRE:;
#CREDIT:;
#BANNER:12 Inch.png;
#BACKGROUND:;
#LYRICSPATH:;
#CDTITLE:;
#MUSIC:dj inphinity-12 inch.ogg;
#OFFSET:0.405;
#SAMPLESTART:37.990;
#SAMPLELENGTH:13.160;
#SELECTABLE:YES;
#BPMS:0.000=148.810,167.000=149.090,181.000=148.850,273.000=148.510,281.000=148.710,316.000=148.810,376.000=148.750;
#STOPS:;
#BGCHANGES:;
#KEYSOUNDS:;

//---------------dance-single - ----------------
#NOTES:
     dance-single:
     :
     Challenge:
     9:
     1.000,1.000,0.790,1.000,0.586,770.000,83.000,114.000,0.000,3.000,0.000,1.000,1.000,0.790,1.000,0.586,770.000,83.000,114.000,0.000,3.000,0.000:
0000
0000
0000
0000
1000
0000
0001
0000
0100
0000
0010
0100
0000
0000
0010
0000
,
0000
0000
1000
0000
0100
0000
0010
0000
0001
0000
1000
0001
0000
0000
1000
0000
,
1000
0000
1000
0000
0010
0000
0100
0000
0001
0000
0010
0100
0000
0000
0110
0000
,
0000
0000
0001
0000
1000
0000
0001
0000
0100
0000
0000
0010
0100
0000
0010
0000
,
1000
0000
1100
0000
0100
0000
0010
0000
0011
0000
0001
0010
0000
0000
0110
0000
,
0000
0000
0010
0000
0100
0000
1000
0000
0001
0000
0000
0100
0010
0000
1000
0000
,
0001
0000
0010
0000
0100
0000
1000
0000
0010
0000
0100
0010
0000
0000
0110
0000
,
0000
0000
0010
0000
1000
0000
0001
0100
0000
0010
0100
0000
0010
1000
0000
1000
,
0001
0000
2002
3003
1000
0000
0010
0000
0100
0000
0010
0100
0000
0000
0020
0000
,
0030
0000
1000
0000
0001
0000
0100
0000
0010
0000
1000
0100
0000
0000
0010
0000
,
0001
0000
1000
0000
0001
0000
0100
0000
0010
0000
1000
0100
0000
0000
0011
0000
,
0000
0000
1000
0000
0001
0000
0100
0000
0010
0000
0000
1000
0100
0000
0010
0000
,
0010
0000
0000
0000
0001
0000
1000
0000
0010
0000
0100
0010
0000
0000
1000
0100
,
0000
0000
0010
0000
0001
0000
1000
0000
0010
0000
0000
0010
0100
0000
0010
0000
,
1000
0000
1000
0000
0001
0000
0010
0000
0100
0000
0000
1000
0001
0000
1001
0000
,
0000
0000
1000
0000
0001
0000
1001
0000
0000
0000
0110
0000
0000
0000
0010
0001
,
0000
0000
2002
3003
0001
0100
0000
0010
0000
0100
0000
0000
0010
1000
0000
0001
,
1000
0000
0000
0000
0100
1000
0000
1000
0001
0000
0200
0000
0310
1000
0001
1000
,
0100
0000
0000
0000
0100
0010
0000
0001
0000
0100
0000
0000
0000
0100
0000
0010
,
1000
0000
0000
0000
1000
0001
0000
1000
0001
0000
0002
0000
2003
0000
0000
0000
,
3001
0000
0000
0000
0010
0100
0000
0010
0000
1000
0000
0000
1000
0001
0000
0010
,
0100
0000
0000
0000
1000
0001
0010
0100
1000
0001
1000
0000
0002
0000
0000
0000
,
1003
0000
0000
0000
0010
0100
0000
0010
0000
1000
0000
0000
0001
0010
0000
0100
,
1000
0000
0000
0000
1000
0001
0000
0100
0010
0000
1000
0000
0002
0000
0000
0000
,
1003
0000
0000
0000
1000
0001
0000
0100
0000
0010
0000
0000
0010
0100
0000
0010
,
0100
0000
0000
0000
0010
1000
0000
0001
0100
0000
0010
0000
2000
0000
0000
0000
,
3001
0000
0000
0000
0010
0100
0000
1000
0000
0001
0000
0000
0100
0010
0000
1000
,
0100
0000
0000
0000
0010
0001
0000
1000
0001
0000
0100
0000
0020
0000
0000
0000
,
0130
0000
0220
0330
0010
0000
0000
1000
0000
0001
0000
0000
0001
1000
0000
0001
,
1000
0000
0000
0000
0010
1000
0100
1000
0010
0000
0200
0300
0020
0000
0000
0000
,
1030
0000
0000
0000
0001
0100
0000
0010
0100
0000
0000
0000
0010
1000
0000
1000
,
0001
0000
0000
0000
0010
0100
0000
0010
0100
0000
0010
0100
0020
0000
0000
0000
,
0130
0000
0220
0330
1000
0001
0000
1000
0010
0000
0000
0000
0010
0100
0000
0001
,
0000
0000
0000
0000
1001
0000
0000
0000
1000
0000
0001
0000
0200
0000
0000
0010
,
0300
0000
0000
0000
0010
1000
0000
0001
1000
0000
0000
0000
0100
1000
0000
0001
,
0000
0000
0000
0000
1001
0000
0000
0000
1000
0000
0001
0000
0020
0000
0000
0130
,
0000
0000
0000
0000
0010
0001
0000
0001
0100
0000
0000
0000
0010
1000
0000
0001
,
0000
0000
0000
0000
2002
3003
0000
0000
0001
0000
0100
0000
0020
0000
0000
1000
,
0030
0000
0000
0000
0010
1000
0000
0001
0010
0000
0000
0000
0100
0010
0000
0001
,
0000
2000
0000
0200
,
0010
0000
0000
0000
0011
0000
0000
0000
0000
0000
0000
0011
0000
0000
0000
0000
,
0000
0000
0000
0000
,
0000
0000
0000
0000
,
3300
0000
0000
0000
,
0000
0000
0000
0000
,
0000
0000
1000
0001
0100
0010
2000
3002
,
0203
0320
2030
3200
0320
0032
2003
3001
,
0001
0100
0010
1000
0100
0001
0200
2300
,
3002
0203
0320
1030
1000
0100
0020
0031
,
0011
0011
0010
0100
1000
0001
0200
0310
,
1000
1000
0200
0320
0032
2003
3002
0203
,
0310
0010
1000
0001
0100
1000
0100
0001
,
0010
0100
2000
3002
0203
0320
2030
3200
,
2300
3001
1000
0100
0001
0100
1000
0100
,
0001
0100
1000
0010
0001
0010
1000
0010
,
0001
0010
1000
0100
1000
0100
1000
0100
,
0001
0100
0001
0100
1000
0001
0100
0010
,
1000
0100
1000
0100
1000
0000
0001
0000
0100
0000
0010
0000
2000
0000
3002
0000
,
0203
0320
2030
3200
0320
0032
2003
3020
,
0130
0010
1000
0100
0010
0001
0010
0100
,
1000
0001
0020
0230
2300
3002
0203
0320
,
2030
3200
0310
0001
0010
0001
0010
0001
,
0010
0001
1000
0001
1000
0001
1000
0001
,
1000
0001
1000
0010
0100
0010
0100
0010
,
0100
0010
0100
0010
1000
0010
1000
0010
,
1000
0000
0010
0000
1000
0100
1000
0100
1000
0100
1000
0100
1000
0100
1000
0100
,
1000
0001
1000
0001
1000
0001
1000
0001
1000
0001
1000
0001
1000
0001
1000
0001
,
1000
0010
1000
0010
1000
0010
1000
0010
1000
0010
1000
0010
2000
0000
0000
0000
,
0000
0200
0000
0000
,
3300
0000
0000
0000
1001
0000
0000
0000
0001
0000
0010
0000
0100
0000
0000
1000
,
0000
0000
0001
0100
0010
1000
0100
0010
,
0001
0010
1000
0010
0001
0100
0020
0230
,
0320
2030
3200
0310
0001
1000
0020
0230
,
0320
2030
3200
2300
3002
0203
0320
2030
,
3001
1000
0010
0100
0010
1000
0001
0010
,
0100
1000
0002
0203
0320
2030
3200
0320
,
0230
2300
3001
0010
0100
1000
0001
0010
,
0100
1000
0200
0320
0032
2003
3200
0320
,
0032
0003
1000
0010
0110
0010
1000
0100
,
0011
0001
0100
0010
0110
0010
1000
0001
,
1001
1000
0010
0100
0110
0010
1000
0100
,
1100
0000
0100
0000
0010
0000
0001
0000
0101
0000
0002
0000
0203
0000
0320
0030
,
1010
1000
0001
0010
0110
0100
1000
0001
,
1001
1000
0010
0100
0110
0010
1000
0001
,
0100
0001
0010
0100
1100
0100
0010
0001
,
1001
1000
0010
0100
0101
0001
0010
0100
,
2200
3300
1000
0000
0001
0000
0100
0000
0110
0000
0010
0000
1000
0000
0100
0000
,
1100
1000
0001
0010
0011
0001
1000
0010
,
0110
0010
0100
0001
0101
0001
1000
0010
,
1010
1000
0100
0010
0110
0010
0001
1000
,
0010
0100
0010
1000
1100
1000
0001
0100
,
0110
0010
1000
0001
0011
0010
0100
1000
,
1100
1000
0001
0100
0110
0010
1000
0001
,
1001
0001
0010
0100
1100
1000
0001
0100
,
0220
0330
0010
1000
1010
0000
0001
0000
,
0101
0000
0001
0010
0110
0000
1000
0000
,
0101
0000
0001
0010
0110
0000
1000
0000
,
1001
0000
0001
0100
0101
0000
0010
0000
,
1010
0000
1000
0100
1100
0000
1000
0000
,
1001
0000
0001
0100
0101
0000
0010
0000
,
1010
0000
0001
0010
0011
0000
0100
0000
,
1010
0000
0010
0100
0101
0000
0001
0000
,
1100
0000
0010
0001
0000
1001
0000
0011
,
0000
1100
0000
1010
0000
0101
0000
0011
,
0000
1100
0000
1001
0000
0101
0000
0011
,
0000
1100
0000
1001
0000
0110
0000
0011
,
0001
0010
0001
1000
0010
0000
0010
0000
1000
0000
1000
0000
0100
0000
0100
0000
,
0000
0110
0000
0001
0000
2000
0000
0001
,
0000
0000
0000
0000
0001
0001
0001
0001
,
0000
0002
0000
0000
0000
0000
0000
3003
,
1001
0000
0000
0000
;
