#TITLE:(Feels So) Good To Be Alive;
#SUBTITLE:(Jamie Ritmen Remix);
#ARTIST:Ibiza Nights;
#TITLETRANSLIT:;
#SUBTITLETRANSLIT:;
#ARTISTTRANSLIT:;
#GENRE:;
#CREDIT:;
#BANNER:Good To Be Alive.png;
#BACKGROUND:;
#LYRICSPATH:;
#CDTITLE:;
#MUSIC:(Feels So) Good To Be Alive (Jamie Ritmen Remix).ogg;
#OFFSET:-0.205;
#SAMPLESTART:24.990;
#SAMPLELENGTH:21.020;
#SELECTABLE:YES;
#BPMS:0.000=175.420;
#STOPS:;
#BGCHANGES:;
#KEYSOUNDS:;

//---------------dance-single - ----------------
#NOTES:
     dance-single:
     :
     Hard:
     8:
     0.585,0.723,0.205,0.432,0.136,456.000,27.000,57.000,0.000,0.000,0.000,0.585,0.723,0.205,0.432,0.136,456.000,27.000,57.000,0.000,0.000,0.000:
0000
0000
0000
0000
,
0000
0000
0000
0000
,
0000
0000
0000
0000
,
0000
0000
0000
0000
,
0000
0000
0000
2001
0000
0000
0000
0000
,
0000
0000
0000
0000
,
0000
0000
0000
0100
0000
0000
0100
0000
,
0000
0100
0000
3100
0000
0000
0000
0000
,
0000
0000
0000
1002
0000
0000
0010
0000
,
0000
1000
0000
1000
0000
0000
0100
0000
,
0000
0100
0000
0100
0000
0000
0010
0000
,
0000
1000
0000
1003
0000
0000
0000
0000
,
0000
0000
0000
0120
0000
0000
1000
0000
,
0000
0001
0000
0001
0000
0000
0100
0000
,
0000
0100
0000
0100
0000
0000
1000
0000
,
0000
0001
0000
0031
0000
0000
0000
0000
,
0000
0000
0000
0210
0000
0000
0010
0000
,
0000
1000
0000
1000
0000
0000
0001
0000
,
0000
0001
0000
0001
0000
0000
1000
0000
,
0000
0010
0000
0310
0000
0000
0010
1000
,
0000
0000
0100
0000
0000
0000
0011
0000
0001
0000
0000
0000
0110
0000
0000
0010
,
0001
0000
0001
1000
0010
0000
0100
0000
,
0010
0000
1000
0100
0000
0010
0001
0000
,
0200
0320
2030
3001
,
0100
0010
0010
0000
1000
0000
0100
0010
,
0001
0000
1000
0000
0001
1000
0001
0000
,
1000
0002
0010
0000
0100
0000
1000
0003
,
0100
0000
0010
0000
1000
0000
0100
0010
,
0001
1000
0010
0100
0010
0000
1000
0000
,
0010
1000
1000
0001
1000
0000
0100
0000
,
0010
0000
0001
1000
0000
0010
2000
0000
,
3200
0320
0032
2003
,
3020
0100
0230
0000
0320
0000
2030
0000
,
3200
0000
0310
0010
0000
0001
1000
0010
,
0000
0100
0020
0000
1000
0000
1000
0000
,
1000
0030
1000
0000
1000
0001
0200
0000
,
0000
0320
0000
0000
0000
2030
0000
0000
,
0001
3001
0001
0000
0100
0000
0020
0030
,
2000
3000
0200
0300
0020
0031
0002
0003
,
2000
0000
3020
0000
2030
0000
3000
0000
0100
1000
0100
0000
2000
0000
3000
0000
,
0002
0003
0200
0300
0002
0003
2000
3000
,
0200
0310
0020
0031
0002
1003
2000
3010
,
0020
0130
0200
0301
1000
0001
1000
0001
,
1000
0001
1000
2001
0000
0000
0000
3200
,
0000
0000
0000
1300
0001
0000
0100
0000
,
0010
1000
0100
0000
1000
0000
0001
0000
,
0010
0100
1000
0000
0100
0000
0100
0000
,
0100
0100
0010
0010
,
0010
0001
0010
0000
0001
0000
1000
0000
,
0010
1000
0010
0000
0100
0000
0010
0000
,
1000
0100
1000
0000
1001
0000
1001
0000
,
1001
0000
0000
0000
1001
0000
0000
0000
0110
0000
0000
0000
0110
0000
0000
1000
,
0010
1000
0100
0000
0010
0000
0001
0000
,
0010
0100
1000
0001
,
0100
0010
1000
0100
,
0010
0001
1000
0010
,
1000
0100
1000
0000
0001
0000
0100
0000
,
0010
1000
0100
0010
,
0001
1000
0010
1000
,
0100
0000
0000
0000
0010
0000
0000
0000
0001
0000
0000
0000
1000
0000
0000
1000
,
0010
0000
0100
0000
0010
0000
1010
0000
0010
0000
0000
0000
1000
0000
0000
0100
,
0010
0000
0001
1000
0001
0000
0100
0000
,
0010
0010
0010
1000
0000
0100
0010
0000
,
0001
1000
1010
0010
,
1000
0001
0100
0000
0010
0000
1000
1000
,
0200
0000
0320
0000
0030
0001
1000
0000
,
1000
0001
0100
0000
1010
0000
1010
0000
,
1010
0000
1010
0000
0101
0000
0101
0001
,
0100
0001
1000
1100
0000
0000
0010
0000
,
0002
0000
1003
0010
0100
0000
0010
0000
,
1000
0000
0100
0010
0000
0001
0100
0000
,
0010
1000
0100
0010
,
0100
1000
1100
0000
0010
0000
0001
0000
,
0100
0000
0010
1000
0100
1100
0100
0010
,
0000
0001
2000
0000
0001
0000
0010
0000
,
0100
0000
0001
3001
0000
0010
0100
0000
,
0000
0000
1000
0000
0000
0000
0001
0000
1000
0000
0001
0000
1000
0001
0000
1000
,
0000
0010
0000
0010
0000
0000
1000
0000
0001
0000
0010
0000
0100
0010
0000
0010
,
0000
0001
0000
1000
0010
1000
0100
0000
0100
0000
0010
0000
0001
1000
0000
0001
,
0000
0100
0000
0100
0000
0000
0110
0000
0020
0030
0000
0000
2000
3000
0000
0000
,
0200
0300
0020
0030
0002
0003
1000
0000
0010
0000
0100
0000
0010
1000
0000
0000
,
0100
0000
0010
0000
0010
0000
0001
0000
1000
0000
0010
0000
0010
0100
0000
0000
,
0010
0000
1000
0000
1000
0001
1000
0000
1000
0000
0001
0000
0000
1000
0001
0000
,
0100
0000
0010
0000
0010
0000
1010
0000
0020
0030
0000
0000
2000
3000
0000
0000
,
0002
0003
0000
0000
2000
3000
0100
0000
0010
0000
0001
0000
1000
0000
0010
0000
,
1000
0010
0010
1000
0100
0010
0100
1000
,
0010
0100
0100
0100
1000
0100
0001
0010
,
0100
0000
1000
0000
0001
0000
1000
0001
1000
0010
0000
0000
0000
0000
0010
0100
,
0010
0100
0000
0010
0100
0010
1000
0000
1000
0000
0100
0000
0010
0000
0001
0000
,
1000
0010
0010
0100
0010
1000
0100
0001
,
0100
0000
1000
0000
1000
0000
1000
0001
0000
0000
0100
0010
0000
0000
1000
0001
,
0000
0000
1000
0100
0000
0100
0000
0000
0010
0000
0010
0001
0000
0000
0001
1000
,
0000
0000
0010
1000
0000
0000
2001
0000
0000
0000
0000
0000
0001
0000
0000
0000
,
0000
0010
0000
0010
0000
0000
0010
0000
,
0000
0100
0000
0100
0000
0000
0100
0000
,
0000
0001
0000
3001
0000
0000
0000
0000
;

//---------------dance-single - ----------------
#NOTES:
     dance-single:
     :
     Medium:
     6:
     0.368,0.470,0.197,0.038,0.000,309.000,26.000,5.000,0.000,0.000,0.000,0.368,0.470,0.197,0.038,0.000,309.000,26.000,5.000,0.000,0.000,0.000:
0000
0000
0000
0000
,
0000
0000
0000
0000
,
0000
0000
0000
0000
,
0000
0000
0000
0000
,
0000
0000
0000
2001
0000
0000
0000
0000
,
0000
0000
0000
0000
,
0000
0000
0000
0100
0000
0000
0100
0000
,
0000
0100
0000
3100
0000
0000
0000
0000
,
0000
0000
0000
1002
0000
0000
0010
0000
,
0000
1000
0000
1000
0000
0000
0100
0000
,
0000
0100
0000
0100
0000
0000
0010
0000
,
0000
1000
0000
1003
0000
0000
0000
0000
,
0000
0000
0000
0120
0000
0000
1000
0000
,
0000
0001
0000
0001
0000
0000
0100
0000
,
0000
0100
0000
0100
0000
0000
1000
0000
,
0000
0001
0000
0031
0000
0000
0000
0000
,
0000
0000
0000
0210
0000
0000
0010
0000
,
0000
1000
0000
1000
0000
0000
0001
0000
,
0000
0001
0000
0001
0000
0000
1000
0000
,
0000
0010
0000
0310
0000
0000
0000
0000
,
0000
0000
0000
1001
0000
0000
0000
0000
,
0100
0000
1000
0001
0000
0000
0000
0000
,
0000
0000
0000
0001
0000
0000
1000
0000
,
0010
0100
0010
1000
,
0100
1000
0100
0000
1000
0000
0000
0001
,
0000
0100
0000
0010
,
1000
0100
0000
0000
1000
0000
0001
0000
,
0101
1010
1100
0101
,
0001
1000
0000
0100
0000
0000
0000
0000
,
1000
0000
0001
0100
0000
0000
0000
0000
,
0000
0000
0000
0010
0000
0000
1000
0000
,
0001
0100
0001
0010
,
0100
1000
0001
0000
0100
0000
0100
0000
,
0100
0000
0000
0010
0000
1000
0000
0001
,
0000
0100
0001
0000
1000
0000
0100
0000
,
1000
0000
0100
0000
0000
1000
0001
0000
,
0000
0100
0000
0000
0001
0000
0000
1000
,
0000
0100
1000
0001
,
0100
0010
1010
0101
,
0011
1100
0001
0100
,
0010
1000
0010
0100
,
0001
0000
0010
0000
0100
1000
0000
0001
,
0100
0000
0010
1000
0000
0100
1000
0000
,
0001
0100
0010
1000
0000
0000
0001
0000
,
0000
0000
0001
1000
,
0100
1000
0001
0010
,
0100
1000
0001
0100
,
0010
1000
0001
0100
,
0001
0010
0100
1000
,
0001
0100
0010
1000
,
0001
0100
0001
0010
,
0100
1000
0001
0100
,
0001
0101
0000
0000
0001
0000
1000
0000
,
0100
1000
0010
0100
,
0001
0010
0100
1000
,
0001
0100
0001
1000
,
0100
0000
1000
0001
,
0100
0001
0010
0100
,
1000
0001
0100
0001
,
1000
0000
0001
0000
1000
0000
0000
0010
,
0000
1000
0000
0100
0000
0000
0000
0000
,
1000
0000
0001
0100
0000
0000
0000
0000
,
0000
0000
0000
0001
0000
0000
1000
0000
,
0100
1000
0001
0000
,
0000
0000
0000
0000
0000
0000
0000
0001
,
0000
0000
1000
0000
0000
0100
1000
0000
,
0001
0100
0000
0000
1000
0000
0100
0000
,
1000
0000
0001
0000
0100
0000
0000
0010
,
0000
1000
0000
0100
0000
0000
0000
0000
,
1000
0000
0001
0100
0000
0000
0000
0000
,
0000
0000
0000
0001
0000
0000
1000
0000
,
0100
1000
0001
0101
,
1010
1100
0001
0000
,
0000
0000
0000
0001
0000
0100
0000
0010
,
0000
1000
0100
0000
0200
0000
0000
0000
,
0000
0000
0300
0000
0000
1000
0000
0000
,
0000
0000
0000
0001
0000
1000
0000
0010
,
0100
0010
0000
1000
0000
0100
0000
0010
,
0000
0001
0100
1000
0000
0100
0000
0010
,
0000
1000
0000
1010
0000
0000
0000
0001
,
0000
0000
0000
0100
0000
0010
0000
1000
,
0001
0100
0000
0010
0000
1000
0000
0001
,
0010
0100
0000
1000
0000
0001
0000
0100
,
0000
0001
0000
0101
0000
1010
0000
1100
,
0000
0101
0000
0010
1000
0100
0000
1000
,
0001
0100
0000
0001
0000
1000
0000
0100
,
0000
0010
0000
0001
0100
0001
0000
1000
,
0100
1000
0000
0010
0000
0100
0000
0001
,
0010
0001
0000
1000
0000
0100
0000
1000
,
0010
0100
0000
0001
0000
0010
0000
0100
,
1000
0001
0000
0101
0000
1010
0000
1100
,
0000
0101
0000
0000
0010
1000
0000
0100
,
0000
1000
0000
0001
0000
0000
0100
0000
,
0000
0001
0000
0100
0000
0000
0010
0000
,
0000
1000
0000
0100
0000
0000
1000
0000
,
0000
0001
0000
0100
0000
0000
0000
0000
;

//---------------dance-single - ----------------
#NOTES:
     dance-single:
     :
     Easy:
     3:
     0.264,0.398,0.144,0.045,0.000,219.000,19.000,6.000,0.000,0.000,0.000,0.264,0.398,0.144,0.045,0.000,219.000,19.000,6.000,0.000,0.000,0.000:
0000
0000
0000
0000
,
0000
0000
0000
0000
,
0000
0000
0000
0000
,
0000
0000
0000
0000
,
0000
0000
0000
2001
0000
0000
0000
0000
,
0000
0000
0000
0000
,
0000
0000
0000
0100
0000
0000
0100
0000
,
0000
0100
0000
3100
0000
0000
0000
0000
,
0000
0000
0000
1002
0000
0000
0010
0000
,
0000
1000
0000
1000
0000
0000
0100
0000
,
0000
0100
0000
0100
0000
0000
0010
0000
,
0000
1000
0000
1003
0000
0000
0000
0000
,
0000
0000
0000
0120
0000
0000
1000
0000
,
0000
0001
0000
0001
0000
0000
0100
0000
,
0000
0100
0000
0100
0000
0000
1000
0000
,
0000
0001
0000
0031
0000
0000
0000
0000
,
0000
0000
0000
0210
0000
0000
0010
0000
,
0000
1000
0000
1000
0000
0000
0001
0000
,
0000
0001
0000
0001
0000
0000
1000
0000
,
0000
0010
0000
0310
0000
0000
0000
0000
,
0000
0000
0000
1001
0000
0000
0000
0000
,
0000
0000
0000
0001
0000
0000
0000
0000
,
0000
0000
0000
0010
0000
0000
1000
0000
,
0001
0100
0001
0000
,
0000
0000
0000
0000
0000
0000
0000
0010
,
0000
0000
2000
0000
0000
3000
0001
0000
,
0000
0100
0000
0000
0010
0000
1000
0000
,
0001
0000
0100
0000
0001
0000
0000
1000
,
0000
0001
0000
0001
0000
0000
0000
0000
,
0010
0000
0000
1000
0000
0000
0000
0000
,
0000
0000
0000
0001
0000
0000
1000
0000
,
0100
1000
0001
0100
,
0001
1000
0100
0000
0000
0000
0000
0000
,
0000
0000
0000
1000
0000
0001
0000
0100
,
0000
0000
0001
0001
0000
0000
0001
0000
,
0001
0100
0000
1000
,
0000
0000
0000
0101
0000
0000
0000
1010
,
0000
0000
0000
1100
0000
0000
0000
0101
,
0000
0000
0000
0010
0000
0000
0000
1000
,
0000
0000
0000
0100
0000
0000
0000
0000
,
0000
0000
0001
1000
,
0100
1000
0001
1000
,
0001
0001
0001
0001
,
0001
0000
0001
1000
0000
0000
0000
0000
,
0000
0000
0001
0100
,
0010
0010
0000
0000
,
0000
0000
1000
0001
,
0100
0010
0000
0000
,
0000
0000
1000
0100
,
0010
0001
0000
0000
,
0000
0000
1000
0010
,
0100
0010
1000
0100
,
0000
0000
0001
1000
,
0001
1000
0000
0000
,
0000
0000
0100
0010
,
0100
0010
0000
0000
,
0000
0000
1000
0100
,
1000
0100
0000
0000
,
0000
0000
0100
0010
,
0100
0010
0000
0000
,
0000
0000
0000
1001
0000
0000
0000
0000
,
0100
0000
1000
0001
0000
0000
0000
0000
,
0000
0000
0000
0010
0000
0000
1000
0000
,
0001
0100
0001
0000
,
0000
0000
0000
0000
0000
0000
0000
0001
,
0000
2000
3000
0100
,
1000
0001
0000
0000
0100
0000
0010
0000
,
0010
0000
1000
0000
0000
0000
0000
0001
,
0000
0100
0000
0110
0000
0000
0000
0000
,
0010
0000
1000
0001
0000
0000
0000
0000
,
0000
0000
0000
0010
0000
0000
1000
0000
,
0100
1000
0000
0001
,
0100
0010
0000
0000
,
0000
0000
0000
0010
0000
0000
0000
1000
,
0000
0001
0100
0000
0000
0000
0000
0000
,
0000
0000
0000
0010
,
0000
0000
0000
1000
0000
0000
0000
0001
,
0000
0000
0000
0100
0000
0000
0000
0010
,
0000
0000
0000
1000
0000
0000
0000
0001
,
0000
0000
0000
0100
0000
0100
0000
0100
,
0000
0000
0000
0010
0000
0000
0000
1000
,
0000
0000
0000
0100
0000
0000
0000
0010
,
0000
0000
0000
0001
0000
0000
0000
0100
,
0000
0000
0000
0010
0000
0000
0000
0000
,
0000
0000
0000
1000
0000
0001
0000
0100
,
0000
0001
0000
0001
0000
1000
0000
0100
,
0000
0010
0000
0001
0000
0100
0000
0010
,
0000
1000
0000
1001
0000
0000
0000
0101
,
0000
0000
0000
1010
0000
0010
0000
1000
,
0000
0100
0000
1000
0000
0001
0000
0100
,
0000
0010
0000
1001
0000
1100
0000
0101
,
0000
1010
0000
0000
0000
0010
0000
0100
,
0000
0001
0000
1001
0000
0000
0100
0000
,
0000
1000
0000
0001
0000
0000
0100
0000
,
0000
0010
0000
1000
0000
0000
0001
0000
,
0000
0100
0000
0010
0000
0000
0000
0000
;
