#TITLE:Your Love Is My Drug;
#SUBTITLE:;
#ARTIST:Ke$ha;
#TITLETRANSLIT:;
#SUBTITLETRANSLIT:;
#ARTISTTRANSLIT:;
#CREDIT:;
#BANNER:;
#BACKGROUND:;
#LYRICSPATH:;
#CDTITLE:;
#MUSIC:01_-_Kesha_-_Your_Love_Is_My_Drug.ogg;
#OFFSET:-0.350;
#SAMPLESTART:37.990;
#SAMPLELENGTH:13.200;
#SELECTABLE:YES;
#BPMS:0.000=119.990,209.000=60.005,224.500=119.990;
#STOPS:224.500=0.250
;
#BGCHANGES:;

//---------------dance-single - ----------------
#NOTES:
     dance-single:
     :
     Hard:
     7:
     0.434,0.559,0.087,0.399,0.076:
0000
0000
0000
0000
,
0000
0000
0000
0000
,
0000
0000
0000
0000
,
0000
0000
0000
0000
,
0000
0000
0000
0000
1000
0001
0100
0010
,
1000
0001
0000
0010
0001
1000
0010
0100
,
0020
0000
1030
0001
0100
0010
1000
0001
,
0010
0100
0000
0010
0001
0100
0010
1000
,
0200
0000
0310
0001
0100
0001
0010
0100
,
1000
0001
0000
1000
0010
0100
0010
1000
,
0002
0000
1003
0010
0100
0001
0010
0100
,
1000
0100
0010
0001
1000
0001
0100
0010
,
2000
0000
0000
0000
3001
0000
0000
0010
0000
0000
0100
0000
0000
0000
0110
0000
,
0000
0000
0010
0000
0001
0000
0000
0100
0000
0000
0020
0000
0000
0000
0030
0000
,
1000
0000
0100
0000
0010
0000
0000
0001
0000
0000
2000
0000
0000
0000
3001
0000
,
0010
0000
0100
0000
1000
0000
0000
0001
0000
0000
2000
0000
0000
0000
0000
0000
,
3001
0000
0100
0000
0001
0000
0000
0010
0000
0000
0100
0000
0000
0000
1100
0000
,
0000
0000
0000
0000
0100
0000
0000
0010
0000
0000
0002
0000
0000
0000
0003
0000
,
1001
0000
1000
0000
0001
0000
0000
0100
0000
0000
0020
0000
0000
0000
1030
0000
,
0000
0000
0000
0000
1000
0000
0000
0001
0000
0000
1001
0000
0000
0000
1000
0000
,
1000
0001
0100
0000
0100
0001
0000
0001
,
2000
0000
3001
0100
0010
2000
0000
0000
,
3001
0010
0001
0000
0010
0001
0000
0001
,
2000
0000
0000
0000
3001
0000
0000
0001
0000
0000
0001
0000
1000
0000
0001
0000
,
0010
0100
1000
0000
1000
0001
0000
0001
,
0100
0000
0010
0010
1000
0002
0000
0000
,
1003
0001
0100
0000
0010
0100
0000
0010
,
0200
0000
0000
0000
0310
0000
0000
0010
0000
0000
0010
0000
2000
0000
0000
0000
,
0002
3003
1001
0000
,
1001
0001
1000
0001
0010
0100
1000
0100
,
0010
0002
0000
1003
0010
0100
0001
0100
,
0010
1000
0001
0001
0010
0010
0100
0100
,
2000
0000
3002
0100
0103
0010
1000
0001
,
0020
0000
0130
1000
0001
0100
0010
0010
,
0020
0000
1030
0001
2000
0000
3001
0100
,
0010
1000
0002
0000
1000
0000
1000
0000
,
1000
0000
0000
0000
1003
0000
0000
0001
0000
0000
0100
0000
0000
0000
0010
0000
,
0000
0000
0010
0000
1000
0000
0000
0001
0000
0000
0020
0000
0000
0000
0000
0000
,
0130
0000
0010
0000
0001
0000
0000
1000
0000
0000
0002
0000
0000
0000
0103
0000
,
0000
0000
0000
0000
0010
0000
0000
1000
0000
0000
0002
0000
0000
0000
0000
0000
,
1003
0000
0010
0000
0100
0000
0000
0100
0000
0000
0100
0000
0000
0000
0010
0000
,
0000
0000
0000
0000
1000
0000
0000
0001
0000
0000
0020
0000
0000
0000
0000
0000
,
0130
0000
1000
0000
0001
0000
0000
0100
0000
0000
0100
0000
0000
0000
0010
0000
,
0000
0000
0000
0000
1000
0000
0000
0001
0000
0000
1001
0000
0000
0000
1000
0000
,
1000
1000
0001
0000
1000
0001
0000
1000
,
0002
0000
0003
1000
0001
0200
0000
0000
,
0310
1000
0001
0000
0001
0010
0000
0100
,
2000
0000
0000
0000
3001
0000
0000
0001
0000
0000
0001
0000
0000
0000
1000
0000
,
0001
0010
0100
0000
0010
0100
0000
0010
,
0200
0000
1300
0001
0100
0020
0000
0030
,
1000
0001
0100
0000
0100
0001
0000
0001
,
0020
0000
0000
0000
0130
0000
0000
0100
0000
0000
0100
0000
2000
0000
0000
0000
,
3100
0000
0020
0001
0230
0010
2300
0001
,
3020
0100
2030
0100
3020
1000
0230
0010
,
0302
0010
2003
0001
3020
0100
2030
0100
,
3020
0100
2030
0100
3002
0010
0203
0010
,
0010
0000
0310
0000
1001
0000
0000
1000
0100
0000
0010
0000
0001
0000
0001
0000
,
0000
1000
0001
0100
0010
0100
0010
1000
,
1001
0001
0010
0100
1000
0001
0100
0010
,
2000
0001
3000
0001
0100
0100
0000
0010
,
0020
0000
1030
0000
0001
0001
0000
1000
,
1000
0000
0010
0010
0000
0100
1001
0010
,
0020
0000
1030
0000
0001
0001
1001
1000
,
1000
0000
1000
0001
0200
0000
0310
0010
,
2002
3003
0000
0000
;

//---------------dance-single - ----------------
#NOTES:
     dance-single:
     :
     Medium:
     5:
     0.302,0.395,0.036,0.116,0.000:
0000
0000
0000
0000
,
0000
0000
0000
0000
,
0000
0000
0000
0000
,
0000
0000
0000
0000
,
0000
0000
0000
0000
1000
0000
0010
0100
,
0010
0000
0010
0000
1000
0100
1000
0000
,
0001
0000
0100
0000
0010
1000
0100
0000
,
1000
0000
0001
0000
0100
0000
0001
0100
,
0001
0000
1000
0000
0100
0000
1000
0010
,
1000
0000
0010
0000
0100
0000
0010
0100
,
0010
0000
1000
0000
0001
0000
0100
0001
,
0100
0000
0001
1000
0001
0000
0001
0010
,
0001
0001
0100
0010
,
1000
0100
1000
0010
,
0100
0001
0010
0100
,
1000
0001
0100
0101
,
0001
1000
0100
1000
,
0010
0100
0001
1000
,
1001
0001
0100
0010
,
1000
0001
1000
1001
,
0001
0000
0001
0000
0100
0010
0000
0100
,
0010
0010
1000
0100
,
1000
0000
0100
0000
1000
0100
0000
1000
,
0100
1000
1000
0001
,
0100
0000
0010
0000
0100
0010
0000
0100
,
0010
0010
0100
0001
,
0010
0000
0100
0000
1000
0100
0000
1000
,
0100
1000
0001
0100
,
0010
1000
0001
0000
,
1000
0000
0001
0000
0100
0000
0010
0100
,
0010
0000
0010
0000
1000
0000
0100
1000
,
0100
0000
1000
0000
0001
0000
0100
0001
,
0100
0000
0010
0000
1000
0000
0100
1000
,
0100
0000
1000
0000
0001
0000
0100
0001
,
0100
0000
0010
0000
1000
0000
0100
1000
,
0100
0000
1000
0000
0001
0000
0100
0001
,
0100
0010
1000
0100
,
0010
0001
0100
0010
,
1000
0001
1000
0010
,
0100
0001
0010
0100
,
1001
0010
0100
0001
,
0010
0100
1000
0010
,
1001
0100
0010
1000
,
0001
0010
0100
0001
,
0001
0000
1000
0000
0100
1000
0000
1000
,
0100
0000
1000
0000
0001
0100
0000
0001
,
0100
0001
0100
0000
0001
0100
0000
0100
,
0001
1000
0100
1000
,
0010
0000
0100
0000
0010
0100
0000
0100
,
0010
0000
0010
0000
1000
0001
0000
1000
,
0001
0000
0001
0000
1000
0001
0000
1000
,
0001
0100
0010
1000
,
0001
2000
3002
0203
,
0320
2030
3200
0320
,
0032
0203
0320
2030
,
3200
0320
0032
0203
,
0320
0000
0000
0030
1000
0000
0100
0000
,
0000
0000
1000
0000
0001
0000
0100
0001
,
0100
0000
0001
0000
1000
0000
0010
0100
,
0010
0000
0010
0000
1000
0100
0000
1000
,
0100
0000
1000
0000
0001
0100
0000
0001
,
0100
0000
0010
0000
1000
0010
1000
0010
,
1000
0000
0010
0000
0100
0010
0000
0100
,
0010
0000
1000
0000
0100
0000
0000
1000
,
0001
0000
0000
0000
;

//---------------dance-single - ----------------
#NOTES:
     dance-single:
     :
     Easy:
     3:
     0.218,0.395,0.174,0.116,0.000: // measure 1
0000
0000
0000
0000
,  // measure 2
0000
0000
0000
0000
,  // measure 3
0000
0000
0000
0000
,  // measure 4
0000
0000
0000
0000
,  // measure 5
0000
0000
1000
0010
,  // measure 6
0100
0000
0010
0100
,  // measure 7
0001
0000
0001
1000
,  // measure 8
0001
0000
1000
0001
,  // measure 9
0100
0000
0010
0100
,  // measure 10
0010
0000
0010
1000
,  // measure 11
1001
0000
0001
0100
,  // measure 12
0010
1001
1001
1001
,  // measure 13
1001
0001
0000
0100
,  // measure 14
0000
0010
1000
0010
,  // measure 15
0000
0100
0000
0010
,  // measure 16
0000
0100
0001
0100
,  // measure 17
0000
0001
0000
1000
,  // measure 18
0000
0010
0100
0010
,  // measure 19
0000
1000
0000
0001
,  // measure 20
0000
0100
0010
0100
,  // measure 21
0000
1001
0000
0110
,  // measure 22
0000
0010
1000
0100
,  // measure 23
0000
1001
0000
0110
,  // measure 24
0000
0010
1000
0100
,  // measure 25
0000
1001
0000
0110
,  // measure 26
0000
0010
1000
0001
,  // measure 27
0000
1001
0000
0110
,  // measure 28
0000
0010
1000
0001
,  // measure 29
0000
1000
0000
0001
,  // measure 30
1000
0000
0001
0100
,  // measure 31
0001
0001
1000
0100
,  // measure 32
1000
0001
0000
0100
,  // measure 33
0000
0010
1000
0010
,  // measure 34
0100
0000
0010
1000
,  // measure 35
0001
0000
1000
0000
,  // measure 36
0001
0100
0010
0100
,  // measure 37
0010
1000
0000
0001
,  // measure 38
0000
0100
0100
0100
,  // measure 39
0000
0010
0000
1000
,  // measure 40
0000
0001
1000
0001
,  // measure 41
0000
0100
0000
0010
,  // measure 42
0000
1000
0001
1000
,  // measure 43
0000
0001
0000
0100
,  // measure 44
0000
0010
1000
0010
,  // measure 45
0000
1001
0000
0110
,  // measure 46
0000
0010
1000
0001
,  // measure 47
0000
1001
0000
0110
,  // measure 48
0000
0010
0100
0010
,  // measure 49
0000
1001
0000
0110
,  // measure 50
0000
0010
1000
0001
,  // measure 51
0000
1001
0000
0110
,  // measure 52
0000
0010
1000
0001
,  // measure 53
1000
0002
2003
3200
,  // measure 54
0320
0230
2300
3002
,  // measure 55
0203
0320
2030
3200
,  // measure 56
0320
0032
0203
0320
,  // measure 57
2030
3000
0001
0100
,  // measure 58
0000
0010
0100
0010
,  // measure 59
0100
0000
0010
0000
,  // measure 60
1000
0001
1000
0000
,  // measure 61
0100
1000
0001
0100
,  // measure 62
0010
0000
0010
0110
,  // measure 63
0010
0000
1000
1001
,  // measure 64
0001
0000
0001
0000
,  // measure 65
1001
0000
0000
0000
;
