#TITLE:What A Great Drug;
#SUBTITLE:(Cold Turkey Remix);
#ARTIST:Sy & Unknown;
#TITLETRANSLIT:;
#SUBTITLETRANSLIT:;
#ARTISTTRANSLIT:;
#CREDIT:;
#BANNER:;
#BACKGROUND:;
#LYRICSPATH:;
#CDTITLE:;
#MUSIC:RYXV.ogg;
#OFFSET:-0.040;
#SAMPLESTART:37.990;
#SAMPLELENGTH:13.140;
#SELECTABLE:YES;
#BPMS:0.000=175.010;
#STOPS:;
#BGCHANGES:;

//---------------dance-single - ----------------
#NOTES:
     dance-single:
     :
     Challenge:
     10:
     0.839,0.984,0.414,0.304,0.562: // measure 1
0000
0000
0000
0000
,  // measure 2
1000
0000
0001
0100
0000
0110
0000
0100
,  // measure 3
0010
0000
1000
0001
0010
0000
0100
0000
1000
0000
0001
0000
0100
0000
0010
0000
,  // measure 4
0000
0000
0010
0000
0100
0000
0000
0000
1001
0000
0000
0000
0011
0000
0001
1000
,  // measure 5
0010
0000
0010
0100
0010
1000
0000
0000
,  // measure 6
0001
0000
0000
0000
0010
0000
0100
0000
0000
0000
1001
0000
0000
0000
1000
0010
,  // measure 7
0100
0000
0010
0100
0001
0000
1000
0000
0010
0100
0001
0010
0100
0000
0000
0000
,  // measure 8
1000
0001
0100
0010
0100
0000
0010
0100
0010
0000
0100
0010
0000
0000
0010
1000
,  // measure 9
0001
1000
0010
0000
0100
0001
0010
0100
,  // measure 10
1000
0000
1000
0001
0000
1001
0001
0100
,  // measure 11
0010
0000
0100
0010
1000
0000
0001
0010
0100
0000
1000
0000
0001
0000
1000
0000
,  // measure 12
0000
0001
0100
0000
0110
0010
1000
0001
,  // measure 13
0010
0000
0100
0010
0001
0000
1000
0001
,  // measure 14
0100
0000
0010
0100
0000
0110
0010
1000
,  // measure 15
0001
1000
0010
0100
0001
0000
1000
0000
0100
0000
0010
0000
0001
0000
1000
0000
,  // measure 16
2002
0000
0000
0000
0000
0000
0000
3003
,  // measure 17
0001
0000
1000
0000
0000
0000
0010
0100
0010
0000
1000
0000
0100
0000
0000
0000
,  // measure 18
0010
0000
0000
0001
0000
0000
0000
0000
1001
0000
0000
0000
0000
0000
0001
0000
,  // measure 19
1000
0000
0010
1000
0010
0000
0000
0000
0010
0000
0100
0001
0010
0000
0000
0000
,  // measure 20
0100
0000
1000
0001
0100
0000
0000
0000
0010
1000
0001
0000
0010
0000
0000
0000
,  // measure 21
0100
0000
0010
0000
0001
0000
0000
0000
1000
0000
0001
0100
0010
0000
0100
0000
,  // measure 22
0010
0000
0000
1000
0000
0000
0001
0000
0200
0000
0000
0000
0000
0000
0000
0000
,  // measure 23
0310
0000
1000
0001
0000
1001
0000
0000
,  // measure 24
2000
0000
0000
0000
3001
0000
0000
0000
0100
0000
0000
0000
0010
0000
1000
0001
,  // measure 25
0100
0000
0000
0000
0010
0100
0001
0010
0100
0000
1000
0000
0001
0000
0100
0000
,  // measure 26
0010
0000
0000
1000
0000
0000
0000
0000
1001
0000
0000
0000
0000
0000
0000
0000
,  // measure 27
0001
0000
0100
0000
0010
0000
0000
0000
0010
0000
1000
0001
0010
0000
0000
0000
,  // measure 28
0100
1000
0001
0000
0100
0000
0100
0000
0010
1000
0001
0000
0101
0000
0000
0000
,  // measure 29
0020
0000
2030
0000
3002
0000
0003
0000
2000
0000
3002
0000
0103
0010
1000
0010
,  // measure 30
1000
0000
0000
0001
0000
0000
0100
0000
0020
0000
0000
0000
0000
0000
0000
0000
,  // measure 31
0030
1000
0001
1000
0001
1000
0001
1000
,  // measure 32
0001
0100
0010
0000
0100
0000
0010
0000
,  // measure 33
1000
0001
0100
0010
0100
0001
1000
0010
,  // measure 34
0200
0010
0000
0310
0000
0000
0000
0000
,  // measure 35
0010
1000
0001
0010
0100
1000
0001
1000
,  // measure 36
0002
0000
0003
0000
,  // measure 37
0001
1000
0010
0100
0010
1000
0001
0010
,  // measure 38
0200
0010
0000
0310
0000
0000
0000
0000
,  // measure 39
0001
1000
0010
0100
0010
1000
0001
0010
,  // measure 40
0220
0000
0000
0000
0000
0000
0000
0330
,  // measure 41
0010
0001
1000
0001
0100
0010
1000
0001
,  // measure 42
1000
0000
0000
0010
0000
0000
0100
0000
0000
0010
0000
0000
1000
0000
0001
0000
0100
0000
0010
0000
0100
0000
0001
0000
,  // measure 43
0010
0100
1000
0001
0100
0010
1000
0001
,  // measure 44
0010
0000
0000
0100
0000
0000
1000
0000
0000
0001
0000
0000
1000
0000
0000
0000
0001
0000
0100
0000
0010
0000
1000
0000
,  // measure 45
0001
1000
0010
0100
0001
0010
0100
1000
,  // measure 46
0001
0000
0000
0100
0000
0000
0010
0000
0000
1000
0000
0000
0001
0000
0010
0000
0100
0000
1000
0000
0010
0000
0100
0000
,  // measure 47
0001
0100
1000
0100
0001
0010
1000
0010
,  // measure 48
0001
0000
0000
1000
0000
0000
0010
0000
0100
0010
0100
0010
,  // measure 49
0100
0010
1000
0001
0010
0100
0010
0001
,  // measure 50
1000
0000
0000
0001
0000
0000
0100
0000
0000
0010
0000
0000
0100
0000
0010
0000
1000
0000
0001
0000
0010
0000
0001
0000
,  // measure 51
0100
0010
1000
0100
0010
0100
1000
0001
,  // measure 52
0100
0000
0000
0010
0000
0000
0100
0000
0000
0010
0000
0000
1000
0000
0000
0000
0001
0000
0100
0000
0010
0000
1000
0000
,  // measure 53
0001
0010
0100
0010
0001
1000
0010
0100
,  // measure 54
0010
0000
0000
1000
0000
0000
0001
0000
0000
0010
0000
0000
0100
0000
1000
0000
0001
0000
0100
0000
0001
0000
1000
0000
,  // measure 55
0100
0010
0001
1000
0010
0100
0010
0100
,  // measure 56
0010
1000
0010
1000
0010
1000
0010
1000
0010
0100
0010
0100
0010
0100
0010
0100
,  // measure 57
0010
1000
0001
0010
0100
1000
0001
0100
,  // measure 58
0010
0000
0000
1000
0000
0000
0001
0000
0000
0010
0000
0000
0100
0000
0010
0000
0001
0000
1000
0000
0010
0000
0100
0000
,  // measure 59
0001
1000
0010
0100
0010
1000
0001
0010
,  // measure 60
0100
0000
0000
1000
0000
0000
0001
0000
0100
0010
1000
0001
,  // measure 61
0010
0100
1000
0001
0100
0010
0100
0001
,  // measure 62
0010
0000
0000
0100
0000
0000
1000
0000
0000
0001
0000
0000
0100
0000
0010
0000
1000
0000
0001
0000
0100
0000
0001
0000
,  // measure 63
0010
0100
1000
0100
0001
0100
1000
0001
,  // measure 64
0101
0000
0000
0110
0000
0000
1010
0000
1000
0001
0010
0100
,  // measure 65
1000
0001
0100
0010
1000
0001
0010
0100
,  // measure 66
0010
0000
0000
0001
0000
0000
1000
0000
0010
0100
0010
1000
,  // measure 67
0010
1000
0001
0100
1000
0100
0001
0010
,  // measure 68
0110
0000
0000
1001
0000
0000
0001
0000
0100
0010
1000
0001
,  // measure 69
0010
0100
1000
0001
0100
1000
0100
0001
,  // measure 70
0020
0000
0000
0230
0000
0000
2300
0000
0000
3002
0000
0000
1003
0000
0010
0000
0100
0000
0010
0000
1000
0000
0001
0000
,  // measure 71
0010
0100
1000
0010
0100
0010
1000
0001
,  // measure 72
1001
0110
1001
0110
,  // measure 73
1001
0000
0011
0000
,  // measure 74
1100
0000
0000
0000
2020
3030
0100
0000
,  // measure 75
0101
0000
1010
0100
,  // measure 76
0011
0000
0000
0000
2200
3300
0010
0000
,  // measure 77
0101
0000
1001
0000
,  // measure 78
0110
0000
0000
0000
2002
3003
0001
0000
,  // measure 79
0110
0000
1010
1000
,  // measure 80
1100
0100
0010
0001
0011
0000
0101
0000
,  // measure 81
2001
0001
0001
0001
,  // measure 82
0001
0000
0000
0000
0001
0000
0000
0000
0001
0000
0000
0000
3001
0000
1000
0001
,  // measure 83
0200
0010
0010
0010
,  // measure 84
0010
0000
0000
0000
0010
0000
0000
0000
0010
0000
0000
0000
0310
0000
0010
1000
,  // measure 85
0002
1000
1000
1000
,  // measure 86
1000
0000
0000
0000
1000
0000
0000
0000
1000
0000
0000
0000
1003
0000
0001
1000
,  // measure 87
0020
0100
0100
0100
,  // measure 88
0130
0000
0000
0010
0000
0000
1000
0000
0000
0001
0000
0000
0001
0000
0000
1000
0000
0000
0010
0000
1000
0000
0001
0000
,  // measure 89
0010
0000
0000
0100
1000
0001
0100
0000
0000
0010
0100
0001
,  // measure 90
0011
0000
0000
0101
0000
0000
0001
1000
0010
0100
0000
0010
,  // measure 91
1000
0000
0000
1000
0001
0100
0010
0000
1000
0001
0000
0001
,  // measure 92
1001
0000
0000
1001
0000
0000
0001
0100
0001
0010
0000
0100
,  // measure 93
1000
0000
0000
0001
0100
0010
1000
0000
0000
1000
0010
0100
,  // measure 94
0001
0000
0000
0001
0010
0100
1000
0000
0001
0100
0000
0010
,  // measure 95
0100
0010
0100
0010
0100
0010
0100
0010
0100
0010
0100
0010
0100
0010
0100
0010
0100
0010
0100
0010
0100
0010
0100
0010
,  // measure 96
0200
0000
0000
0000
,  // measure 97
0310
0000
1000
0100
0000
0010
0001
0000
0100
0010
0000
1000
,  // measure 98
0100
0000
1000
0010
0000
0100
0010
0000
1000
0010
0100
0001
,  // measure 99
0010
0000
0100
1000
0000
1000
0001
0000
0001
0100
0000
0100
,  // measure 100
0110
0000
0000
1001
0000
0000
1000
0000
0001
0100
0010
0100
,  // measure 101
0010
0000
1000
0100
0000
0010
0001
0000
0100
0010
0000
1000
,  // measure 102
0100
0000
0010
0100
0000
1000
0001
0000
1000
0010
0100
0010
,  // measure 103
1000
0000
0001
0010
0000
0100
1000
0000
0001
0100
0000
0010
,  // measure 104
0200
0000
0000
0310
0000
0000
1000
0000
0001
0100
0010
1000
,  // measure 105
0001
0000
0010
0100
0000
1000
0001
0000
0001
1000
0000
1000
,  // measure 106
0001
0000
0001
1000
0000
1000
0001
0000
0001
1000
0001
1000
,  // measure 107
0001
0000
0100
0010
0000
0010
0100
0000
0100
0010
0000
0010
,  // measure 108
0200
0000
0000
0320
0000
0000
1030
0000
0001
0010
0100
0010
,  // measure 109
0001
0000
1000
0001
0000
0001
1000
0000
1000
0001
0000
0001
,  // measure 110
1000
0000
0001
1000
0000
0001
1000
0000
0010
1000
0010
1000
,  // measure 111
0020
0000
2030
3002
0000
0023
0230
0000
2300
3002
0000
0103
,  // measure 112
0110
1001
0110
1001
,  // measure 113
0110
0000
0010
1000
0001
0000
0010
0000
0100
0000
1100
0000
0000
0000
1000
0000
,  // measure 114
0000
0001
0000
0100
0000
0010
0000
1000
,  // measure 115
0010
0000
0100
0001
0010
0000
0100
0000
1000
0000
0001
0100
0000
0000
0110
0000
,  // measure 116
0000
0000
0010
0000
0000
0000
1000
0000
0000
0000
0001
0000
0000
0000
0010
0100
,  // measure 117
0010
0000
0001
0100
0010
0000
1000
0000
0001
0000
0011
0000
0000
0000
0001
0000
,  // measure 118
0000
1000
0000
0010
0000
0100
0000
0010
,  // measure 119
0000
1000
0001
0100
0020
0000
1030
0000
,  // measure 120
0110
0011
0101
0110
,  // measure 121
0010
1000
0010
1000
0000
0100
0000
0010
,  // measure 122
0011
0101
0110
1010
,  // measure 123
1000
0100
1000
0100
0000
1000
0000
0001
,  // measure 124
0100
0010
0100
0010
1010
0000
1001
0000
,  // measure 125
0101
0100
0001
0010
0110
0100
1000
0001
,  // measure 126
0101
0100
0010
1000
1100
0100
0010
0001
,  // measure 127
0100
0001
0100
0001
0100
0001
0100
0001
0100
0001
0100
0001
0100
0001
0100
0001
0100
0001
0100
0001
0100
0001
0100
0001
,  // measure 128
0200
0000
0000
0000
,  // measure 129
0310
1000
0001
0100
1000
0001
0010
0100
,  // measure 130
0001
1000
0000
0001
0000
0010
0000
0100
,  // measure 131
0000
1000
0010
0100
0010
1000
0001
0010
,  // measure 132
0100
1000
0000
0001
0000
0100
0000
0010
,  // measure 133
1000
0100
0010
0001
0010
0100
1000
0010
,  // measure 134
0100
0010
0000
1000
0000
0001
0000
0010
,  // measure 135
0000
0100
1000
0001
0100
0010
1000
0001
,  // measure 136
0100
0000
0010
0000
0000
0000
0000
0000
1000
0000
0000
0000
0001
0100
0001
0100
,  // measure 137
0001
0010
0100
1000
0001
0100
0010
1000
,  // measure 138
0001
0100
0101
0000
0010
0000
1010
0000
,  // measure 139
1000
0001
0100
0010
1000
0010
0100
0001
,  // measure 140
0010
0000
0000
0100
0000
0000
0000
0000
0000
0000
0000
0000
1100
0000
0000
0000
1000
0000
0001
0000
0100
0000
0010
0000
,  // measure 141
0100
0010
1000
0001
0010
0100
0010
0001
,  // measure 142
0100
0010
1010
0000
0100
0000
0101
0000
,  // measure 143
0000
0010
0100
1000
0001
0100
0010
1000
,  // measure 144
0001
0000
0000
0100
0000
0000
0000
0000
0000
0000
0000
0000
0001
0000
0000
0000
0100
0000
0010
0000
1000
0000
0001
0000
,  // measure 145
0100
0010
1000
0001
0010
0001
0010
0100
,  // measure 146
1000
0001
0000
1000
0000
0001
0000
0100
,  // measure 147
0000
0010
1000
0001
0010
0100
1000
0001
,  // measure 148
0100
0000
0010
1000
0001
0000
1000
0000
0100
0000
0010
0000
0001
0000
0000
1000
,  // measure 149
0000
0001
0100
0010
1000
0010
0100
0001
,  // measure 150
0010
0000
0100
1000
0001
0000
0100
0000
0010
0000
1000
0000
0000
0000
0000
0000
,  // measure 151
1100
0000
0200
0300
0020
0030
0002
0003
2000
3000
0020
0030
0200
0300
0002
0003
,  // measure 152
0020
0030
0200
0300
0010
0000
0100
0000
1100
0000
0000
0000
0011
0000
0000
0000
,  // measure 153
0001
0100
0010
1000
0001
0100
0010
1000
,  // measure 154
0001
0000
0010
0001
0100
0000
0010
0000
1000
0000
0001
0000
0000
0000
0000
0000
,  // measure 155
0000
1000
0001
0010
0100
0010
0001
0100
,  // measure 156
0010
0000
1000
0002
0103
0000
0010
0000
1000
0000
0001
0000
0010
0000
0000
0100
,  // measure 157
0000
0010
0001
0100
0010
1000
0001
0100
,  // measure 158
0010
0000
1000
0001
0100
0000
0010
0000
1000
0000
0001
0000
0000
0000
0000
0000
,  // measure 159
0000
0001
0010
0100
0010
0001
1000
0010
,  // measure 160
0100
0000
0010
1000
0001
0000
0010
0000
0100
0000
0010
0000
0001
0000
1000
0000
,  // measure 161
0001
1000
0001
1000
0001
1000
0001
1000
0001
0000
0000
0000
1001
0000
0000
0000
,  // measure 162
0001
0100
0001
0100
0001
0100
0001
0100
0001
0000
0000
0000
0001
0010
0001
0010
,  // measure 163
0001
0100
0010
0100
0010
0100
0010
0100
0010
0000
0000
0000
1010
0000
0000
0000
,  // measure 164
1000
0010
1000
0010
1000
0010
1000
0010
1000
0000
0000
0000
0100
1000
0100
1000
,  // measure 165
0100
0010
0100
0010
0100
0010
0100
0010
0100
0000
0000
0000
0110
0000
0000
0000
,  // measure 166
0010
0001
0010
0001
0010
0100
0010
0100
0010
0000
0000
0000
0100
1000
0100
1000
,  // measure 167
0100
1000
0100
1000
0100
0000
0000
0000
1001
0000
0000
0000
0101
0000
0000
0000
,  // measure 168
0001
0000
0000
1000
0000
0000
0001
0000
0000
1000
0000
0000
0001
0000
0000
0000
0000
0000
0000
0000
0000
0000
0000
0000
1010
0000
0000
0000
0000
0000
0000
0000
0000
0000
0000
0000
0010
0000
0000
0000
0100
0000
0000
0000
0001
0000
0000
0000
,  // measure 169
1001
0000
0101
0000
,  // measure 170
0011
0000
0000
0000
0000
0000
1100
0000
0000
1000
0001
0100
,  // measure 171
0110
0000
1010
0000
,  // measure 172
0101
0000
0000
0000
0000
0000
0011
0000
0000
0001
0010
0100
,  // measure 173
1100
0000
0000
0000
0000
0000
1010
0000
0000
0100
0010
1000
,  // measure 174
1010
0000
0000
0000
0000
0000
1100
0000
0000
0010
0001
0100
,  // measure 175
0101
0110
1010
1100
,  // measure 176
0110
0000
0011
0001
0200
0000
0310
0000
,  // measure 177
1000
1001
0001
1001
,  // measure 178
1000
1100
0100
1100
,  // measure 179
0100
0110
0010
0011
,  // measure 180
0010
0110
0001
0101
,  // measure 181
0100
1010
0100
0011
,  // measure 182
0010
1100
0010
0101
,  // measure 183
1000
0010
0100
0001
,  // measure 184
0010
0000
0000
0100
0000
0000
2000
0000
0000
0000
0000
0000
3001
0000
1000
0000
0001
0000
1000
0000
0010
0000
0100
0000
,  // measure 185
0001
0010
0100
0010
0001
0100
0010
1000
,  // measure 186
0001
0000
0000
0010
0000
0000
0100
0000
0000
1000
0000
0000
0001
0000
0010
0000
0100
0000
0010
0000
0001
0000
0100
0000
,  // measure 187
0010
1000
0010
0100
0010
0100
0010
1000
,  // measure 188
0001
0000
0000
0010
0000
0000
0100
0000
0000
1000
0000
0000
0001
0000
0000
0000
0001
0000
0100
0000
0010
0000
1000
0000
,  // measure 189
0001
0010
0100
1000
0001
1000
0100
0010
,  // measure 190
0001
0000
0000
0010
0000
0000
0100
0000
0000
1000
0000
0000
0001
0000
1000
0000
0001
0000
1000
0000
0001
0000
1000
0000
,  // measure 191
0001
0100
0010
1000
0001
0100
0010
1000
,  // measure 192
2001
0000
0200
0301
0200
0301
0200
0301
,  // measure 193
3100
1000
0001
0100
0010
0100
0001
0010
,  // measure 194
0100
0000
0000
1000
0000
0000
0001
0000
0000
0200
0320
2030
,  // measure 195
3002
0103
0010
1000
0001
0010
0100
1000
,  // measure 196
0001
0000
0000
0010
0000
0000
0100
0000
0000
1000
0000
0000
0001
0000
0000
0000
0001
0000
0100
0000
0010
0000
1000
0000
,  // measure 197
0001
1000
0001
0100
0010
1000
0001
0100
,  // measure 198
0010
0000
0000
1000
0000
0000
0001
0000
0000
0020
0230
2300
,  // measure 199
3002
2003
3020
0230
0320
2030
3002
0023
,  // measure 200
0130
0000
0000
0100
0000
0000
0100
0000
1000
0100
0010
0001
,  // measure 201
0100
0000
0010
0000
1000
0000
0001
0000
1000
0010
0100
0001
1000
0010
0100
0001
,  // measure 202
1000
0000
0000
0000
1001
0000
0000
0000
0000
0000
0000
0000
2000
3002
0203
0320
,  // measure 203
2030
3000
0100
0000
0010
0000
0001
0000
1000
0100
0010
0001
1000
0100
0010
0001
,  // measure 204
1000
0000
0000
0000
0001
0000
0000
0000
0100
0000
0000
0020
0230
0320
2030
3000
,  // measure 205
0001
0000
1000
0000
0010
0000
0100
0000
0001
0010
0100
1000
0001
0010
0100
1000
,  // measure 206
0001
0000
0000
0000
2002
3003
0000
0000
2002
3003
0000
1000
0001
1000
0001
0000
,  // measure 207
1001
M00M
0000
0000
0000
0000
0000
0000
;
