#TITLE:We No Speak Americano;
#SUBTITLE:;
#ARTIST:Yolando Be Cool & DCUP;
#TITLETRANSLIT:;
#SUBTITLETRANSLIT:;
#ARTISTTRANSLIT:;
#GENRE:;
#CREDIT:;
#BANNER:;
#BACKGROUND:;
#LYRICSPATH:;
#CDTITLE:;
#MUSIC:We No Speak Americano.ogg;
#OFFSET:0.381;
#SAMPLESTART:18.150;
#SAMPLELENGTH:13.200;
#SELECTABLE:YES;
#BPMS:0.000=125.050;
#STOPS:38.000=0.950
,149.000=0.480
;
#BGCHANGES:;
#KEYSOUNDS:;

//---------------dance-single - ----------------
#NOTES:
     dance-single:
     :
     Hard:
     8:
     0.595,0.566,0.976,0.153,0.431,317.000,102.000,16.000,0.000,0.000,0.000,0.595,0.566,0.976,0.153,0.431,317.000,102.000,16.000,0.000,0.000,0.000:
0000
0000
0000
0000
0000
0000
0000
0000
0000
0000
0000
0000
0000
0000
0000
0000
0000
0000
0000
0000
0000
0000
0000
0000
0000
0000
0000
0000
0000
0000
0000
1001
,
0000
0000
0000
0000
1000
0000
0001
0100
0001
0000
0010
0000
0100
0000
1000
0000
,
0001
0000
0000
0000
0100
0000
0000
0000
0010
0000
0000
0000
0100
0000
0000
0000
0000
0000
0000
0001
0000
0000
0010
0000
0001
0000
0010
0000
0001
0000
0010
0000
,
0001
0000
0000
0000
1000
0000
0001
0100
0002
0000
0003
0010
0100
0000
1000
0000
,
0001
0000
0000
0000
0100
0000
0000
0000
0010
0000
0000
0000
1000
0000
0000
0000
0000
0000
0000
0001
0000
0000
1000
0000
0001
0000
0100
0000
0010
0000
1000
0000
,
0001
0000
0000
0000
1001
0000
0001
1000
0100
0000
0010
0000
0001
0000
1000
0000
,
0010
0100
0010
1000
0000
0000
0000
0000
,
0001
0000
0000
0000
1001
0000
0001
0010
0100
0000
1000
0000
0001
0000
0100
0000
,
0010
0000
0000
0000
0000
0000
0000
0000
1000
0000
0000
0000
0000
0000
0000
0000
1001
0000
0000
0000
0000
0000
0000
0000
1000
0000
0000
0000
0000
0001
0000
0000
0000
0100
0000
0000
0000
0001
0000
0000
0000
0100
0000
0000
0000
0001
0000
0000
0000
0100
0000
0000
0000
0000
0010
0000
0000
0000
0000
0000
1000
0000
0000
0000
,
0001
1000
0001
1000
0001
0000
0000
0000
1001
0000
0000
0000
1001
0000
0000
0000
,
1010
0000
0000
0000
0101
0000
0000
0011
0000
0000
0000
0000
0001
0000
1000
0000
,
0010
0000
0000
0000
0110
0000
0010
0100
0000
0000
0000
0000
0110
0000
0000
0000
,
1001
0000
0000
0000
0011
0000
0000
1100
0000
0000
0000
0000
0100
0000
0010
0000
,
0001
0000
0000
0000
1001
0000
0000
1001
0000
0000
0001
2000
3000
0000
0000
0000
,
1100
0000
0000
0000
0011
0000
0000
0101
0000
0000
0000
0000
0010
0000
1000
0000
,
0100
0000
0000
0000
0010
0000
0001
0100
0000
0000
0000
0000
0110
0000
0000
0000
,
1001
0000
0000
0000
0011
0000
0000
1100
0000
0000
0000
0000
0020
0030
0000
0000
,
0002
0003
0000
0000
2000
3000
0001
0000
0100
0010
1000
0001
0100
0000
0000
0000
,
0101
0000
0000
0000
1010
0000
0000
1010
0000
0000
0000
0000
0010
0000
0100
0000
,
0010
0000
0000
0000
0010
0000
1000
0001
0000
0000
0000
0000
0011
0000
0000
0000
,
0110
0000
0000
0000
1100
0000
0000
0110
0000
0000
0000
0000
0001
0000
1000
0000
,
0010
0000
0000
0000
0110
0000
0000
0110
0000
0000
0010
2000
3000
0000
0000
0000
,
1001
0000
0000
0000
0011
0000
0000
0011
0000
0000
0000
0000
0001
0000
1000
0000
,
0001
0000
0000
0000
0000
0000
0000
0000
0000
0000
0000
0000
0000
0000
0000
0000
0101
0000
0000
0000
0000
0000
0000
0000
0000
0000
0000
0000
0110
0000
0000
0000
0000
0000
0000
0000
0000
0000
0000
0000
0000
0000
0000
0000
0000
0000
0000
0000
0000
0000
0000
0000
0000
0000
0010
0000
0000
0000
0000
0000
0000
1000
0000
0000
,
0000
0100
0000
0000
0000
1000
0000
0000
0000
0100
0000
0000
0000
1000
0000
0000
0000
0100
0000
0000
0000
0000
0010
0000
0000
0000
0000
0000
0001
0000
0000
0000
0100
0000
0000
0000
0001
0000
0000
0000
0100
0000
0000
0000
0001
0000
0000
0000
0100
0000
0000
0000
0000
0000
0000
0000
0000
0000
0000
0000
0000
0000
0000
0000
,
0110
0000
0000
0000
0010
0100
0010
0100
0010
0000
0000
0000
1001
0000
0000
0000
,
0011
0000
0000
0000
1100
0000
0000
1010
0000
0000
0000
0000
0010
0000
1000
0000
,
0001
0000
0000
0000
1001
0000
0000
1100
0000
0000
0000
0000
1001
0000
0000
0000
,
0101
0000
0000
0000
0110
0000
0000
0110
0000
0000
0000
0000
0010
0000
1000
0000
,
0100
0000
0000
0000
1100
0000
0000
0101
0000
0000
0010
2000
3000
0000
0000
0000
,
1100
0000
0000
0000
1001
0000
0000
0110
0000
0000
0000
0000
0010
0000
1000
0000
,
0100
0000
0000
0000
1001
0000
0000
0110
0000
0000
0000
0000
0110
0000
0000
0000
,
1001
0000
0000
0000
1001
0000
0000
0110
0000
0000
0000
0000
1000
0000
0001
1000
,
0000
0001
1000
0000
0010
0000
0100
0000
0100
0000
0100
0000
0010
0000
1000
0001
,
1000
0000
0100
0100
0100
0010
0001
1000
,
0010
0000
0000
0000
0000
0000
0010
0100
0010
0100
0010
0100
0010
0000
1000
0000
,
0001
0000
0000
0000
0000
0000
1000
0000
0001
0000
0100
0000
0010
0000
1000
0001
,
1000
0001
1000
0001
1000
0000
0000
0000
1001
0000
0000
0000
0011
0000
0000
0000
,
0110
0000
0000
0110
0000
0000
0000
0000
1000
0000
0001
0000
0100
0000
0000
0000
,
0110
0000
0000
1001
0000
0000
0000
0000
1010
0000
0000
0000
0101
0000
0000
0000
,
0011
0000
0000
0011
0000
0000
0000
0000
0001
0000
1000
0000
0010
0000
0000
0000
,
0110
0000
0000
0110
0000
0000
0010
2000
3000
0000
0000
0000
1001
0000
0000
0000
,
0011
0000
0000
0011
0000
0000
0000
0000
0001
0000
0010
0000
0001
0000
0000
0000
,
1100
0000
0000
1100
0000
0000
0000
0000
0110
0000
0000
0000
0011
0000
0000
0000
,
0101
0000
0000
0110
0000
0000
0000
0000
0220
0330
0000
0000
2002
3003
0000
0000
,
0220
0330
0000
0000
0000
0000
0000
0000
1001
0000
0000
0000
0011
0000
0000
0000
,
1100
0000
0000
1100
0000
0000
0000
0000
0010
0000
0001
0000
1000
0000
0000
0000
,
1001
0000
0000
0011
0000
0000
0000
0000
0110
0000
0000
0000
1001
0000
0000
0000
,
0011
0000
0000
1100
0000
0000
0000
0000
0010
0000
0001
0000
0100
0000
0000
0000
,
1010
0000
0000
0110
0000
0000
0010
0200
0300
0000
0000
0000
1010
0000
0000
0000
,
0101
0000
0000
0011
0000
0000
0000
0000
0010
0000
0100
0000
0010
0000
0000
0000
,
0100
0000
1000
0001
0000
0000
0000
0000
0101
0000
0000
0000
0110
0000
0000
0000
,
1010
0000
0000
1100
0000
0000
0000
0000
1000
0000
1000
0000
0001
0000
0001
0000
,
0100
0000
0100
0010
0100
0010
0100
0010
2000
0000
0000
0000
3000
0000
0000
0000
;

//---------------dance-single - ----------------
#NOTES:
     dance-single:
     :
     Medium:
     5:
     0.323,0.307,0.096,0.010,0.163,225.000,10.000,1.000,0.000,0.000,0.000,0.323,0.307,0.096,0.010,0.163,225.000,10.000,1.000,0.000,0.000,0.000:
0000
0000
0000
0000
0000
0000
0000
0000
0000
0000
0000
0000
0000
0000
0000
0000
0000
0000
0000
0000
0000
0000
0000
0000
0000
0000
0000
0000
0000
0000
0000
1001
,
0000
1000
0010
0100
,
0010
1000
0100
0000
0000
0000
1000
0001
,
1000
0001
0100
0010
,
1000
0100
1000
0000
0000
0000
0001
1000
,
0001
0001
0100
0010
,
1000
0100
1000
0000
0000
0000
0001
0000
,
1000
0001
0100
0010
,
1000
0010
1000
0000
0001
0100
0001
0000
,
1000
0100
1000
0000
1001
0000
0001
0000
,
0001
0000
0000
0000
0100
0000
0000
0100
0000
0000
0000
0000
0010
0000
0000
0000
,
1000
0000
0000
0000
0100
0000
0000
0100
0000
0000
0000
0000
1000
0000
0000
0000
,
0001
0000
0000
0000
0100
0000
0000
0100
0000
0000
0000
0000
0010
0000
0000
0000
,
1000
0000
0000
0000
0001
0000
0000
1000
0000
0000
0000
0000
0001
0000
0000
0000
,
0100
0000
0000
0000
0010
0000
0000
0010
0000
0000
0000
0000
0010
0000
0000
0000
,
1000
0000
0000
0000
0100
0000
0000
1000
0000
0000
0000
0000
0001
0000
0000
0000
,
0100
0000
0000
0000
0010
0000
0000
1000
0000
0000
0000
0000
0001
0000
0000
0000
,
1000
0001
0000
0001
,
0100
0000
0000
0000
0010
0000
0000
0010
0000
0000
0000
0000
0010
0000
0000
0000
,
1000
0000
0000
0000
0100
0000
0000
1000
0000
0000
0000
0000
0001
0000
0000
0000
,
0100
0000
0000
0000
0010
0000
0000
1000
0000
0000
0000
0000
0001
0000
1000
0000
,
0001
0000
0000
0000
1000
0000
0000
1000
0000
0000
0000
0000
0001
0000
0000
0000
,
0100
0000
0000
0000
0010
0000
0000
1000
0000
0000
0000
0000
0100
0000
1000
0000
,
0001
0000
0000
0000
0001
0000
0000
0100
0000
0000
0000
0000
0010
0000
0000
0000
,
0100
0010
1000
0100
,
1001
0000
0000
0001
,
0100
0000
0000
0000
0010
0000
0000
0010
0000
0000
0000
0000
0010
0000
0000
0000
,
1000
0100
1000
0001
,
0100
0000
0000
0000
0010
0000
0000
1000
0000
0000
0000
0000
0001
0000
0100
0000
,
0010
0000
0000
0000
0010
0000
0000
1000
0000
0000
0000
0000
1000
0000
0000
0000
,
0100
0000
0000
0000
1000
0000
0000
0001
0000
0000
0000
0000
0001
0000
0100
0000
,
0010
0000
0000
0000
0010
0000
0000
0010
0000
0000
0000
0000
0010
0000
0000
0000
,
1000
0000
0000
0000
0100
0000
0000
1000
0000
0000
0000
0000
0001
0000
0000
0000
,
0100
0000
0010
1000
0100
0000
1001
0000
,
1001
0000
0000
0000
0001
0100
0001
0000
,
0101
0000
0000
0000
0010
0100
0010
0000
,
0110
0000
0000
0000
0010
1000
0010
0000
,
0020
1030
1001
1100
,
0100
0000
0000
1000
0000
0000
0000
0000
0001
0000
0100
0000
0001
0000
0000
0000
,
0001
0000
0000
0001
0000
0000
0000
0000
0010
0000
0000
0000
0100
0000
0000
0000
,
0010
0000
0000
1000
0000
0000
0000
0000
1000
0000
0001
0000
1000
0000
0000
0000
,
0001
0000
0000
0001
0000
0000
0000
0000
0100
0000
0000
0000
0010
0000
0000
0000
,
0010
0000
0000
1000
0000
0000
0000
0000
0100
0000
1000
0000
0100
0000
0000
0000
,
1000
0000
0000
0001
0000
0000
0000
0000
0001
0000
0000
0000
0100
0000
0000
0000
,
0010
0000
0000
0100
0000
0000
0000
0000
0010
0000
0000
0000
1000
0000
0000
0000
,
0100
0000
1000
0001
,
0100
0000
0000
0010
0000
0000
0000
0000
0010
0000
1000
0000
0100
0000
0000
0000
,
0100
0000
0000
0100
0000
0000
0000
0000
1000
0000
0000
0000
0001
0000
0000
0000
,
0100
0000
0000
0100
0000
0000
0000
0000
0010
0000
1000
0000
0010
0000
0000
0000
,
0010
0000
0000
0010
0000
0000
0000
0000
0100
0000
0000
0000
0010
0000
0000
0000
,
1000
0000
0000
0100
0000
0000
0000
0000
0100
0000
1000
0000
0001
0000
0000
0000
,
0001
0000
0000
0001
0000
0000
0000
0000
0100
0000
0000
0000
0010
0000
0000
0000
,
1000
0000
0000
0100
0000
0000
0000
0000
0100
0000
1000
0000
0100
0000
0000
0000
,
0100
1000
0100
0000
1100
0000
0000
0000
;

//---------------dance-single - ----------------
#NOTES:
     dance-single:
     :
     Easy:
     2:
     0.269,0.205,0.029,0.029,0.172,191.000,3.000,3.000,0.000,0.000,0.000,0.269,0.205,0.029,0.029,0.172,191.000,3.000,3.000,0.000,0.000,0.000:
0000
0000
0000
0000
0000
0000
0000
0000
0000
0000
0000
0000
0000
0000
0000
0000
0000
0000
0000
0000
0000
0000
0000
0000
0000
0000
0000
0000
0000
0000
0000
1001
,
0000
1000
0001
1000
,
0001
1000
0000
0000
,
0000
0010
0100
0010
,
0100
0010
0000
0000
,
0000
0001
0100
0001
,
0100
0001
0000
0000
,
0000
1000
0100
1000
,
0100
0000
0000
0000
2000
0000
0000
0000
0000
0000
0000
0000
0000
3002
0000
0000
,
0000
0000
0103
0010
,
0010
0000
0000
0000
0010
0000
0000
0010
0000
0000
0000
0000
1000
0000
0000
0000
,
1000
0000
0000
0000
1000
0000
0000
1000
0000
0000
0000
0000
0001
0000
0000
0000
,
0001
0000
0000
0000
0001
0000
0000
0001
0000
0000
0000
0000
0100
0000
0000
0000
,
0100
0000
0000
0000
0100
0000
0000
0100
0000
0000
0000
0000
0010
0000
0000
0000
,
0010
0000
0000
0000
0010
0000
0000
0010
0000
0000
0000
0000
1000
0000
0000
0000
,
1000
0000
0000
0000
1000
0000
0000
1000
0000
0000
0000
0000
0001
0000
0000
0000
,
0001
0000
0000
0000
0001
0000
0000
0001
0000
0000
0000
0000
0100
0000
0000
0000
,
0100
0100
0000
0010
,
0010
0000
0000
0000
0010
0000
0000
0010
0000
0000
0000
0000
1000
0000
0000
0000
,
1000
0000
0000
0000
1000
0000
0000
1000
0000
0000
0000
0000
0001
0000
0000
0000
,
0001
0000
0000
0000
0001
0000
0000
0001
0000
0000
0000
0000
0100
0000
0000
0000
,
0100
0000
0000
0000
0100
0000
0000
0100
0000
0000
0000
0000
0010
0000
0000
0000
,
0010
0000
0000
0000
0010
0000
0000
0010
0000
0000
0000
0000
1000
0000
0000
0000
,
1000
0000
0000
0000
1000
0000
0000
1000
0000
0000
0000
0000
0001
0000
0000
0000
,
1000
0001
1000
0001
,
1001
0000
0000
1000
,
1000
0000
0000
0000
1000
0000
0000
1000
0000
0000
0000
0000
0001
0000
0000
0000
,
0001
0000
0000
0000
0001
0000
0000
0001
0000
0000
0000
0000
0100
0000
0000
0000
,
0100
0000
0000
0000
0100
0000
0000
0100
0000
0000
0000
0000
0010
0000
0000
0000
,
0010
0000
0000
0000
0010
0000
0000
0010
0000
0000
0000
0000
1000
0000
0000
0000
,
1000
0000
0000
0000
1000
0000
0000
1000
0000
0000
0000
0000
0001
0000
0000
0000
,
0001
0000
0000
0000
0001
0000
0000
0001
0000
0000
0000
0000
0100
0000
0000
0000
,
0100
0000
0000
0000
0100
0000
0000
0100
0000
0000
0000
0000
0010
0000
0000
0000
,
0010
0010
0000
0100
,
0010
0000
1000
0001
,
1000
0000
0100
0001
,
0100
0000
0010
1000
,
0020
1030
1000
1000
,
1000
0000
0000
1000
0000
0000
0000
0000
0001
0000
0000
0000
0001
0000
0000
0000
,
0001
0000
0000
0001
0000
0000
0000
0000
0100
0000
0000
0000
0100
0000
0000
0000
,
0100
0000
0000
0100
0000
0000
0000
0000
0010
0000
0000
0000
0010
0000
0000
0000
,
0010
0000
0000
0010
0000
0000
0000
0000
1000
0000
0000
0000
1000
0000
0000
0000
,
1000
0000
0000
1000
0000
0000
0000
0000
0100
0000
0000
0000
0100
0000
0000
0000
,
0100
0000
0000
0100
0000
0000
0000
0000
0010
0000
0000
0000
0010
0000
0000
0000
,
0010
0000
0000
0010
0000
0000
0000
0000
0001
0000
0000
0000
0001
0000
0000
0000
,
0001
0000
1000
1000
,
1000
0000
0000
1000
0000
0000
0000
0000
0001
0000
0000
0000
0001
0000
0000
0000
,
0001
0000
0000
0001
0000
0000
0000
0000
0100
0000
0000
0000
0100
0000
0000
0000
,
0100
0000
0000
0100
0000
0000
0000
0000
0010
0000
0000
0000
0010
0000
0000
0000
,
0010
0000
0000
0010
0000
0000
0000
0000
1000
0000
0000
0000
1000
0000
0000
0000
,
1000
0000
0000
1000
0000
0000
0000
0000
0001
0000
0000
0000
0001
0000
0000
0000
,
0001
0000
0000
0001
0000
0000
0000
0000
0100
0000
0000
0000
0100
0000
0000
0000
,
0100
0000
0000
0100
0000
0000
0000
0000
0001
0000
0000
0000
1000
0000
0000
0000
,
0001
1000
1001
0000
;
