#TITLE:The Club Is Alive;
#SUBTITLE:;
#ARTIST:JLS;
#TITLETRANSLIT:;
#SUBTITLETRANSLIT:;
#ARTISTTRANSLIT:;
#GENRE:;
#CREDIT:;
#BANNER:;
#BACKGROUND:;
#LYRICSPATH:;
#CDTITLE:;
#MUSIC:The Club Is Alive.ogg;
#OFFSET:0.717;
#SAMPLESTART:55.930;
#SAMPLELENGTH:13.200;
#SELECTABLE:YES;
#DISPLAYBPM:144.000;
#BPMS:0.000=144.010,102.000=72.005,103.000=144.010,132.000=72.005,134.000=144.010,178.000=288.020,180.000=144.010;
#STOPS:178.000=0.052
,178.250=0.052
,178.500=0.052
,178.750=0.052
,179.000=0.052
,179.250=0.052
,179.500=0.052
,179.750=0.052
;
#BGCHANGES:;
#KEYSOUNDS:;

//---------------dance-single - ----------------
#NOTES:
     dance-single:
     :
     Hard:
     7:
     0.466,0.473,0.190,0.513,0.017,229.000,17.000,46.000,0.000,0.000,0.000,0.466,0.473,0.190,0.513,0.017,229.000,17.000,46.000,0.000,0.000,0.000:
0000
0000
0000
0000
,
0000
0000
0000
0000
,
0001
0000
1000
0000
0100
0010
0002
0000
,
0000
0000
0000
0000
1003
0010
0100
0000
,
0010
2000
0000
0002
,
0000
0000
0000
3003
,
0010
0100
0010
0000
0010
1000
0010
0000
,
1100
0000
0000
0000
0100
0000
0000
0010
0000
0000
0001
0000
0100
0000
0000
0000
,
0020
2000
0000
0000
,
0000
3030
1010
0000
1001
0000
1100
0000
,
0110
0000
0011
0000
0001
1000
0001
0000
,
1000
0000
0001
0010
0100
2000
0000
0000
,
3001
0000
0100
0000
0010
1000
0001
0000
,
0010
0000
0100
1000
0001
0200
0000
0000
,
0310
0000
0010
0100
0010
0100
0020
0000
,
2030
0000
3001
1000
0001
0000
1000
0000
,
0001
1000
0002
0000
0000
0203
0000
0010
,
0320
0030
1010
0000
0101
0000
0011
0000
,
1100
0000
0100
1000
0100
1000
0200
0000
,
0310
0001
0100
0000
0010
0200
0000
0000
,
0310
0000
0010
0000
1000
0001
1000
0000
,
0100
0010
0001
1000
0001
2000
0000
0000
,
3001
0000
0001
0100
0001
0100
0002
0000
,
2003
0000
3100
0010
0100
0010
0200
0000
,
1300
0002
0000
0000
0000
0103
0002
0000
,
0000
0000
0000
0000
2003
0000
0000
0000
0000
0000
0000
3000
1001
0000
0000
0000
,
1000
0100
1000
0100
2000
0000
3001
0000
,
0100
0001
0100
0001
0200
0000
0310
0000
,
0010
0100
0010
0100
0020
0000
1030
0000
,
1000
0001
1000
0000
1000
0001
1000
0000
,
0001
1000
0001
1000
0002
0000
0013
0000
,
0001
0010
0001
0010
0002
0000
0103
0000
,
0100
0010
0100
0010
0200
0000
0301
0000
,
0020
0001
0001
0001
0032
0000
1003
0010
,
2000
0000
0000
0000
0000
0000
3001
1000
,
0001
0010
0200
0000
,
2000
0000
0000
0000
,
3300
0000
0100
0010
0001
0000
1000
0001
,
1000
0000
0000
0000
1001
0000
0000
0000
0001
0000
0000
0100
0000
0000
0010
0000
,
2000
3002
0203
0010
,
0000
0310
1001
0110
,
1001
0000
0210
0000
0320
0000
1030
0100
,
2000
0000
0000
0000
0000
0000
3001
0100
,
0001
0010
0200
0000
,
2000
0000
0000
0000
,
3300
0000
1000
0001
2000
0000
3001
0100
,
0010
0000
0000
0000
1100
0000
0000
0000
0010
0000
0000
0001
0000
0000
1000
0000
,
0002
2003
3020
0000
,
0000
0000
1030
0001
,
0010
0000
0100
1000
0100
0000
0100
0000
,
0100
1000
0001
0100
0001
0000
0200
0000
,
0310
0000
0010
1000
0100
0000
0100
0000
,
0100
1000
0001
0100
0001
0000
0200
0000
,
0300
0000
0000
0000
;

//---------------dance-single - ----------------
#NOTES:
     dance-single:
     :
     Medium:
     5:
     0.354,0.355,0.201,0.223,0.000,184.000,18.000,20.000,0.000,0.000,0.000,0.354,0.355,0.201,0.223,0.000,184.000,18.000,20.000,0.000,0.000,0.000:
0000
0000
0000
0000
,
0000
0000
0000
0000
,
0000
1000
0001
0200
,
0000
0000
0310
1000
,
0100
2000
0000
0002
,
0000
0000
0000
3003
,
1000
0100
1000
0010
,
0100
0000
0010
0100
0000
0100
0010
0000
,
1000
2002
0000
0000
,
3003
0100
0100
0100
,
0100
1000
0001
0100
,
0010
0000
1000
0001
1000
0000
0001
0000
,
0000
0001
1000
0010
,
0100
0000
0010
1000
0001
0000
1000
0000
,
0000
0001
1000
0100
,
0100
1000
0001
0100
,
0100
0010
0100
0000
0010
0000
1000
0000
,
0001
1000
1000
1000
,
1000
0000
0001
0000
0100
0010
0100
0000
,
0010
0000
1000
0000
0100
1000
0000
1000
,
0001
0100
0010
1000
,
0001
0000
0010
0100
1000
0001
0000
0001
,
0100
0010
1000
1001
,
1001
0001
0100
0110
,
0110
0020
0000
2000
,
0030
0002
0000
3003
,
0001
0100
0110
0110
,
0010
1000
1001
1001
,
0001
1000
0101
0101
,
0001
1000
0001
0000
1000
0001
1000
0000
,
0100
1000
1001
1001
,
0010
0100
0110
0110
,
0010
1000
0001
1000
,
0002
1000
1000
1000
1003
0000
0100
0000
,
2000
0000
0000
3010
,
0100
0010
2000
0000
,
0002
0000
0000
0000
,
3003
0001
0100
0010
,
0100
0000
0010
0000
1000
0001
0000
1000
,
0001
1000
0200
0000
,
0000
0000
1000
1000
,
1000
0000
1300
0000
0001
0000
0100
0010
,
0200
0000
0000
0310
,
1000
0100
2000
0000
,
0002
0000
0000
0000
,
3003
0000
0010
0000
0100
0000
0010
1000
,
0100
0000
1000
0000
0001
0100
0000
0100
,
0010
1000
0200
0000
,
0000
0000
1000
1000
,
1000
1300
0001
0100
,
0010
0100
0010
0000
0110
0000
0110
0000
,
0020
0000
1030
0100
,
0100
1000
0100
0000
0100
0000
2200
0000
,
0000
3300
0000
0000
0000
0000
0000
0000
0000
0000
0000
0000
0000
0000
0000
0000
0000
0000
0000
0000
0000
0000
0000
0000
0000
0000
0000
0000
0000
0000
0000
0000
0000
0000
0000
0000
0000
0000
0000
0000
0000
0000
0000
0000
0000
0000
0000
0000
0000
0000
0000
0000
0000
0000
0000
0000
0000
0000
0000
0000
0000
0000
0000
0000
0000
0000
0000
0000
0000
0000
0000
0000
0000
0000
0000
0000
0000
0000
0000
0000
0000
0000
0000
0000
0000
0000
0000
0000
0000
0000
0000
0000
0000
0000
0000
0000
0000
0000
0000
0000
0000
0000
0000
0000
0000
0000
0000
0000
0000
0000
0000
0000
0000
0000
0000
0000
0000
0000
0000
0000
0000
0000
0000
0000
0000
0000
0000
0000
0000
0000
0000
0000
0000
0000
0000
0000
0000
0000
0000
0000
0000
0000
0000
0000
0000
0000
0000
0000
0000
0000
0000
0000
0000
0000
0000
0000
0000
0000
0000
0000
0000
0000
0000
0000
0000
0000
0000
0000
0000
0000
0000
0000
0000
0000
0000
0000
0000
0000
0000
0000
0000
0000
0000
0000
0000
0000
0000
0000
0000
0000
0000
0000
;

//---------------dance-single - ----------------
#NOTES:
     dance-single:
     :
     Easy:
     3:
     0.239,0.296,0.045,0.212,0.000,127.000,4.000,19.000,0.000,0.000,0.000,0.239,0.296,0.045,0.212,0.000,127.000,4.000,19.000,0.000,0.000,0.000:
0000
0000
0000
0000
,
0000
0000
0000
0000
,
0000
1000
0001
0200
,
0000
0000
0000
0310
,
1000
0200
0000
2000
,
0000
0000
0000
3300
,
1000
0001
0000
0100
,
0000
0010
0000
0010
,
0010
0010
0000
0100
,
0000
0100
0100
0100
,
0100
0100
0000
0010
,
0000
1000
0001
1000
,
0000
0001
0100
0001
,
0000
1000
0100
1000
,
0000
1000
0001
1000
,
0000
0001
0100
0001
,
0000
2000
0000
3002
,
0000
0203
0320
0230
,
0320
0230
0300
0002
,
0003
1000
0100
1000
,
0000
0001
0100
0001
,
0000
0010
0010
0010
,
0000
0100
0001
0100
,
0100
0010
1000
0100
,
1000
0002
0003
0200
,
0300
0020
0000
0030
,
1000
0000
0001
0000
,
0100
0000
0010
0000
,
1000
0000
0001
0000
,
1000
1000
0001
0001
,
1000
0000
0001
0000
,
0100
0000
0010
0000
,
0100
0010
0100
0000
,
0100
0100
0100
0000
,
0020
0000
0000
0000
,
1030
0000
0200
0000
,
2000
0000
0000
0000
,
3300
1000
0001
0000
,
0100
0000
0010
0000
,
0100
0010
0100
0000
,
0010
0000
0110
0110
,
0110
0110
0010
0000
,
0100
0000
0000
0010
,
1000
0001
1000
0000
,
0002
0000
0000
0000
,
0003
1000
0010
0000
,
0100
0000
0010
0000
,
1000
1000
1000
0000
,
0001
0000
0100
0000
,
0010
0000
0100
0100
,
0100
0000
0100
0000
,
0100
0000
0100
0100
,
0100
0000
0100
0200
,
0300
0000
0000
0000
;
