#TITLE:Telephone;
#SUBTITLE:;
#ARTIST:Lady GaGa feat. Beyonce;
#TITLETRANSLIT:;
#SUBTITLETRANSLIT:;
#ARTISTTRANSLIT:;
#CREDIT:;
#BANNER:;
#BACKGROUND:;
#LYRICSPATH:;
#CDTITLE:;
#MUSIC:06 - Lady GaGa - Telephone (feat. Beyoncé) Short 122.01.ogg;
#OFFSET:1.000;
#SAMPLESTART:39.810;
#SAMPLELENGTH:15.000;
#SELECTABLE:YES;
#BPMS:0.000=122.010;
#STOPS:;
#BGCHANGES:;

//---------------dance-single - ----------------
#NOTES:
     dance-single:
     :
     Hard:
     8:
     0.539,0.486,0.364,0.166,0.000: // measure 1
0000
0000
0000
0000
,  // measure 2
0000
0000
0000
0000
,  // measure 3
0000
0000
0000
0000
,  // measure 4
0000
0000
0000
0000
,  // measure 5
2000
0000
3002
0000
0003
0000
0001
1000
,  // measure 6
0020
0130
0001
0010
0100
1000
0001
0001
,  // measure 7
0001
1000
0020
0000
0030
0000
0010
0100
,  // measure 8
0001
0010
0100
1000
0001
0100
1000
0100
,  // measure 9
0101
0000
1100
0000
1000
0001
0001
1000
,  // measure 10
1100
0000
0011
0000
0001
0100
0010
1000
,  // measure 11
1010
0000
0101
0001
0001
0000
1000
0010
,  // measure 12
0001
0010
1000
0100
0010
0001
0100
0010
,  // measure 13
1010
0000
0101
0001
0001
0000
1000
1000
,  // measure 14
0001
0001
0100
0100
0010
0010
1000
0100
,  // measure 15
0001
0100
2000
0001
3001
1000
0010
0100
,  // measure 16
0001
0010
0100
1000
0001
0100
0010
1000
,  // measure 17
0002
0000
2003
0100
3100
0000
0010
0001
,  // measure 18
0100
0010
0100
0001
0010
0100
1000
0001
,  // measure 19
0100
0010
1000
0001
0000
1000
0001
0010
,  // measure 20
0100
0010
0001
1000
0010
0100
0010
1000
,  // measure 21
1100
0000
1010
0010
0100
0000
0110
0000
,  // measure 22
0010
1000
1001
0000
0001
0010
1000
0010
,  // measure 23
0001
0100
0010
1000
0001
0010
0000
0010
,  // measure 24
0100
1000
0001
0000
0001
0100
0010
1000
,  // measure 25
0100
0010
0000
0001
0001
0000
1001
0000
,  // measure 26
0010
1000
1010
0000
0010
0100
0001
0010
,  // measure 27
1000
0010
0001
0100
0010
1000
0000
0001
,  // measure 28
1000
0010
0100
0000
0010
1000
0001
0010
,  // measure 29
0100
1000
0000
0001
0001
0000
1000
0010
,  // measure 30
1000
0010
1000
0010
1000
0010
1000
0010
,  // measure 31
2000
0000
3001
0010
0001
1000
0001
0100
,  // measure 32
0001
0100
0001
0100
0001
0100
0001
0100
,  // measure 33
0002
0000
0003
1000
0002
0000
0103
0010
,  // measure 34
1000
0010
1000
0010
1000
0010
1000
0010
,  // measure 35
2000
0001
3100
0010
0001
0010
0100
1000
,  // measure 36
0100
1000
0100
1000
0100
1000
0100
1000
,  // measure 37
0200
0000
2300
0000
3000
0001
0100
0010
,  // measure 38
1000
0001
0010
0100
1000
0001
0100
0010
,  // measure 39
1000
0001
0011
0011
0011
0000
0001
0100
,  // measure 40
0010
1000
0001
0010
0100
1000
0001
0100
,  // measure 41
0010
1000
1100
1100
1100
0000
1000
0001
,  // measure 42
0010
0100
0010
0001
0100
1000
0100
0001
,  // measure 43
0010
0100
0110
0110
0110
0000
0010
0001
,  // measure 44
0100
1000
0100
0010
1000
0100
0010
0001
,  // measure 45
1000
0010
1010
1010
1010
0000
1000
0001
,  // measure 46
0100
0010
0010
1000
0001
0010
0100
1000
,  // measure 47
0001
0100
0110
0000
1001
0000
0001
0010
,  // measure 48
0100
1000
1001
0000
0110
0000
0010
1000
,  // measure 49
0001
0100
0101
0000
1010
0000
1000
0010
,  // measure 50
0100
0001
0010
0100
1000
0001
0001
1000
,  // measure 51
1000
0001
0101
0000
1010
0000
1000
0001
,  // measure 52
0010
0100
1100
0000
0101
0000
0010
1000
,  // measure 53
0001
0010
0110
0000
2100
0000
3100
1000
,  // measure 54
0001
0100
0010
1000
0001
0010
0100
1000
,  // measure 55
0002
0000
1003
0000
0000
0001
0100
0010
,  // measure 56
1000
0001
0010
0100
1000
0001
0100
0010
,  // measure 57
0020
0000
1030
0000
0000
0100
0010
0001
,  // measure 58
0100
0010
1000
0001
0010
0100
1000
0001
,  // measure 59
0200
0000
0320
0000
2030
0000
3100
0010
,  // measure 60
0001
0100
0010
1000
0001
0100
0010
1000
,  // measure 61
1100
0000
1010
0000
0100
0000
0010
0100
,  // measure 62
0101
0000
0110
0000
0010
0000
1000
0001
,  // measure 63
0101
0000
1010
1000
0001
0000
0001
0010
,  // measure 64
0100
0010
0001
1000
0010
0100
0010
1000
,  // measure 65
1001
0220
0000
0330
;

//---------------dance-single - ----------------
#NOTES:
     dance-single:
     :
     Medium:
     6:
     0.350,0.333,0.213,0.047,0.000:
0000
0000
0000
0000
,
0000
0000
0000
0000
,
0000
0000
0000
0000
,
0000
0000
0000
0000
,
2000
3002
0003
0100
,
0010
0000
1000
0100
1000
0000
0001
0000
,
0100
0010
1000
0000
0100
0000
1000
0000
,
0001
0000
0100
0010
1000
0000
0100
0000
,
1000
0001
0100
0010
,
1001
0000
0110
0000
0010
1000
0100
0000
,
1100
0000
0011
0000
0010
0000
0001
0100
,
0010
0000
1000
0000
0100
0000
1000
0001
,
0100
0110
0010
1000
,
0100
0000
1000
0001
0100
0000
0010
0000
,
1000
0001
1000
0000
0100
0000
1000
0000
,
0001
0010
0100
0000
1000
0000
0001
0100
,
0001
0000
1001
0000
0100
0000
1000
0001
,
0100
0000
0010
0000
1000
0000
0100
1000
,
0001
0000
1001
0000
0010
0000
1000
0001
,
1000
0000
0100
1000
0001
0000
1000
0010
,
1000
1100
0000
1001
,
0010
0000
1001
0000
0100
0000
0001
1000
,
0100
0000
1000
1000
1000
1000
0000
0001
,
0100
0000
0010
0000
1000
0100
1000
0000
,
0001
0100
0000
0010
1000
0000
0100
0000
,
1000
0000
0001
0000
0100
0010
1000
0000
,
0100
0000
1000
0000
0001
0100
0000
0100
,
0010
1000
0100
1000
,
0001
0100
0000
0100
0010
0000
0010
0000
,
1000
0000
0100
1000
0001
0000
0001
0000
,
0100
0000
0010
1000
0010
0010
1000
0000
,
0100
1000
0001
0100
,
0010
0000
2000
3000
0000
0000
0100
0000
,
1000
0001
0100
0000
0010
0000
1000
0000
,
0100
0000
1000
0001
0010
0000
0100
0000
,
1000
0001
0100
0010
,
1000
0100
1000
0000
0001
0000
0100
0000
,
0010
1000
0100
0010
,
0001
0000
0010
0100
1000
0000
0100
0000
,
1000
0010
0100
0001
,
0010
0000
0100
1000
0100
0000
1000
0000
,
0001
0100
0010
1000
,
0100
0000
1000
0001
0010
0000
0100
0000
,
1000
0001
0100
0010
,
1000
0000
0100
1000
0001
0000
0100
0000
,
0010
1000
0100
0010
,
0001
1001
0110
0010
,
1000
1001
0110
0010
,
1000
1001
0110
0010
,
1000
0000
0100
0000
1000
0000
0001
0100
,
0010
1010
0101
0010
,
1000
1100
1100
0001
,
0100
0110
0110
0010
,
1000
0000
0100
0000
1000
0000
0001
0100
,
0010
1010
0000
0010
,
1000
0000
0100
0000
1000
0000
0001
0100
,
0020
1030
0000
0100
,
1000
0000
0001
0100
0010
0000
0010
1000
,
0100
0000
1001
0000
0000
0000
0010
1000
,
0100
0000
1000
0001
0100
0000
0010
0000
,
1000
0100
0000
0100
,
1000
1001
0010
0100
,
0001
0000
1100
0100
1000
0000
0010
0000
,
1000
0000
0001
0000
0100
0000
0010
1000
,
0001
2002
0000
3003
;

//---------------dance-single - ----------------
#NOTES:
     dance-single:
     :
     Easy:
     4:
     0.291,0.333,0.293,0.071,0.000:
0000
0000
0000
0000
,
0000
0000
0000
0000
,
0000
0000
0000
0000
,
0000
0000
0000
0000
,
2000
3002
0003
0100
,
0010
1000
0100
1000
,
0001
0100
0000
0010
,
1000
0100
1000
0001
,
0110
1001
0000
1000
,
1001
0110
0000
0010
,
0110
1001
0000
0100
,
1000
0010
0100
0001
,
1100
0101
0000
0010
,
1000
0100
1000
0001
,
0100
1001
0000
0010
,
1000
0100
1000
0001
,
0100
1001
0000
0100
,
1000
0010
0100
0010
,
1000
1001
0000
0001
,
1000
0100
1000
0010
,
0100
1001
0000
0100
,
0000
1001
0000
0010
,
1000
0100
1000
0001
,
0100
0110
0000
1001
,
0000
0100
1000
0101
,
0010
1100
1000
0010
,
0100
0001
1000
0100
,
1000
1000
0000
0001
,
0000
0100
0010
1000
,
1000
1000
1000
1000
,
1000
0001
0100
1000
,
1000
1000
1000
1000
,
1000
0100
0010
1000
,
0100
1000
0100
1000
,
0001
0100
0010
1000
,
0100
1000
0001
0100
,
0010
1000
0000
0100
,
1000
0001
0100
0010
,
1000
1001
1001
0100
,
1000
0010
0100
0001
,
0010
1100
1100
0010
,
1000
0001
0100
0010
,
1000
1100
1100
0001
,
0100
0010
1000
0100
,
1000
1001
1001
0010
,
0100
0010
1000
0100
,
0010
0011
0011
0100
,
1000
1010
1010
0010
,
0100
0101
0101
0001
,
0010
0100
1000
0010
,
0100
1001
1001
0100
,
1000
1001
1001
0010
,
0100
0011
0011
0100
,
0000
1000
0000
0001
,
0100
0010
0000
0010
,
0000
1000
0000
0100
,
2000
3001
0000
0010
,
0000
0100
0000
0001
,
2000
3100
0000
1000
,
0000
0001
0000
0100
,
0020
1030
0000
0100
,
2000
3001
0000
0001
,
0200
0310
0010
1000
,
0100
1000
0001
0100
,
0020
0200
0000
0330
;
