#TITLE:Stuck On Replay;
#SUBTITLE:;
#ARTIST:Scooter;
#TITLETRANSLIT:;
#SUBTITLETRANSLIT:;
#ARTISTTRANSLIT:;
#GENRE:;
#CREDIT:;
#BANNER:;
#BACKGROUND:;
#LYRICSPATH:;
#CDTITLE:;
#MUSIC:22-scooter_-_stuck_on_replay-atrium.ogg;
#OFFSET:0.828;
#SAMPLESTART:52.270;
#SAMPLELENGTH:14.980;
#SELECTABLE:YES;
#BPMS:0.000=150.000;
#STOPS:;
#BGCHANGES:;
#KEYSOUNDS:;

//---------------dance-single - ----------------
#NOTES:
     dance-single:
     :
     Hard:
     8:
     0.534,0.583,0.336,0.075,0.590,446.000,45.000,10.000,0.000,0.000,0.000,0.534,0.583,0.336,0.075,0.590,446.000,45.000,10.000,0.000,0.000,0.000:
0000
0000
0000
0000
,
0000
0000
0000
0000
,
0000
0000
0000
0000
,
0000
0000
0000
0000
,
0000
0000
0000
0000
,
0000
0000
0000
0000
,
0000
0000
0000
0000
,
0000
0000
0000
0000
,
0000
0000
0000
0000
,
0000
0000
0000
1000
0000
0000
0001
0000
0000
0100
0000
0010
,
1000
0000
0100
1000
0000
0000
0001
0000
0100
0010
0000
1000
,
0100
0000
0010
0001
0000
0000
0011
0000
0000
1100
0000
0100
,
1000
0000
1000
0001
0000
0000
0001
0000
0100
0001
0000
0001
,
1000
0000
0001
1000
0000
0000
1100
0000
0000
1100
0000
1000
,
0001
0000
0000
0101
0000
0000
0101
0000
0001
0100
0000
0010
,
0100
0000
0001
0100
0000
0010
1000
0000
0100
1000
0000
1000
,
0001
0000
0001
1000
0000
0001
0100
0000
0010
0100
0000
0000
,
0110
0000
0010
1000
0000
1000
0001
0000
0000
1001
0000
0001
,
1000
0000
0000
1001
0000
0000
0110
0000
0010
1000
0000
1000
,
0001
0000
0010
0001
0000
0000
0011
0000
0000
0110
0000
0100
,
1000
0000
0010
1000
0000
0000
1001
0000
0001
1000
0000
0001
,
0100
0000
0001
0100
0010
0100
0010
0000
0000
1010
0000
0010
,
1000
0000
0000
1001
0000
0000
1001
0000
1000
0100
0000
1000
,
0010
0000
0010
0100
0000
0000
0101
0000
0000
0011
0000
0001
,
1000
0000
0010
2000
0000
0000
0001
0000
0000
0010
0000
0000
,
3100
0000
0000
0011
0000
0100
0010
0000
0010
1000
0000
0000
,
0220
0330
0000
0010
0000
1000
0001
0000
0001
0010
0000
0110
,
0002
0003
0000
1001
0000
0001
0100
0000
0010
0100
0000
0000
,
0010
1000
0001
0010
,
0200
0300
0000
0100
0000
1000
0100
0000
0100
0010
0000
0010
,
0001
0000
0001
0100
0000
0100
0010
0000
0010
1000
0000
1000
,
0020
0030
0010
0100
0000
0100
0001
0000
0001
0010
0000
0010
,
0100
0000
0100
1000
0000
1000
0001
0000
0001
0200
0000
0000
,
0320
0000
0030
0000
0010
1000
0010
0000
0000
0000
0010
0000
1000
0000
0000
0000
1000
0000
0100
0000
0000
0000
0100
0000
,
0010
0000
0010
0001
0000
0001
0100
0000
0100
0010
0000
0010
,
1000
0000
1000
0001
0000
0001
1000
0000
1000
0010
0000
0010
,
0100
0000
0010
0100
0000
0010
1000
0000
0001
1000
0000
0010
,
0100
0000
0100
0001
0000
0001
0010
0000
0010
0100
0000
0100
,
1000
0000
0001
1000
0000
0001
1000
0000
1000
0010
0000
0010
,
0100
0000
0100
0010
0000
0010
1000
0000
0001
1000
0000
0010
,
0100
0010
1000
0001
0000
0000
0011
0000
0000
0110
0000
0000
,
1100
0001
0010
0100
,
1000
0001
0100
0010
,
1000
0100
1000
0001
,
0100
0010
1000
0100
,
1000
0001
0100
0010
,
1000
0001
0100
0010
,
1000
0100
0010
0001
,
0100
0010
1000
0001
,
0010
0000
0000
0100
0000
1000
0100
0000
1000
0001
0000
0100
,
0010
0000
0100
0010
0000
1000
0100
0000
1000
0001
0000
0100
,
0010
0000
1000
0001
0000
0010
0100
0000
1000
0001
0000
0100
,
0001
0000
0010
0001
0000
0100
0010
0000
0100
0001
0000
0010
,
0001
0000
1000
0100
0000
1000
0001
0000
0100
1000
0000
0100
,
0010
0000
1000
0010
0000
0100
1000
0000
0100
0010
0000
1000
,
0001
0000
0010
0100
0000
0001
0100
0000
1000
0100
0000
0001
,
0100
0000
0010
0001
0000
0100
0010
0000
1000
0001
0000
1000
,
0100
0000
1000
0001
0000
0000
0110
0000
0000
1001
0000
0100
,
1000
0000
1000
0001
0000
0000
0101
0000
0100
0010
0000
0100
,
0010
0000
1000
0100
0000
0000
1100
0000
0000
1001
0000
0010
,
0100
0000
0100
0010
0000
0000
1001
0000
0100
1000
0000
0001
,
1000
0000
0001
1000
0001
1000
0001
0000
0000
1001
0000
0010
,
0100
0000
0000
0110
0000
0000
1010
0000
0100
1000
0000
1000
,
0001
0000
0001
0100
0000
0000
0110
0000
0000
1001
0000
0100
,
1000
1000
0001
0100
,
0010
0000
0000
1001
0000
0000
0110
0000
0000
1001
0000
0100
,
0001
0000
0000
1000
0000
0000
0100
0000
1000
0001
0000
0001
,
0100
0000
0100
0010
0000
0000
1010
0000
0000
0101
0000
0010
,
0100
0000
0100
0010
0000
0000
1100
0000
0010
0001
0000
0000
,
1010
0000
0000
1100
0100
0010
0001
0000
0000
0100
0000
0100
,
0010
0000
0000
1000
0000
0000
0100
0000
1000
0001
0000
0001
,
0100
0000
0100
0010
0000
0000
1010
0000
0000
0100
0000
1000
,
0001
0000
0001
0100
0000
0000
0100
0000
0000
0010
0000
0000
,
1000
0001
0100
0010
,
1000
0100
1000
0001
,
0100
0010
1000
0100
,
1000
0001
0100
0010
,
1000
0100
1000
0001
,
0100
0010
1000
0001
,
1000
0100
1000
0010
,
0100
0000
0000
0001
0000
0000
1000
0000
0001
1000
0000
0000
,
0001
0000
2000
0000
0000
0002
0000
0000
0000
0000
0000
0000
,
0000
3003
0000
0000
;

//---------------dance-single - ----------------
#NOTES:
     dance-single:
     :
     Medium:
     6:
     0.357,0.395,0.157,0.015,0.000,312.000,21.000,2.000,0.000,0.000,0.000,0.357,0.395,0.157,0.015,0.000,312.000,21.000,2.000,0.000,0.000,0.000:
0000
0000
0000
0000
,
0000
0000
0000
0000
,
0000
0000
0000
0000
,
0000
0000
0000
0000
,
0000
0000
0000
0000
,
0000
0000
0000
0000
,
0000
0000
0000
0000
,
0000
0000
0000
0000
,
0000
0000
0000
0000
,
0000
0100
0010
0100
,
0010
1000
0100
0010
,
0001
0100
0001
0000
0100
0000
0010
0000
,
1000
0100
1000
0000
0001
0000
0100
0000
,
0010
0100
0010
1000
,
0010
0000
0100
0000
0010
0000
1000
0001
,
0100
0010
1000
0100
,
1000
0001
0100
0010
,
1000
0001
0101
0001
,
1000
0000
0100
0000
1000
0000
0010
0100
,
0010
0000
1000
0000
0001
0000
0010
0001
,
0010
0000
0001
0000
0100
0000
0010
0100
,
0010
0000
1000
0010
0010
0000
0100
0000
,
0010
1000
0100
0010
,
0001
0100
1000
0100
,
0010
1000
0001
0010
,
0100
1000
0001
1000
,
0001
0000
0100
0001
0100
0000
0001
0000
,
0200
0310
1000
1100
,
0001
0100
0010
1000
,
0001
0000
0001
0100
0001
0000
0001
0100
,
0001
0000
0001
0100
0001
0000
1000
0000
,
0100
0000
1000
0100
1000
0000
1000
0100
,
1000
0000
1000
0100
1000
0000
0010
0000
,
0100
0110
1001
0110
,
1001
0010
1001
0110
,
1001
0100
1001
0001
,
0100
0110
1001
0110
,
1001
0100
1001
0100
,
1001
0010
0101
1010
,
1100
0001
0100
0010
,
0100
0010
1000
0100
,
1000
0001
0100
0010
,
1000
0100
0010
0001
,
0100
0010
0100
0010
,
1000
0100
0010
0001
,
0100
0010
1000
0001
,
0100
0010
1000
0100
,
0010
0001
0100
0010
,
1000
0001
0100
0010
,
1000
1001
0001
0001
,
0001
0001
0001
0001
,
0001
1000
1000
1000
,
1000
1000
1000
1000
,
1000
0010
0010
0010
,
0010
0010
0010
0010
,
0010
0100
0100
0100
,
0100
0100
0100
0100
,
0100
0210
0010
0010
,
0310
1000
1000
1000
,
0001
0100
0010
1000
,
0100
1000
0001
0100
,
0010
0000
0010
1000
0010
0000
0100
0000
,
0010
0000
1000
0000
0100
0000
0010
0001
,
0010
0001
0100
0010
,
1000
0001
0100
0010
,
1000
0000
0010
0100
0010
0000
1000
0000
,
0100
0000
1000
0000
0001
0000
0100
0001
,
0100
0010
1000
0100
,
0010
0001
0100
0010
,
1000
0000
0010
0100
0010
0000
1000
0000
,
0100
0010
0001
0100
,
0010
0000
1000
0010
1000
0000
0010
0100
,
0010
0000
0100
0001
0100
0000
0001
0000
,
0010
0100
1000
0001
,
0100
0010
1000
0100
,
1000
0001
0100
0001
,
0010
0100
1000
0001
,
0100
0010
1000
0100
,
1000
0001
0100
0010
,
1000
0100
1000
0001
,
0100
0010
1000
0001
,
1000
0001
0000
1000
0000
0000
0000
0000
;

//---------------dance-single - ----------------
#NOTES:
     dance-single:
     :
     Easy:
     3:
     0.270,0.367,0.246,0.052,0.000,213.000,33.000,7.000,0.000,0.000,0.000,0.270,0.367,0.246,0.052,0.000,213.000,33.000,7.000,0.000,0.000,0.000:
0000
0000
0000
0000
,
0000
0000
0000
0000
,
0000
0000
0000
0000
,
0000
0000
0000
0000
,
0000
0000
0000
0000
,
0000
0000
0000
0000
,
0000
0000
0000
0000
,
0000
0000
0000
0000
,
0000
0000
0000
0000
,
0000
1000
0001
1000
,
0000
1000
0001
0100
,
0000
0010
0100
0010
,
0000
0010
1000
0010
,
0000
0100
0010
0100
,
0000
0001
0100
0001
,
0000
1000
0100
1000
,
0000
0010
0100
0010
,
0000
0010
0010
0010
,
0000
0010
1000
0100
,
0000
1000
0001
0101
,
0000
0010
1000
1001
,
0000
0001
0100
0101
,
0000
0010
1000
1100
,
0000
1000
0001
1001
,
0000
0001
0100
0101
,
0000
0001
1000
0001
,
0000
1000
0001
1000
,
1001
0001
1000
0001
,
0000
0100
0010
0100
,
0000
0010
1000
0001
,
0000
0100
0010
1000
,
0000
0001
0010
0100
,
0000
1000
0001
0100
,
0000
1001
1001
1001
,
1001
0100
0100
0100
,
0100
1001
1001
1001
,
0100
0100
0100
0100
,
0100
1001
0100
1001
,
0100
1001
1001
1001
,
1001
0100
0100
0100
,
0100
1001
1001
1001
,
1001
0010
0000
0100
,
0000
0010
0000
1000
,
0000
0100
0010
0001
,
0000
0100
0001
0100
,
0000
0010
1000
0010
,
0000
0010
0100
0010
,
0000
0010
1000
0001
,
0000
0001
0010
0100
,
0000
1001
1001
1001
,
0000
1001
1001
1001
,
0000
0001
0000
1000
,
0000
0001
0000
0100
,
0000
0010
0000
1000
,
0100
1000
0000
0001
,
0000
0100
0010
1000
,
0001
0010
0000
0100
,
0000
2000
0001
0001
,
3001
0200
0010
0010
,
0310
2000
0001
0001
,
3001
0002
0100
0100
,
0203
0310
0010
0010
,
0000
1000
0000
0100
,
0010
0001
0000
0100
,
0000
0010
0000
1000
,
0000
0001
1000
0001
,
0000
1000
0100
1000
,
0000
0010
0000
0100
,
0000
0010
1000
0001
,
0000
1001
0000
1001
,
0000
0001
0100
0010
,
0000
1000
0100
1000
,
0000
0001
0100
0001
,
0000
1000
0000
0010
,
0000
0100
0000
0010
,
0000
1000
0000
0100
,
0000
0010
0000
0001
,
0000
0100
0000
0010
,
0000
1000
0000
0001
,
0000
0010
0000
0100
,
0000
1000
0000
0001
,
0000
2002
0000
0000
,
3003
0000
0000
0000
;
