#TITLE:Rude Boy;
#SUBTITLE:;
#ARTIST:Rihanna;
#TITLETRANSLIT:;
#SUBTITLETRANSLIT:;
#ARTISTTRANSLIT:;
#GENRE:;
#CREDIT:;
#BANNER:;
#BACKGROUND:;
#LYRICSPATH:;
#CDTITLE:;
#MUSIC:Rude Boy.ogg;
#OFFSET:-0.007;
#SAMPLESTART:12.330;
#SAMPLELENGTH:13.160;
#SELECTABLE:YES;
#BPMS:0.000=174.000;
#STOPS:;
#BGCHANGES:;
#KEYSOUNDS:;

//---------------dance-single - ----------------
#NOTES:
     dance-single:
     :
     Hard:
     8:
     0.684,0.616,0.344,0.980,0.000,463.000,46.000,131.000,0.000,8.000,0.000,0.684,0.616,0.344,0.980,0.000,463.000,46.000,131.000,0.000,8.000,0.000:
0000
0000
0000
0000
,
1000
0001
0100
0000
0110
0000
1001
0000
,
0001
0100
0010
1000
0020
0000
0030
0000
,
0010
1000
0001
0000
0110
0000
1001
0000
,
1000
0100
0010
0001
0200
0000
0320
0000
,
1030
0002
0103
0020
,
0130
0200
0301
0002
,
1003
2000
3100
0020
,
0032
0203
0320
1030
,
0100
0010
0001
0000
1001
0000
0110
0000
,
0010
1000
0001
0100
0020
0000
0030
0000
,
1000
0001
0010
0000
0011
0000
1100
0000
,
1000
0001
0100
0010
0200
0000
0320
0000
,
1030
2000
3001
0002
,
0013
0020
0130
0200
,
1300
2000
3010
0020
,
0230
0302
0023
0130
,
0000
0100
2000
0000
3001
0100
0010
1000
,
0001
0010
0200
0000
0310
0000
0000
0000
,
0000
0001
1000
0000
0010
0100
0010
1000
,
0001
0010
0200
0000
1300
0000
1001
0000
,
0002
0000
0103
0000
0010
0100
0010
1000
,
0001
1000
0020
0000
0130
0000
1001
0000
,
0001
0010
0100
0000
1000
0010
0100
0000
,
0010
0100
0001
0000
1001
0000
0000
0000
,
0020
0000
1030
0000
0001
0010
0100
0010
,
0001
2000
3010
0110
,
0020
0000
1030
0000
1000
0001
0100
0010
,
0100
0010
2000
0000
3001
0000
0110
0000
,
0020
0000
0130
0000
1000
0100
0010
0001
,
1000
0010
0200
0000
0310
0000
1000
0010
,
0100
0001
0020
0000
0230
0000
0300
0000
,
0010
0001
0100
0010
1000
0000
1001
0000
,
1001
0000
1001
0000
1000
0001
0101
0000
,
0101
0000
0101
0000
0000
0000
0001
0010
,
0100
1000
0001
1000
0001
0000
0101
0000
,
1010
0000
0101
0000
0001
0010
0110
0000
,
0110
0000
0110
0010
0001
0100
0110
0000
,
0110
0110
2000
0002
,
0000
0000
0020
0030
,
0020
0030
0020
0030
0020
3033
0000
0000
,
0001
0010
0100
0000
0110
0000
0011
0000
,
0001
0100
0010
1000
0020
0000
0030
0000
,
0010
1000
0001
0000
0011
0000
0011
0000
,
0001
0010
0100
1000
0200
0000
0320
0000
,
0031
0002
0103
0200
,
0310
0020
1030
2000
,
3001
0002
0013
0020
,
0230
2300
3002
1003
,
0001
0100
0010
0000
1010
0000
1010
0000
,
1000
0001
0010
0100
0020
0000
0030
0000
,
0001
0100
0010
0000
0110
0000
0110
0000
,
0100
0001
0010
0100
2000
0000
3002
0000
,
0103
0200
0310
0020
,
1030
2000
3010
0020
,
0130
0200
0301
0002
,
0023
0230
2300
3000
,
0002
0000
0103
0000
0010
1000
0010
0100
,
0010
1000
0002
0000
0013
0000
0110
0000
,
0020
0000
0130
0000
1000
0100
0010
0001
,
1000
0001
0200
0000
0000
0000
0300
0000
,
0020
0000
1030
0000
0001
1000
0010
0100
,
0010
1000
0002
0000
0013
0000
0010
0010
,
0001
0001
1000
1000
0010
0010
0100
0100
,
0010
0010
0200
0000
0000
0000
0310
0000
,
1000
0010
0200
0000
0310
1000
0001
0010
,
0100
1000
0200
0000
0320
0000
0030
0000
,
0002
0000
1003
0000
0010
0100
0001
0010
,
0100
1000
0200
0000
1300
0000
1100
0000
,
0020
0000
0031
0000
0001
0100
0010
0100
,
0001
0010
0200
0000
2300
0000
3001
0010
,
0100
1000
0002
0000
0203
0000
0320
0000
,
2030
0000
0000
0000
3001
0000
0010
0000
0100
0000
1000
0000
0200
0000
0000
0300
,
0200
0000
0000
0300
0200
0000
0000
0300
0010
0000
0001
0000
2000
0000
0000
3000
,
2000
0000
0000
3000
2000
0000
0000
3000
0000
0000
0000
0000
0001
0000
0100
0000
,
0010
0000
1000
0000
0001
0000
0010
0000
0100
0000
0000
0000
2000
0000
0000
3000
,
2000
0000
0000
3000
2000
0000
0000
3000
0001
0000
0100
0000
0002
0000
0000
0003
,
0002
0000
0000
0003
0002
0000
0010
0003
0100
0000
1000
0000
0200
0000
0000
0300
,
0200
0000
0000
0300
0200
0000
0000
0300
0020
0000
0000
0000
0200
0000
0000
0000
,
0000
0000
0002
0003
,
0002
0003
0002
0003
0002
0003
0330
0000
,
0010
0100
0010
0000
0011
0000
1100
0000
,
1000
0001
0100
0001
0020
0000
0030
0000
,
0100
1000
0001
0000
0101
0000
1010
0000
,
0010
1000
0001
0010
0200
0000
2300
0000
,
3001
2000
3010
2000
,
3100
2000
3001
0002
,
0103
0002
0013
0002
,
0203
0320
2030
3001
,
1000
0001
1000
0000
1010
0000
1010
0000
,
0100
0001
0010
0100
2000
0000
3001
0000
,
0001
0100
0010
0000
0110
0000
0110
0000
,
0010
1000
0001
0010
0200
0000
2300
0000
,
3001
0002
0103
0002
,
0013
0002
1003
0020
,
0130
0020
1030
0020
,
2030
3002
0023
0030
;

//---------------dance-single - ----------------
#NOTES:
     dance-single:
     :
     Medium:
     6:
     0.478,0.507,0.629,0.060,0.000,355.000,84.000,8.000,0.000,0.000,0.000,0.478,0.507,0.629,0.060,0.000,355.000,84.000,8.000,0.000,0.000,0.000:
0000
0000
0000
0000
,
1000
0010
0100
0010
,
1000
0100
1000
0000
,
0001
1000
0001
0100
,
0010
1000
0100
1000
,
1000
0001
0001
0100
,
0100
0010
0010
1000
,
1000
0100
0100
0010
,
0001
0100
0010
0000
,
0010
1000
0100
1000
,
0001
0100
0001
0000
,
0001
0010
0100
1000
,
0001
0100
0001
0100
,
0010
1000
0100
0010
,
0001
0100
0010
0100
,
0010
1000
0100
0010
,
0001
0100
0010
0000
,
0000
0100
0001
0000
1000
0000
0100
0000
,
1000
0001
0100
0000
,
0000
0010
1000
0000
0100
0000
1000
0000
,
0100
1000
0001
0000
,
0001
0100
0010
1000
,
0100
1000
0001
0000
,
0001
0010
0000
0000
1000
0010
0000
0000
,
1000
0001
0000
0000
0110
0000
0000
0000
,
0010
1000
0100
1000
,
0001
0100
0010
0000
,
0010
1000
0100
1000
,
0001
0100
0010
0000
,
0010
1000
0100
0010
,
0001
0100
0010
0110
,
1001
0110
1001
0000
,
0100
1000
0001
0101
,
0101
0101
0010
1010
,
1010
1010
0000
0010
,
0100
0001
0010
1100
,
0011
1100
0000
1010
,
1010
1010
0010
0100
,
0101
0101
0010
2000
,
0000
0000
0100
0000
,
0100
0100
3100
0000
,
1000
0001
0100
0010
,
1000
0001
0101
0000
,
0010
1000
0100
0010
,
0001
0100
0010
0110
,
0010
1010
0001
0101
,
0001
1100
0100
1010
,
0010
0110
0010
0110
,
0011
1100
0101
0000
,
0010
1000
0100
0010
,
0001
0100
0110
0000
,
0010
1000
0100
0010
,
0001
0100
0110
0010
,
1100
0100
1001
0001
,
0110
0010
1100
0001
,
0101
0010
1100
0001
,
0100
0010
1000
0000
,
0100
1000
0001
0100
,
0001
0010
0100
0000
,
0100
1000
0001
0100
,
0010
2000
0000
3000
,
0001
0100
0010
1000
,
0100
0000
0010
0000
0001
0000
0001
0100
,
0001
0100
0001
0100
0001
0100
0001
0100
,
0001
0100
0001
0000
0000
0000
0001
0000
,
1000
0100
1000
0010
,
0100
0010
1010
0000
,
0010
0100
0001
0010
,
0100
1100
1100
0000
,
1000
0001
0100
0010
,
1000
0100
1100
0001
,
0100
0110
1001
1100
,
0101
0010
1000
1010
,
1010
1010
0001
0101
,
0101
0101
0000
0010
,
1000
0100
0010
0011
,
1100
0011
0001
0110
,
0110
0110
0010
1010
,
1010
0000
1010
0000
0020
0000
0200
0030
,
0000
0000
0000
0000
0002
0300
0000
0000
,
2003
3200
0320
0030
,
0001
0100
0010
1000
,
0010
0100
0110
0000
,
0010
1000
0001
0010
,
0100
1000
1001
0001
,
0101
0010
0110
0010
,
1100
0001
1001
0001
,
0101
0010
0110
1010
,
0101
0011
1100
0000
,
1000
0001
0100
0010
,
1000
0100
0011
0000
,
0001
0100
0010
1000
,
0100
0010
0011
0001
,
0110
0010
1100
0001
,
0101
0010
1100
0001
,
0011
0001
0110
0010
,
1100
0101
1010
0001
;

//---------------dance-single - ----------------
#NOTES:
     dance-single:
     :
     Easy:
     3:
     0.253,0.217,0.007,0.022,0.000,233.000,1.000,3.000,0.000,0.000,0.000,0.253,0.217,0.007,0.022,0.000,233.000,1.000,3.000,0.000,0.000,0.000:
0000
0000
0000
0000
,
1000
0000
1000
0001
,
0000
1000
0000
0000
,
0000
0001
1000
0001
,
0000
0001
0000
1000
,
0000
0010
0000
0100
,
0000
0010
0000
1000
,
0000
0100
0000
0010
,
0001
0010
0001
0000
,
1000
1000
0000
0001
,
0000
0100
0010
0000
,
0010
0010
0000
1000
,
0000
0001
1000
0001
,
0000
0001
0000
0100
,
0000
0010
0000
1000
,
0000
0100
0000
0010
,
0000
0001
0100
0000
,
0010
1000
0000
0100
,
0000
1000
0000
0000
,
0001
0100
0000
0010
,
0000
1000
0000
0000
,
0010
0100
0000
0010
,
0000
1000
0000
0001
,
0000
0100
0000
0010
,
0000
1000
0100
0000
,
1000
0001
0000
0100
,
0000
0010
0000
0000
,
0010
0100
0000
0010
,
0000
1001
0000
0000
,
0010
0100
0000
0001
,
0000
1000
0100
1000
,
0000
0001
0100
0001
,
0000
1000
0000
0100
,
0100
0100
0000
0010
,
0010
0010
0000
1000
,
0000
0001
0000
1000
,
1000
1000
0000
0001
,
0000
0100
0000
0010
,
0010
0010
0000
0020
,
0000
0000
0200
0000
,
0300
0200
0000
0330
,
0010
1000
0000
0010
,
0000
0100
0010
0000
,
0010
1000
0000
0001
,
0000
1000
0001
0100
,
0000
0010
0000
1000
,
0000
0001
0000
0010
,
0000
0100
0000
1000
,
0001
0100
0000
0100
,
0000
0010
0000
1000
,
0000
0001
1000
0000
,
1000
0001
0000
0100
,
0000
0010
0100
0010
,
0000
1000
0000
1000
,
0000
0100
0000
0010
,
0000
0001
0000
0100
,
0010
0100
0010
0000
,
0010
1000
0000
0100
,
0000
1000
0001
0000
,
0100
0010
0000
1000
,
0000
0010
1000
0000
,
0010
0100
0000
0010
,
0000
1000
0000
0001
,
1000
0001
1000
0001
,
1000
0001
0000
1000
,
0000
0010
0000
0100
,
0010
0100
0000
0010
,
0000
1000
0000
0100
,
0100
0100
0000
1000
,
0000
0001
0000
0100
,
0100
0100
0000
0100
,
0100
0100
0000
0100
,
0000
0100
0000
0010
,
0010
0010
0000
1000
,
1000
1000
0000
0001
,
0000
1000
0000
0010
,
0010
0010
0000
0100
,
0100
0100
0000
0001
,
0001
0001
0000
0010
,
0000
0000
0100
0000
,
0010
0010
0010
0000
,
0010
1000
0000
0010
,
0000
0100
0010
0000
,
0010
1000
0000
0001
,
0000
0010
0001
0100
,
0000
0010
0000
1000
,
0000
0100
0000
0010
,
0000
0001
0000
0100
,
0100
0100
0100
0000
,
0010
1000
0000
0100
,
0000
1000
0001
0000
,
0100
0010
0000
1000
,
0000
0100
1000
0001
,
0000
0100
0000
0010
,
0000
1000
0000
0100
,
0000
1000
0000
0001
,
0100
0001
0100
0000
;
