#TITLE:Rock That Body;
#SUBTITLE:;
#ARTIST:Black Eyed Peas;
#TITLETRANSLIT:;
#SUBTITLETRANSLIT:;
#ARTISTTRANSLIT:;
#GENRE:;
#CREDIT:;
#BANNER:;
#BACKGROUND:;
#LYRICSPATH:;
#CDTITLE:;
#MUSIC:102 Black Eyed Peas - Rock That Body.ogg;
#OFFSET:0.395;
#DISPLAYBPM:125.000;
#SAMPLESTART:37.990;
#SAMPLELENGTH:13.140;
#SELECTABLE:YES;
#BPMS:0.000=125.000,269.000=250.000,273.000=125.000;
#STOPS:269.000=0.120
,269.500=0.120
,270.000=0.120
,270.500=0.120
,271.000=0.120
,271.500=0.120
,272.000=0.120
,272.500=0.120
;
#BGCHANGES:;
#KEYSOUNDS:;

//---------------dance-single - ----------------
#NOTES:
     dance-single:
     :
     Hard:
     8:
     0.502,0.449,0.226,0.292,0.142,411.000,31.000,40.000,0.000,0.000,0.000,0.502,0.449,0.226,0.292,0.142,411.000,31.000,40.000,0.000,0.000,0.000:
0000
0000
0000
0000
,
0000
0000
0000
0000
,
0000
0000
0000
0000
,
0000
0000
0000
0000
,
1000
0001
0200
0000
0320
0000
0230
0000
,
0320
0230
0320
0230
,
0320
0100
0032
0000
2003
0000
3002
0000
,
2003
3002
2003
3002
,
2003
0001
3001
0100
0010
1000
0001
0000
,
0001
0001
0001
0100
0010
1000
0001
0000
,
0010
0010
0010
0100
1000
0001
0100
0000
,
0110
0000
1001
0000
0110
0010
1000
0000
,
0100
0100
0100
0010
0001
0100
0010
0000
,
0010
0010
0010
1000
0001
0010
0100
0000
,
0100
0100
0100
1000
0002
0000
0203
0000
,
0000
0320
0000
0000
,
1030
0001
0010
0010
0001
1000
0100
0010
,
0001
0010
0100
1000
0001
0100
0000
0000
,
0110
0110
0000
0010
1000
0001
0010
0100
,
0010
0001
2000
0000
3002
0000
0203
0000
,
0320
0000
0030
1000
0001
0010
0100
0010
,
0001
0100
0010
1000
0001
0200
0300
0000
,
1001
1001
0000
0001
0100
0010
1000
0001
,
0020
0032
0203
0320
,
2030
0000
3001
0100
0010
1000
0000
1000
,
0001
0001
0100
0010
1000
0001
0011
0010
,
0100
1000
0001
0100
0010
1000
0000
0001
,
1000
1000
0110
0000
1001
0000
0110
0000
,
1001
0000
0001
0010
0001
0010
0000
0001
,
0100
0010
0100
0010
1000
0001
0011
0010
,
0100
0010
0001
1000
0010
0100
0000
0010
,
0100
0001
1010
0000
0101
0000
0011
0000
,
1100
0000
0100
0000
2000
0000
0000
0000
3001
0000
0000
0000
0001
0000
0000
0100
,
0010
0000
0000
1000
0002
0000
0000
0000
1003
0000
0000
0000
0001
0000
0000
1000
,
0001
0000
0000
0001
1000
0000
0000
1000
0001
0000
0000
0000
0001
0000
0100
0000
,
0010
0000
0000
0010
1000
0000
0000
1000
0001
0000
0000
0001
0100
0000
0000
0010
,
0100
0000
0000
0010
0100
0000
0000
0001
0010
0000
0000
0000
0100
0000
1000
0000
,
0001
0000
0000
0001
0100
0000
0000
0010
0100
0000
0000
0000
0010
0000
0000
1000
,
0001
0000
0000
0001
0010
0000
0000
0010
0100
0000
0000
0010
0100
0000
0000
0010
,
0001
0000
0000
0001
1000
0000
0000
0001
1000
0000
0000
1000
0001
0000
0000
0001
,
1000
0000
0000
0001
0100
0000
0000
0010
0100
0000
0000
0000
0010
0000
0000
1000
,
0001
0000
1000
0000
0001
0000
0000
0010
0001
0000
0000
0000
1000
0000
0000
0010
,
0100
0000
0010
0000
1000
0000
0000
0100
1000
0000
0000
0000
0001
0000
0000
0100
,
0010
0000
1000
0000
0001
0000
0000
0001
0010
0000
0000
0000
0010
0000
0000
0010
,
0100
0000
0000
0100
1000
0000
0000
1000
0001
0000
0000
0000
0001
0000
0000
0001
,
0100
0000
0000
0100
0010
0000
0000
0010
1000
0000
0000
0000
0100
0000
0010
0000
,
0001
0000
1000
0000
0010
0000
0100
0000
0010
0000
0000
0000
0010
0000
0000
1000
,
0010
0000
0100
0000
0010
0000
0000
1000
0001
0000
0000
0000
0010
0000
0000
1000
,
0001
0001
0001
0010
0100
1000
0001
0000
,
1000
1000
1000
0010
0100
0001
0010
0000
,
0100
0100
0100
0010
0002
0000
0203
0000
,
0000
0320
0000
0000
,
1030
0100
0010
0001
0100
1000
0100
0001
,
0010
0100
0010
0001
0100
0010
0000
0000
,
0110
0110
0010
1000
0001
0010
0100
1000
,
0001
0100
0110
0000
1001
0000
0110
0000
,
1001
0000
0000
1000
0001
0010
0100
0010
,
0001
0100
0010
1000
0001
0200
0000
0300
,
1001
1001
0001
0100
0010
1000
0001
0010
,
0200
2300
3002
0203
,
0320
0000
1030
0001
0100
0010
0000
1000
,
1000
0001
0010
0100
1000
0001
0101
0010
,
0100
0010
1000
0100
1000
0100
0000
0010
,
0010
0001
1001
0000
0110
0000
1001
0000
,
0110
0000
0010
1000
0001
0010
0000
0010
,
0010
0100
1000
0001
0100
0010
1000
0001
,
0100
0010
1000
0100
0001
0100
0000
1000
,
1000
0001
1000
1000
0001
0001
1000
1000
,
0001
0001
0110
0010
0100
0000
0000
0000
;

//---------------dance-single - ----------------
#NOTES:
     dance-single:
     :
     Challenge:
     12:
     1.000,0.918,0.073,0.270,1.000,990.000,10.000,37.000,0.000,0.000,0.000,1.000,0.918,0.073,0.270,1.000,990.000,10.000,37.000,0.000,0.000,0.000:
0000
0000
0000
0000
,
0000
0000
0000
0000
,
0000
0000
0000
0000
,
0000
0000
0000
0000
,
1000
0001
1000
0001
1000
0001
1000
0001
1000
0000
0010
0000
0100
0000
0010
0000
1000
0000
0001
0000
1000
0000
0100
0000
0010
0000
0001
0000
1000
0000
0010
0000
,
0100
0010
0100
0001
1000
0100
0010
0001
1000
0010
0100
0010
1000
0001
1000
0010
,
0200
0310
2000
3100
1000
0100
1000
0001
0100
0010
0100
0010
1000
0001
0010
0100
,
1000
0001
0100
0010
0100
0001
0100
0010
0100
0010
1000
0100
0010
0100
1000
0001
,
0200
0310
2000
3100
2000
3100
1000
0010
0100
0010
0100
0001
1000
0010
1000
0001
,
0100
0010
1000
0001
0010
0100
1000
0001
0100
0010
0100
0010
1000
0001
0010
0001
,
2000
3100
2000
3001
0100
0010
0100
0001
1000
0001
1000
0100
1000
0001
0100
0001
,
1000
0100
1000
0001
0100
0010
0100
0001
1000
0100
0010
0001
1000
0010
0100
0001
,
0100
0010
1000
0010
1000
0001
0100
0010
1000
0100
1000
0001
1000
0010
0100
0010
,
1000
0010
1000
0001
0010
0001
1000
0100
1000
0001
0100
0010
0100
0010
1000
0001
,
0020
0031
2000
3100
1000
0001
0100
0010
0100
0010
1000
0001
0010
0001
1000
0100
,
1000
0001
0100
0010
0200
0000
0000
0000
0010
0000
0010
0000
0000
0001
0000
0000
,
1300
0010
1000
0010
1000
0001
1000
0100
0010
0100
0010
0001
1000
0001
0100
0010
,
0100
0010
0100
0001
1000
0100
1000
0001
0100
0010
0100
0010
1000
0001
1000
0010
,
0200
0301
0200
0310
1000
0100
1000
0001
0100
0010
1000
0010
1000
0001
0100
0010
,
0100
0010
0100
0010
1000
0010
1000
0010
0100
0010
0100
0010
1000
0010
1000
0010
,
0100
0010
0100
0010
1000
0010
1000
0100
1000
0001
0100
0010
0100
0010
1000
0001
,
0010
0001
1000
0100
1000
0001
0100
0010
0100
0010
1000
0001
0010
0001
1000
0100
,
2000
3001
0200
0301
0100
0010
1000
0010
1000
0001
0010
0001
1000
0100
1000
0001
,
0100
0010
0100
0010
1000
0010
1000
0010
0100
0010
0100
0010
1000
0010
1000
0010
,
0100
0010
0100
0010
1000
0100
1000
0100
1000
0001
0100
0010
0100
0001
1000
0010
,
1000
0001
0100
0010
1000
0001
0010
0001
1000
0100
1000
0001
0100
0010
1000
0001
,
2000
3010
0200
0310
1000
0001
0010
0100
1000
0001
0100
0010
1000
0001
1000
0010
,
0100
0001
1000
0010
0100
0010
0100
0010
1000
0010
1000
0010
0100
0010
0100
0010
,
1000
0010
1000
0010
1000
0010
1000
0001
1000
0100
1000
0001
1000
0010
0100
0001
,
0100
0010
1000
0001
0010
0100
1000
0001
0100
0010
1000
0001
0010
0100
1000
0001
,
0200
0310
2000
3001
0010
0100
1000
0001
0100
0010
1000
0001
0010
0100
1000
0001
,
0100
0010
1000
0001
0010
0100
1000
0001
2000
3000
0001
0000
0000
0100
0000
0000
,
0010
0100
0010
0100
0010
1000
0010
0100
0010
0100
0001
1000
0010
1000
0001
0010
,
0100
0010
0100
1000
0001
0100
0010
1000
0010
0100
0010
0100
0001
1000
0010
0100
,
0001
1000
0010
0100
0001
1000
0100
0010
0001
1000
0010
0100
0001
1000
0100
0010
,
0001
1000
0010
0100
0010
0100
0001
1000
0100
1000
0001
0010
0100
1000
0001
0010
,
0001
1000
0100
0010
0001
1000
0001
0010
0001
0100
0010
0100
0001
0100
0001
0100
,
0010
0100
0001
0100
0001
1000
0010
0100
0001
1000
0010
0100
0010
1000
0010
0100
,
0010
1000
0010
0100
0001
0100
0001
0010
0001
1000
0010
0100
0001
1000
0100
0010
,
0001
1000
0010
0100
0010
0000
0000
0000
2000
3000
0100
0000
0000
0010
0000
0000
,
0010
0001
0010
0001
0010
0100
0010
0100
1000
0001
0100
0010
0100
0010
1000
0001
,
0010
0001
1000
0010
0100
0001
0100
0001
1000
0010
0100
0010
0100
0001
0010
0001
,
0010
0001
1000
0010
0100
0010
0100
0001
0010
0001
1000
0010
0100
0010
0100
0001
,
1000
0001
0010
0001
1000
0010
0100
0010
0100
0001
1000
0100
0010
0001
1000
0010
,
1000
0010
0100
0010
0100
0001
0010
0100
1000
0001
0100
0010
1000
0001
0100
0001
,
1000
0010
0100
0001
1000
0100
1000
0001
0010
0001
1000
0010
0100
0010
0100
0001
,
2000
3100
0020
0031
1000
0010
0100
0001
1000
0100
0010
0001
1000
0010
0100
0001
,
1000
0100
0010
0001
1000
0100
1000
0100
1000
0100
1000
0100
1000
0100
1000
0100
,
2000
0000
0000
0000
3100
0010
0001
0100
0010
0100
0010
1000
0100
1000
0001
0100
,
0010
1000
0010
1000
0001
0010
0100
1000
0001
0100
0020
0130
0010
1000
0001
0010
,
0200
1300
0002
0103
0010
1000
0001
0010
0100
1000
0001
0100
0010
1000
0001
1000
,
0010
0100
0001
1000
0002
0000
0000
0000
1000
0000
0100
0000
0000
0010
0000
0000
,
0013
0100
0010
0100
0010
0001
0100
0010
0100
0010
0100
0001
0010
0001
1000
0010
,
0100
0001
0100
0001
1000
0010
0100
0001
0100
0001
1000
0100
0010
0001
1000
0010
,
0200
0301
0200
0301
1000
0010
0100
0001
0100
0001
1000
0001
0010
0001
1000
0010
,
0100
0001
0010
0001
0010
0001
1000
0010
0100
0010
0100
0001
1000
0001
0010
0001
,
0010
0001
1000
0010
0100
0010
0100
0001
1000
0100
0010
0001
1000
0010
0100
0010
,
1000
0100
1000
0010
0100
0001
0010
0001
1000
0010
0100
0001
0010
0001
1000
0010
,
0200
0301
0200
0301
0010
0001
1000
0010
0100
0001
1000
0100
0010
0001
1000
0010
,
0100
0001
1000
0001
0010
0000
0000
0000
0200
0300
0010
0000
0000
0110
0000
0000
,
0010
0001
0010
0001
0010
0001
0100
0010
0100
0010
1000
0100
1000
0001
0100
0010
,
1000
0010
1000
0001
0100
0010
1000
0100
0010
0001
0100
0010
1000
0100
0010
0001
,
0200
0310
2000
3100
0010
0001
0100
0010
1000
0010
0100
0001
1000
0010
0100
0001
,
1000
0010
0100
0001
1000
0010
0100
0010
1000
0001
0100
0010
1000
0100
1000
0001
,
0100
0010
0100
0001
0010
0100
1000
0010
0100
0001
0010
0100
1000
0010
0100
0001
,
0100
0001
1000
0010
0100
0001
0010
0100
1000
0010
0100
0001
0010
0001
1000
0010
,
0200
0310
2000
3100
1000
0001
0010
0001
1000
0010
0100
0001
1000
0001
0100
0010
,
1000
0010
0100
0000
1001
0000
0110
0000
1001
0000
0110
0000
1001
0000
0110
0000
,
1001
0000
0110
0000
1001
0000
0001
0000
0100
0000
0000
0000
0010
0100
0001
0000
,
2000
0000
0000
0000
,
3000
0000
0000
0000
;

//---------------dance-single - ----------------
#NOTES:
     dance-single:
     :
     Medium:
     6:
     0.350,0.398,0.292,0.168,0.000,273.000,40.000,23.000,0.000,0.000,0.000,0.350,0.398,0.292,0.168,0.000,273.000,40.000,23.000,0.000,0.000,0.000:
0000
0000
0000
0000
,
0000
0000
0000
0000
,
0000
0000
0000
0000
,
0000
0000
0000
0000
,
2000
3002
0203
0320
,
2030
3200
2300
3002
,
0203
0320
2030
3200
,
2300
3002
0203
0320
,
2030
3100
1000
0001
,
0100
0000
0010
0000
1000
0100
1000
0000
,
0001
0000
0100
0000
0010
0100
0010
0000
,
1000
0000
0100
0000
1000
0001
0100
0000
,
0010
0000
1000
0000
0100
1000
0100
0000
,
1000
0000
0001
0000
0100
0001
0100
0000
,
0010
1000
0002
0203
,
0000
0320
0000
0000
,
1030
0010
0100
0010
,
1000
0100
1000
0001
,
0100
0010
1000
0100
,
1000
1010
0101
0011
,
1100
1000
0010
0100
,
0001
0010
0100
1000
,
0001
0100
0010
0000
1000
0000
0100
0000
,
1000
0101
1010
1100
,
0011
0000
0010
0001
0100
0000
0010
0000
,
1000
0000
0100
1000
0001
0000
0100
0000
,
0010
0000
1000
0001
0100
0000
0010
0000
,
1000
0001
0010
0100
,
1000
0000
0001
0100
1000
0000
0100
0000
,
0010
0000
1000
0010
0001
0000
0010
0000
,
0100
0000
0001
0100
1000
0000
0100
0000
,
0010
1010
0101
0011
,
1100
1000
0001
0100
,
0010
0100
0010
1000
,
0001
0101
1010
0100
,
1000
1001
0110
0010
,
1000
0100
1000
0001
,
0100
0010
1001
0010
,
0100
0001
0011
0100
,
1000
0010
0110
0010
,
1000
0100
1000
0001
,
0100
0010
1010
0010
,
0100
0001
0011
0010
,
0100
1000
1001
0001
,
0100
0010
1010
0010
,
0100
0001
0011
0010
,
0100
1000
1001
0010
,
0100
0001
1100
0001
,
0101
0010
1100
0001
,
0100
0000
0010
1000
0100
0000
1000
0000
,
0001
0100
0020
2030
,
0000
3002
0000
0000
,
1003
0010
1000
0000
0010
0000
0100
0000
,
0001
1000
0100
1000
,
0010
0100
0001
0010
,
0100
1100
1010
0101
,
0011
0100
1000
0001
,
0100
0010
1000
0001
,
0010
0001
0010
0000
0100
0000
1000
0000
,
0010
0110
1001
0011
,
1100
0000
0001
0100
0001
0000
1000
0000
,
0100
0000
1000
0010
1000
0000
0010
0000
,
0100
0000
0001
0100
0001
0000
0100
0000
,
0010
1010
0101
0011
,
1100
0000
1000
0010
0100
0000
0010
0000
,
1000
0000
0001
1000
0100
0000
1000
0000
,
0001
0000
0100
0010
0100
0000
0010
0000
,
1000
0001
1000
0001
,
1000
0001
0000
0000
;

//---------------dance-single - ----------------
#NOTES:
     dance-single:
     :
     Easy:
     3:
     0.171,0.174,0.000,0.007,0.000,163.000,0.000,1.000,7.000,0.000,0.000,0.171,0.174,0.000,0.007,0.000,163.000,0.000,1.000,7.000,0.000,0.000:
0000
0000
0000
0000
,
0000
0000
0000
0000
,
0000
0000
0000
0000
,
0000
0000
0000
0000
,
0000
0000
0000
0000
,
0000
1000
0001
0000
,
0001
0000
1000
0000
,
0010
0000
0100
0000
,
0010
1000
0100
0100
,
0000
1000
0001
0001
,
0000
0010
0100
0100
,
0000
0010
0000
1000
,
0000
0001
0100
0100
,
0000
0010
1000
1000
,
0000
0001
0100
0000
,
0100
0000
0010
0000
,
1000
0001
0000
0100
,
0000
0010
1000
0010
,
0000
0100
0000
0010
,
0000
1000
0001
1000
,
0001
0000
1000
0010
,
0000
0100
0010
1000
,
0000
0001
0100
0010
,
0000
1000
0010
0010
,
0010
0100
0000
0010
,
1000
0001
0000
0001
,
0100
0010
0000
0010
,
1000
0001
0000
0100
,
0000
0010
0000
0000
,
1000
0001
0100
0000
,
0000
0010
1000
0000
,
0010
0100
0001
0010
,
0100
0010
0000
1000
,
0000
0001
0000
0100
,
0000
0010
0000
1000
,
0000
0100
0000
0010
,
0000
0001
0000
0100
,
0000
0010
0000
1000
,
0000
0001
0000
0100
,
0000
0010
0000
1000
,
0000
0001
0000
0100
,
0000
0010
0000
1000
,
0000
0001
0000
0010
,
0000
0100
0000
0010
,
0000
1000
1000
1000
,
0000
0001
0001
0001
,
0000
0100
0010
0100
,
0000
0010
0100
0010
,
0100
0010
0000
1000
,
0000
0001
0000
0100
,
0000
0010
1000
0010
,
0000
0100
0000
0000
,
0010
1000
0000
0010
,
0000
1000
0001
0100
,
0100
0100
0010
1000
,
0001
0010
0000
0100
,
0000
0000
0010
1000
,
0001
0010
0100
0001
,
0000
0010
0000
1000
,
0000
0100
0010
1000
,
0001
0010
0000
0100
,
0000
0010
0010
0010
,
0000
1000
0000
0001
,
0000
0100
0010
1000
,
0001
0100
0000
0010
,
0000
1000
0001
0010
,
0000
0100
0000
0001
,
0000
0000
2000
000M
000M
000M
000M
000M
,
000M
000M
3000
0000
0000
0000
0000
0000
;
