#TITLE:My First Kiss;
#SUBTITLE:;
#ARTIST:3 Oh! 3 feat. Ke$ha;
#TITLETRANSLIT:;
#SUBTITLETRANSLIT:;
#ARTISTTRANSLIT:;
#GENRE:;
#CREDIT:;
#BANNER:;
#BACKGROUND:;
#LYRICSPATH:;
#CDTITLE:;
#MUSIC:03. My First Kiss ft. Kesha - 30H!3.ogg;
#OFFSET:0.852;
#SAMPLESTART:2.850;
#SAMPLELENGTH:13.200;
#SELECTABLE:YES;
#BPMS:0.000=145.020,264.000=72.510,265.000=145.020;
#STOPS:73.000=2.896
;
#BGCHANGES:;
#KEYSOUNDS:;

//---------------dance-single - ----------------
#NOTES:
     dance-single:
     :
     Hard:
     9:
     0.748,0.859,0.377,1.000,0.027,515.000,55.000,193.000,31.000,0.000,0.000,0.748,0.859,0.377,1.000,0.027,515.000,55.000,193.000,31.000,0.000,0.000:
0000
0000
0000
0000
,
0000
0000
0000
0000
,
0000
0000
1000
0001
0010
0100
1000
0001
,
0110
0000
0010
1000
0001
0010
0100
1000
,
0101
0000
0010
1000
0001
0010
0200
0000
,
0310
0000
0010
0001
0100
0010
1000
0001
,
1100
0000
0020
0032
0203
2300
3200
0302
,
0023
2030
3020
0032
0203
0320
2030
0000
,
3001
0000
2000
3200
0302
0203
2300
3020
,
0032
0023
2030
3200
0320
0032
0203
0000
,
0310
0000
0010
1000
0001
0010
0100
1000
,
0011
0000
0001
0100
0010
1000
0001
0010
,
1001
0000
0010
0100
0001
0010
0200
0000
,
0310
0000
0001
0100
0010
1000
0001
0010
,
1100
0000
2000
3200
0320
0032
0023
0230
,
2300
3020
0230
0302
0203
0320
2030
0000
,
3001
0000
0002
0023
0230
2300
3002
0203
,
0320
2030
3200
0320
0032
0203
0320
0000
,
1030
0000
1001
0000
1001
0000
0110
0010
,
2000
0000
0000
0001
3000
0000
1000
0000
0001
0000
0010
0000
0000
0000
0110
0000
,
0000
0010
0001
0100
0020
0000
1030
0001
,
0002
0000
0013
0000
0100
1000
0001
0100
,
0020
0000
0130
0000
1001
0010
0100
0000
,
0020
0000
0000
0000
0130
0000
0010
0000
1000
0000
0000
0001
0000
0000
0110
0000
,
0000
0010
0010
1000
1000
0001
0010
0100
,
1000
0001
0100
0010
0100
0000
0010
0100
,
0010
1001
0110
0000
1001
0000
0001
0010
,
0100
1000
0001
0101
1001
0000
0010
1000
,
0001
0010
0100
1001
0110
0010
1000
0100
,
0010
0000
0000
0001
0000
0000
1000
0000
0110
0000
0000
0000
0010
0000
1000
0000
,
0001
0000
0000
0010
0000
0000
0100
0000
1001
0000
0000
0000
0001
0000
1000
0000
,
0010
0100
0001
0011
1001
0000
0010
0100
,
0001
0010
0100
1000
1001
0000
0001
1000
,
0001
0000
0000
0100
0000
0000
0010
0000
0210
0000
0000
0000
0010
0000
0000
0000
,
0010
0000
0310
0010
0010
1000
0001
0010
,
0100
1000
0110
0000
0010
1000
0001
0010
,
0100
1000
0101
0000
0001
1000
0010
0100
,
0020
0000
0130
0000
0010
1000
0001
0010
,
0100
1000
0011
0000
0002
0203
0320
0230
,
0302
0023
0230
2300
3002
0203
0320
2030
,
3002
0000
1003
0000
0002
0023
0230
2300
,
3002
2003
3020
0230
0320
0230
0302
0023
,
0230
0000
0310
0000
0001
1000
0001
0100
,
0010
1000
0101
0000
0010
1000
0001
0010
,
0100
1000
0101
0000
0010
1000
0001
0010
,
0200
0000
1300
0000
0100
0010
0001
0100
,
0010
1000
0110
0000
2000
3002
0203
0320
,
0230
0302
0023
0230
0320
0032
2003
3020
,
2030
0000
3001
0000
0002
0203
0320
0230
,
0302
0023
0230
0320
0230
2300
3002
0203
,
0320
0000
0130
0000
0110
0000
0000
1000
,
0001
0000
1100
0011
,
1100
0000
0000
0010
0001
0000
0000
1000
,
1100
0000
0000
0000
0000
0000
0000
0000
0010
0000
0000
0010
0000
0000
0010
0000
,
1100
0000
0000
0010
1001
0000
0000
0001
,
1000
0000
0110
1001
,
0110
0000
0000
0010
1010
0000
0000
0100
,
1001
0000
0000
0000
0000
0000
0000
0000
1000
0000
0000
0100
0000
0000
0001
0000
,
0200
0000
0300
1000
0001
0100
1000
0100
,
0001
0010
0101
0000
0010
1000
0001
0010
,
0100
1000
0101
0000
0010
1000
0001
0010
,
0000
0110
1001
0000
0010
1000
0001
0010
,
0100
1000
0101
0000
0020
2030
3002
0023
,
0000
0000
0130
0000
0000
0010
0100
0000
0200
0000
2300
0000
3002
0000
0003
0000
,
2002
3003
0000
0001
2000
3020
0230
0302
,
0023
0230
2300
3200
0302
0203
2300
3002
,
0203
0000
0310
1000
0001
0010
0100
1000
,
0101
0000
0010
1000
0001
0010
0100
0010
,
1001
0000
0010
1000
0001
0010
0200
0000
,
1300
0000
0100
0010
0001
0100
0010
1000
,
0101
0000
0020
2030
3002
0023
0230
0320
,
0032
0203
0320
2030
3002
0023
0230
0000
,
0310
0000
0020
0230
2300
3002
0203
0320
,
2030
3002
0203
0320
0230
0302
0023
0000
,
0031
0000
0001
1000
0010
0100
0010
1000
,
0101
0000
0001
1000
0010
0100
0001
0010
,
0101
0000
0001
1000
0010
0100
0020
0000
,
1030
0000
1000
0001
0010
0100
1000
0001
,
0100
0000
0020
2030
3002
0023
0230
2300
,
3200
0320
0032
2003
3002
0203
0320
0000
,
0130
0000
0020
2030
3002
2003
3200
0320
,
0032
0203
0320
2030
3200
0302
0203
0000
,
1300
0000
M000
000M
0M00
00M0
M000
000M
,
M0M0
0000
M000
000M
00M0
0M00
M000
000M
,
0MM0
0000
000M
M000
00M0
0M00
00M0
0000
,
M00M
0000
M000
000M
00M0
0M00
00M0
M000
,
0M0M
0000
2002
3003
0000
0000
0000
0000
;

//---------------dance-single - ----------------
#NOTES:
     dance-single:
     :
     Medium:
     6:
     0.387,0.385,0.240,0.034,0.000,355.000,35.000,5.000,0.000,0.000,0.000,0.387,0.385,0.240,0.034,0.000,355.000,35.000,5.000,0.000,0.000,0.000:
0000
0000
0000
0000
,
0000
0000
0000
0000
,
0000
0000
1000
0000
0010
0000
0100
0010
,
0100
0000
0010
0000
1000
0000
0001
1000
,
0001
0100
0001
0011
,
1100
1000
0010
0110
,
1001
0100
1000
0001
,
0100
0010
1000
1100
,
0000
1000
0001
0100
,
0010
1000
0001
0011
,
0000
0000
0001
0000
1000
0000
0010
0100
,
0010
0000
1000
0000
0001
0000
0010
0100
,
1000
0001
0100
0110
,
1001
0001
0010
1100
,
0011
0001
0100
0010
,
1000
0001
0010
0100
,
0000
0100
1000
0010
,
0100
0001
0010
0100
,
1000
1001
0001
0100
,
0010
0100
0000
0100
0010
0000
1000
0100
,
0000
0100
1000
0000
0001
0000
0100
0000
,
0010
0000
0100
0000
0010
0000
1000
0001
,
0100
0001
1100
0001
,
0100
0000
0010
0000
1000
0001
0100
0000
,
0101
0010
1000
0100
,
1000
0001
0100
0010
,
1000
0000
0100
0000
1000
0000
0001
0100
,
0001
1000
1100
0001
,
0100
0001
0100
0000
0110
0000
0010
0000
,
1000
0001
0100
0000
0001
0000
1000
0000
,
0100
1000
0001
0000
0101
0000
0001
0000
,
1000
0010
0100
0000
0110
0000
0010
0000
,
1000
0001
0100
0000
0101
0000
0001
0000
,
1000
0100
1000
0000
0001
0000
0100
0000
,
0010
0100
0010
0000
0010
0000
1000
0000
,
0001
1000
0001
0000
0100
0000
0001
0000
,
0010
0001
0010
0000
0100
0000
1000
0000
,
0001
1000
0001
0000
0100
0000
0010
0000
,
1000
0010
1000
0000
0010
0100
0010
0000
,
0010
0100
0010
0000
0010
0100
0010
0000
,
0110
0000
0000
0000
1000
0001
1000
0000
,
1000
0001
1000
0000
1000
0001
1000
0000
,
1001
0000
0001
0100
,
0010
0100
0010
0000
1000
0000
0001
0000
,
0100
0001
0100
0000
0010
0000
1000
0000
,
0100
1100
0001
0100
,
0010
1010
0001
0100
,
0010
1000
0001
0000
0001
0100
0001
0000
,
1100
0000
0000
0000
1000
0001
1000
0000
,
0001
1000
0001
0000
1000
0001
1000
0000
,
1001
0000
0001
0000
,
0100
0000
0010
1000
,
0100
0000
1000
0000
,
0001
0000
0100
0010
,
0100
0000
0010
0000
,
1000
0000
0001
1000
,
0001
0000
1000
0000
,
0001
0000
0100
0010
,
1000
0000
0001
1000
,
1000
0001
1000
0000
0001
0000
0100
0000
,
0010
0100
0010
0000
0010
0000
1000
0000
,
0000
1000
0010
0000
0010
0000
1000
0000
,
0001
0100
0001
0000
1000
0100
0100
0000
,
1000
0001
0100
0000
0001
1000
0100
0000
,
1000
0000
0000
0000
0001
0100
0001
0100
,
0001
0100
0001
0100
0001
0100
0001
0100
,
0002
0000
1003
0000
0010
0000
0100
0010
,
0100
0000
0010
0000
1000
0000
0001
1000
,
0001
0000
1000
0000
0100
0000
1000
0001
,
0100
0010
1000
0001
,
0101
0000
0010
0000
1000
0000
0100
1000
,
0001
0001
0101
1010
,
0000
0010
1000
0001
,
0010
0000
0001
0010
0100
0000
1100
0000
,
0000
0000
1000
0000
0001
0000
0100
0001
,
0100
0000
0010
0000
1000
0000
0100
1000
,
0100
0010
0001
0101
,
1010
0010
1000
1100
,
0011
0000
0001
0100
0001
0000
0001
0100
,
0001
0000
0001
0100
0001
0000
0101
0000
,
0000
0000
1000
0010
1000
0000
1000
0010
,
1000
0000
1000
0010
1000
0000
2020
0000
,
0000
3030
0000
0000
,
0000
0000
0000
0000
,
0000
0000
0000
0000
,
0000
0000
0000
0000
,
0000
0000
2002
3003
0000
0000
0000
0000
;

//---------------dance-single - ----------------
#NOTES:
     dance-single:
     :
     Easy:
     3:
     0.284,0.267,0.117,0.371,0.000,219.000,17.000,54.000,0.000,0.000,0.000,0.284,0.267,0.117,0.371,0.000,219.000,17.000,54.000,0.000,0.000,0.000:
0000
0000
0000
0000
,
0000
0000
0000
0000
,
0000
1000
0001
0100
,
0100
0010
1000
0001
,
0001
1000
0100
0010
,
0010
0001
0100
0010
,
0010
2000
0000
3002
,
0000
0203
0000
0320
,
0030
2000
0000
3200
,
0000
0320
0000
0032
,
0003
0100
0010
1000
,
1000
0001
0010
0100
,
0100
1000
0010
0100
,
0100
0001
0010
0100
,
0100
2000
0000
3002
,
0000
0203
0000
0320
,
0030
2000
0000
3002
,
0000
0023
0000
0230
,
0300
1001
1000
0000
,
0010
0000
0100
0010
,
1000
0000
0001
0000
,
1000
0000
0001
0000
,
0010
0000
0100
0000
,
1000
0000
0001
0000
,
0100
0000
0010
0000
,
1000
0000
0001
0000
,
1000
0000
0001
0000
,
0100
0000
0110
0000
,
0001
0000
1001
0000
,
1000
0000
1001
0000
,
0001
0000
1001
0000
,
1000
0000
0110
0000
,
0010
0000
0110
0000
,
0100
0000
1001
0001
,
0001
0001
1000
0010
,
0100
0100
0001
0010
,
0100
0100
1000
0010
,
0100
0100
0001
0010
,
0001
0001
2000
0000
,
3002
0000
0203
0000
,
0320
0030
2000
0000
,
3200
0000
0320
0000
,
0032
0003
1000
0010
,
0100
0100
0001
0010
,
0100
0100
1000
0001
,
0100
0100
0010
1000
,
0100
0100
0020
0000
,
0032
0000
0203
0000
,
0320
0030
2000
0000
,
3002
0000
0203
0000
,
0320
0030
1000
0000
,
0001
0000
0100
0100
,
0100
0000
0010
0000
,
1001
0000
0001
0000
,
1001
0000
0001
0000
,
0100
0000
0010
0010
,
0010
0000
1000
0000
,
1001
0000
0001
0000
,
0110
0000
0010
0000
,
0001
1001
0001
0000
,
0001
1001
1000
0000
,
0010
0110
0010
0000
,
1000
1001
1000
0000
,
0001
0000
0100
0000
,
0010
0000
2000
0000
,
3002
0000
0203
0000
,
0320
1030
0100
0010
,
0010
0001
0100
0010
,
0010
1000
0100
0010
,
0010
0001
1000
0010
,
0010
0200
0000
0320
,
0000
2030
0000
3002
,
0003
0200
0000
0320
,
0000
2030
0000
3002
,
0003
0100
0010
1000
,
1000
0001
0010
0100
,
0100
1000
0001
0100
,
0100
0010
1000
0001
,
0001
2000
0000
3020
,
0000
0230
0000
0302
,
0003
2000
0000
3020
,
0000
0230
0000
0320
,
0030
0000
0000
0000
,
0000
0000
0000
0000
,
0000
0000
0000
0000
,
0000
0000
0000
0000
,
0000
2002
3003
0000
;
