#TITLE:Little Kandi Raver;
#SUBTITLE:;
#ARTIST:S3RL feat. Tamika;
#TITLETRANSLIT:;
#SUBTITLETRANSLIT:;
#ARTISTTRANSLIT:;
#GENRE:;
#CREDIT:;
#BANNER:bnkandi.png;
#BACKGROUND:bkkandi.png;
#LYRICSPATH:;
#CDTITLE:;
#MUSIC:Little Kandi Raver.ogg;
#OFFSET:0.014;
#SAMPLESTART:7.550;
#SAMPLELENGTH:12.300;
#SELECTABLE:YES;
#BPMS:0.000=175.000;
#STOPS:;
#BGCHANGES:;
#KEYSOUNDS:;

//---------------dance-single - ----------------
#NOTES:
     dance-single:
     :
     Hard:
     8:
     0.577,0.619,0.310,0.197,0.000,376.000,33.000,21.000,0.000,0.000,0.000,0.577,0.619,0.310,0.197,0.000,376.000,33.000,21.000,0.000,0.000,0.000:
0000
0000
0000
0000
,
0000
0000
0000
0000
,
0000
0000
0000
0000
,
0000
0000
0000
0000
,
0000
0000
0000
0000
,
0000
0000
0000
0000
1000
0001
0100
0010
,
0200
0000
0310
2000
0000
3001
0010
0100
,
1000
0010
0100
0010
1000
0001
0010
0100
,
0010
0001
1000
0020
0000
1030
0001
0010
,
0200
1000
1300
0010
0100
0010
1000
0001
,
0020
0000
0130
2000
0000
3001
0100
0010
,
1000
0000
0000
1000
0010
1000
0001
0010
,
0010
0100
1000
0002
0000
1003
0010
0100
,
0020
0000
0000
0030
1000
0001
0010
0000
,
0010
0100
0000
0100
0000
1000
0001
0100
,
0010
1000
0010
0100
0010
1000
0001
0010
,
0100
1000
0001
0100
0000
0010
1000
0001
,
0010
0000
0100
1000
0001
0100
0010
0000
,
0100
0010
0000
0010
0000
1000
0001
0010
,
0100
0000
2002
0000
,
0000
0000
0000
0000
,
0000
3003
1001
1010
,
0010
0100
0000
0001
0000
0010
0100
0000
,
1100
1010
0110
0101
,
0001
0010
0000
0100
0000
1000
0001
0000
,
0101
1010
1001
0011
,
0100
1000
0000
0100
0000
0010
0001
0000
,
1001
1010
0101
0011
,
0100
1000
0000
0001
0000
0100
0001
0000
,
0101
0110
1010
1100
,
1000
0010
0000
0100
0000
0001
0010
0000
,
1100
1010
0101
0011
,
0001
0010
0000
0100
0000
1000
0100
0000
,
0011
0011
0101
1010
,
1000
0001
0000
0100
0000
0010
1000
0000
,
1001
0110
1010
1010
,
1000
0100
0000
0010
0000
0001
1000
0000
,
1001
0000
1001
0000
1000
0001
0010
0100
,
2000
0000
3001
0100
0000
0010
0100
0010
,
1000
0001
0010
0100
1000
0100
0010
0001
,
1000
1000
0010
0200
0000
0310
1000
0001
,
0010
0000
0010
0100
1000
0001
0100
0010
,
0200
0000
0310
1000
0000
0001
0010
0100
,
1000
0000
0000
0001
0100
0010
1000
0001
,
0010
0100
1000
0002
0000
0103
0010
1000
,
0002
0000
1003
0000
0001
0100
0001
0000
,
0100
0010
0000
1000
0000
0001
0010
0100
,
0010
0001
0100
0010
1000
0001
0100
0010
,
0100
0001
1000
0020
0000
1030
0001
0010
,
0100
0000
1000
0100
1000
0010
0200
0000
,
0301
0100
0000
0010
0000
0010
1000
0001
,
0020
0000
0030
0000
0100
1000
0001
0100
,
0010
0000
1000
0010
0000
0010
0100
0001
,
0010
0100
1000
0000
1000
0000
0001
0000
,
0100
0000
0010
0000
0010
1000
0010
1000
,
0010
1000
0001
1000
,
1000
0000
0100
0000
0010
0001
0010
0001
,
0010
0001
0010
0000
0001
0000
0100
0000
,
0010
0000
1000
0000
0010
1000
0010
1000
,
0010
0000
0100
0010
0000
1000
0001
1000
,
0002
0000
0000
0000
,
0000
0000
1003
0001
,
0100
0000
0010
0000
1000
0010
1000
0010
,
1000
0100
0010
0001
,
0100
0000
0010
0000
1000
0010
1000
0010
,
0100
0010
0100
0000
0010
0000
1000
0000
,
0001
0000
0010
0000
0100
1000
0100
1000
,
0100
0000
0010
0001
0000
0001
0100
0001
,
0200
0000
0000
0000
,
0000
0000
0000
0000
0310
1000
0010
0000
,
1000
0000
0100
0000
0010
0001
0010
0001
,
0010
0001
0100
0010
,
1000
0000
0001
0000
1000
0001
1000
0001
,
1000
0001
1000
0000
0001
0000
0010
0000
,
0100
0000
1000
0000
0001
0100
0001
0100
,
0001
0000
0100
0010
0000
0010
0100
0010
,
0200
0000
0000
0000
,
0000
0000
0310
0000
;

//---------------dance-single - ----------------
#NOTES:
     dance-single:
     :
     Medium:
     5:
     0.399,0.400,0.169,0.150,0.000,263.000,18.000,16.000,0.000,0.000,0.000,0.399,0.400,0.169,0.150,0.000,263.000,18.000,16.000,0.000,0.000,0.000:
0000
0000
0000
0000
,
0000
0000
0000
0000
,
0000
0000
0000
0000
,
0000
0000
0000
0000
,
0000
0000
0000
0000
,
0000
0000
0100
0010
,
0100
0000
0010
1000
0000
1000
0100
0000
,
1000
0001
0100
0001
,
0010
0000
0100
1000
0000
1000
0001
0000
,
0100
0010
1000
0001
,
0100
0000
0001
0100
0000
0100
0010
0000
,
1000
0000
0100
1000
,
0001
0000
0100
0001
0000
0001
0100
0000
,
0110
0000
0010
1000
,
1100
0000
0000
1000
0000
0001
0100
0000
,
0110
0010
1000
0100
,
1000
0000
0001
0100
0000
0100
0001
0000
,
1100
0001
0100
0110
,
0001
1000
0000
1000
0000
0100
1000
0000
,
0101
0000
0010
1000
,
0100
0000
1000
0001
0000
0001
0100
0010
,
0100
0010
1000
0100
,
1000
0000
0000
0001
0000
0100
0010
0000
,
1000
0001
1000
0100
,
1000
0000
0000
0001
0000
0000
0100
0000
,
0010
1000
0100
0010
,
0001
0000
0000
0101
0000
0000
0010
0000
,
1000
0100
1000
0001
,
0100
0000
0000
0101
0000
0000
0001
0000
,
1000
0100
0100
1000
,
0001
0000
0000
0101
0000
0000
0010
0000
,
1000
0100
0010
0001
,
0100
0000
0000
0101
0000
0000
0001
0000
,
1000
0010
0100
0010
,
1000
0000
0000
0101
0000
0000
0010
0000
,
1000
0100
0010
0001
,
0100
0000
0000
1010
0000
0000
0010
0000
,
0100
0001
1000
0100
,
1000
0000
0001
0100
0000
0100
0010
0000
,
1000
0100
0010
0001
,
0100
0000
0010
0100
0000
0100
0010
0000
,
1010
0010
0100
0010
,
0110
0000
0010
1000
0000
1000
0001
0000
,
0101
0000
0010
1000
,
0100
0000
0010
0001
0000
0001
0100
0000
,
0110
0000
0010
1000
,
0001
0100
0000
0100
0000
0010
1000
0000
,
1000
0100
0010
0001
,
0100
0000
0001
0100
0000
0100
0001
0000
,
1000
0000
0100
0000
1000
0001
0100
0000
,
0001
0100
0000
0010
0000
1000
0001
0000
,
1001
0000
0001
0100
,
0010
0000
1000
0001
0000
0001
0100
0000
,
0020
0000
1030
0100
,
1000
0001
0200
0001
,
0001
0300
0000
0001
,
1000
0200
2000
0000
,
0000
0000
3300
0001
,
0100
0020
0100
0100
,
0130
0000
0010
1000
0000
1000
0010
0000
,
0220
0000
0000
0000
,
0000
0000
0330
0010
,
1000
0100
2000
0001
,
0001
3000
0000
0001
,
0100
0010
0200
0000
,
0020
0330
0000
0010
,
1000
0100
2000
0001
,
0001
3000
0001
0100
0000
0100
0010
1000
,
0002
0000
0000
0000
,
0000
0000
1003
1000
,
0100
1000
0002
1000
,
1000
0003
0000
0001
,
0100
0010
0200
0000
,
0000
0000
0300
0010
,
1000
0100
2000
0001
,
0001
3000
0001
0100
0000
0100
0010
0000
,
2000
0000
0000
0000
,
0000
0000
0000
0000
0000
0000
0000
0000
0000
0000
0000
0000
0000
0000
0000
0000
0000
0000
0000
0000
0000
0000
0000
0000
0000
0000
0000
0000
0000
0000
0000
0000
0000
0000
0000
0000
0000
0000
0000
0000
0000
0000
0000
0000
0000
0000
0000
0000
0000
0000
0000
0000
0000
0000
0000
0000
0000
0000
0000
0000
0000
0000
0000
0000
0000
0000
0000
0000
0000
0000
0000
0000
0000
0000
0000
0000
0000
0000
0000
0000
0000
0000
0000
0000
0000
0000
0000
0000
0000
0000
0000
0000
0000
0000
0000
0000
0001
3000
0000
0000
0000
0000
0000
0000
0000
0000
0000
0000
0000
0000
0000
0000
0000
0000
0000
0000
0000
0000
0000
0000
0000
0000
0000
0000
0000
0000
0000
0000
0000
0000
0000
0000
0000
0000
0000
0000
0000
0000
0000
0000
0000
0000
0000
0000
0000
0000
0000
0000
0000
0000
0000
0000
0000
0000
0000
0000
0000
0000
0000
0000
0000
0000
0000
0000
0000
0000
0000
0000
0000
0000
0000
0000
0000
0000
0000
0000
0000
0000
0000
0000
0000
0000
0000
0000
0000
0000
0000
0000
0000
0000
0000
0000
;

//---------------dance-single - ----------------
#NOTES:
     dance-single:
     :
     Easy:
     3:
     0.295,0.291,0.028,0.141,0.000,202.000,3.000,15.000,0.000,0.000,0.000,0.295,0.291,0.028,0.141,0.000,202.000,3.000,15.000,0.000,0.000,0.000:
0000
0000
0000
0000
,
0000
0000
0000
0000
,
0000
0000
0000
0000
,
0000
0000
0000
0000
,
0000
0000
0000
0000
,
0000
0000
0000
0100
,
0010
0000
0010
1000
,
0100
0000
1000
0001
,
0100
0000
0010
0100
,
0010
0000
0010
1000
,
0001
0000
0001
1000
,
0001
0000
0001
0100
,
0001
0000
0100
0100
,
0100
0000
0010
1000
,
0001
0000
0001
1000
,
0100
0000
0100
0010
,
0001
0000
0001
1000
,
0001
0000
0100
0100
,
0100
0000
0010
0100
,
0010
0000
0010
1000
,
0001
0000
1000
0001
,
2000
0000
3001
0001
,
0100
0000
0001
1000
,
0100
0000
1000
0010
,
0100
0000
0010
0010
,
0010
0000
0100
0010
,
1000
0000
0001
1000
,
0001
0000
1000
0001
,
0010
0000
0010
0100
,
0010
0000
0001
0100
,
0010
0000
0010
1000
,
0001
0000
1000
0001
,
0100
0000
0001
1000
,
0100
0000
1000
0010
,
0100
0000
0010
0100
,
0001
0000
0001
1000
,
0001
0000
0001
0010
,
0100
0000
1000
1000
,
1000
0000
0001
0100
,
0001
0000
0001
0010
,
0100
0000
1000
1000
,
1001
0000
0001
0100
,
0010
0000
0010
0100
,
0010
0000
0010
1000
,
0001
0000
0001
1000
,
1100
0000
1000
0001
,
0001
0000
0100
0010
,
1000
0000
0010
0100
,
0001
0000
0001
1000
,
0010
0000
0010
0100
,
0110
0000
0010
1000
,
0001
0000
1000
0001
,
1000
0000
0001
0100
,
0020
0000
0030
1000
,
0100
1000
0002
1000
,
1003
0000
0000
1000
,
0001
1000
0002
0000
,
0000
0003
0000
0001
,
1000
0100
2000
0001
,
3001
0000
0001
0100
,
0020
0000
0000
0000
,
0000
0000
0030
0010
,
0100
0010
2000
0001
,
3001
0000
0000
0001
,
0100
0010
0200
0000
,
0020
0330
0000
0010
,
1000
0100
2000
0001
,
3001
0000
0001
0100
,
0020
0000
0000
0000
,
0000
0000
0030
1000
,
0100
1000
0002
1000
,
1003
0000
0000
0001
,
0100
0010
0200
0000
,
0000
0300
0000
0010
,
1000
0100
2000
0001
,
3001
0000
0001
0100
,
0020
0000
0000
0000
,
0000
0000
0130
0000
;
