#TITLE:I Gotta Feeling;
#SUBTITLE:;
#ARTIST:Black Eyed Peas;
#TITLETRANSLIT:;
#SUBTITLETRANSLIT:;
#ARTISTTRANSLIT:;
#GENRE:;
#CREDIT:;
#BANNER:;
#BACKGROUND:;
#LYRICSPATH:;
#CDTITLE:;
#MUSIC:105 Black Eyed Peas - I Gotta Feeling.ogg;
#OFFSET:0.460;
#DISPLAYBPM:64.000:128.000;
#SAMPLESTART:37.990;
#SAMPLELENGTH:13.180;
#SELECTABLE:YES;
#BPMS:0.000=128.010,192.000=256.020,193.500=128.010,216.000=64.005,217.000=128.010;
#STOPS:160.500=0.469
,192.000=0.117
,192.500=0.117
,193.000=0.117
;
#BGCHANGES:;
#KEYSOUNDS:;

//---------------dance-single - ----------------
#NOTES:
     dance-single:
     :
     Hard:
     8:
     0.462,0.430,0.135,0.120,0.015,398.000,18.000,16.000,3.000,1.000,0.000,0.462,0.430,0.135,0.120,0.015,398.000,18.000,16.000,3.000,1.000,0.000:
0000
0000
0000
1000
,
0001
0100
0010
1000
,
0001
0010
0100
1000
,
0001
0100
0010
1000
,
0001
0100
0010
1000
,
0001
0010
0100
1000
,
0001
0100
0010
1000
,
0001
0010
0100
1000
,
0001
0000
0100
0000
0010
1000
0100
0000
,
0010
0001
0100
0010
,
1000
0000
0001
0100
0010
1000
0000
0001
,
0100
0010
0000
1000
0000
0100
0000
0010
,
0001
0000
0100
0010
1000
0001
0000
0010
,
0100
1000
0000
0001
0000
0110
0000
1001
,
0000
0000
0001
0100
0010
1000
0000
0100
,
0010
0001
0000
0100
0000
0101
0000
1010
,
0000
2200
0000
3300
1000
0001
0100
0010
,
1000
0001
0100
0010
0100
0001
0010
0100
,
1000
0001
0100
0010
0100
0001
0010
0100
,
1000
0001
0100
0010
1000
0001
0100
0010
,
0100
0001
0010
0100
1000
0001
0010
0100
,
1000
0001
0100
0010
0100
0001
0010
0100
,
1000
0001
0100
0010
0100
0001
0010
0100
,
1000
0001
0100
0010
1000
0001
0010
0100
,
1000
0001
0100
0010
1000
0001
1000
1000
,
0001
0100
0010
0100
0001
0010
0100
1000
,
0001
0100
0010
0100
0001
0010
0100
1000
,
0001
0100
0010
1000
0001
0010
0100
0010
,
0001
0100
0010
1000
0001
0100
0010
1000
,
0001
0100
0010
0100
0001
0010
0100
1000
,
0001
0100
0010
0100
0010
1000
0100
0010
,
0001
0100
0010
1000
0001
2000
0000
0002
,
0000
3013
0010
0110
1001
0110
0010
0010
,
1000
0100
1000
0000
0001
0000
0100
0010
,
1000
0001
0010
0000
0100
0000
1000
0001
,
0100
0010
0100
0001
1000
0000
0010
0100
,
0001
1000
0010
0000
0010
1001
0010
0100
,
0010
0000
1000
0000
0002
0000
0003
0010
0000
0000
0000
0000
0000
0000
0010
0000
,
0001
0001
0001
0000
1000
0000
0001
0100
,
0010
1000
0010
0100
0000
0000
0000
0001
,
1000
0001
0M10
1001
0100
0000
0000
0010
,
0000
1000
0100
0010
0000
0001
0100
0020
,
0000
1030
0001
0010
0000
0010
0100
2000
,
0000
3001
0100
0010
0000
1000
0001
0020
,
0000
0000
0000
0000
0130
0000
1001
0000
0000
M00M
0000
0000
0000
0000
0001
0000
,
0000
0100
0010
1000
0001
0010
0000
0110
,
0000
0010
0001
0200
0000
0320
0000
2030
,
0000
3002
0000
0013
0100
0010
0001
0100
,
0010
0010
0010
0010
0000
1000
0001
0100
,
0010
0000
1010
0000
0101
0000
0010
1000
,
0001
0000
0010
0000
0100
1000
0010
0100
,
0001
0000
0000
0100
0000
0000
0000
0000
0000
0000
0010
0000
1000
0000
0001
0000
,
0000
0000
1001
0110
0000
0010
1000
0001
,
0010
0000
0100
0000
1000
0001
0100
0010
,
0200
0000
0000
0000
0000
0300
0000
0000
0010
0000
0000
0000
1000
0000
0000
0000
0001
0000
0000
0000
0010
0000
0000
0000
0100
0000
0000
0000
0000
0000
0000
0000
,
0000
0000
0000
0100
1000
0001
0100
0010
,
1000
0001
0010
0000
0000
0010
0100
1000
,
0000
0001
0100
0010
0000
0010
1000
0001
,
0010
0000
0200
0300
2000
0000
3000
0000
0000
0000
0001
0000
0010
0000
0100
0000
,
0000
0000
1000
0000
0001
0000
0100
0000
0000
0000
0100
0000
0010
0000
0000
1000
,
0010
1001
0100
1000
0000
1000
0001
0100
,
0000
0000
0010
0000
1000
0000
0100
0000
0001
0000
0200
0300
1000
0000
0010
0000
,
0000
0010
0100
0001
0000
0010
0100
1000
,
0000
0001
0100
0010
0000
0010
1000
0001
,
0010
1000
0010
0000
0001
0000
0100
0000
,
0010
1000
0001
0010
,
1000
0010
0001
0100
,
0010
1000
1001
0000
;

//---------------dance-single - ----------------
#NOTES:
     dance-single:
     :
     Medium:
     5:
     0.296,0.303,0.022,0.015,0.000,272.000,3.000,2.000,0.000,0.000,0.000,0.296,0.303,0.022,0.015,0.000,272.000,3.000,2.000,0.000,0.000,0.000:
0000
0000
0000
1000
,
0001
0100
0010
1000
,
0001
0010
0100
1000
,
0001
0100
0010
1000
,
0001
0100
0010
1000
,
0001
0010
0100
1000
,
0001
0100
0010
1000
,
0001
0010
0100
1000
,
0001
0100
0010
1000
,
0100
1000
0001
0100
,
0010
0100
0010
1000
,
0001
0100
0010
0100
,
0001
0010
0100
1000
,
0010
0100
0001
0010
,
0100
0001
1000
0010
,
0100
0010
1000
0100
,
0010
1000
0001
0100
,
0010
0000
1000
0100
1000
0000
0001
0000
,
0100
0000
0001
0100
0001
0000
1000
0000
,
0010
0000
0100
0000
0010
0000
1000
0010
,
1000
0010
0100
0001
,
0010
0000
0100
0000
1000
0000
0001
0100
,
0001
1000
0010
0100
,
0001
0000
0010
0000
0100
0000
1000
0100
,
1000
0000
0001
1000
0001
0000
0001
0000
,
0100
0000
0010
1000
0010
0000
0100
0000
,
0001
0000
0010
0100
1000
0000
0001
0000
,
0100
0000
0001
0100
0001
0000
1000
0000
,
0100
0000
1000
0001
0100
0000
0010
0000
,
1000
0000
0001
0100
0001
0000
1000
0000
,
0100
0000
1000
0100
1000
0000
0001
0000
,
0100
0000
0010
0100
0010
0000
1000
0000
,
0001
1001
1001
1001
,
0100
1000
0001
0000
0100
0000
0010
0000
,
0010
1000
0100
1000
,
0001
0100
0010
0000
1000
0000
0001
0000
,
0100
0010
1000
0000
0001
0000
1000
0000
,
0100
0010
0001
0000
0100
0000
0010
0000
,
1000
0001
0100
0000
0010
0000
1000
0000
,
0001
1000
0100
0000
1000
0000
0001
0000
,
0100
0010
0100
0000
0000
0000
0010
0000
,
1000
0100
1000
0001
,
0100
0010
1000
0100
,
1000
0001
0100
0010
,
1000
0100
1000
0001
,
0100
0010
1000
0100
,
0010
0001
0100
0010
,
1000
0100
1000
0001
,
0100
0100
0100
0100
0010
0000
1000
0000
,
0100
0000
0000
0000
0000
0000
1000
0001
,
0100
0000
0010
1000
,
0100
0000
1000
0001
,
0001
0001
0000
0001
,
1000
0000
0000
0100
,
2000
0000
0000
3000
0001
0000
0100
0000
,
0000
0000
0010
1000
,
0100
0000
1000
0000
0000
0001
0000
0000
,
0000
0100
0000
0010
,
1000
0100
0000
1000
,
0000
0001
0000
0100
,
0020
0030
1000
0000
0000
0000
0100
0000
,
0000
0000
1000
0001
0100
0000
0010
0000
,
0000
0010
0000
1000
,
0000
0000
0001
1000
0100
0000
1000
0001
,
0100
0001
1000
0010
,
0100
0010
1000
0100
,
1000
0001
0100
0001
,
1000
0100
1000
0000
;

//---------------dance-single - ----------------
#NOTES:
     dance-single:
     :
     Easy:
     2:
     0.174,0.201,0.007,0.015,0.000,160.000,1.000,2.000,0.000,0.000,0.000,0.174,0.201,0.007,0.015,0.000,160.000,1.000,2.000,0.000,0.000,0.000:
0000
0000
0000
0000
,
1000
0000
0010
0000
,
0100
0000
0010
0000
,
1000
0000
0001
0000
,
0100
0000
0010
0000
,
1000
0000
0100
0000
,
0001
0000
0010
0000
,
0100
0000
0010
0000
,
1000
0000
0000
0001
,
0001
0001
0001
0001
,
0001
0001
0001
0001
,
0001
0001
0001
0001
,
0001
0001
0001
1000
,
1000
1000
1000
1000
,
1000
1000
1000
0100
,
0100
0100
0100
0100
,
0100
0100
0100
0100
,
0000
0010
0000
0100
,
0000
0010
0000
1000
,
0000
0001
0000
0100
,
0000
0010
0000
1000
,
0000
0100
0000
0010
,
0000
0100
0000
0001
,
0000
0010
0000
0100
,
0000
0010
0010
0010
,
0000
0100
0000
0010
,
0000
1000
0000
0001
,
0000
0010
0000
0100
,
0100
0100
0000
0010
,
0000
1000
0000
0001
,
0001
0001
0000
0010
,
0000
0100
0000
1000
,
1000
1000
0000
0010
,
0010
0010
0000
0000
,
0100
0100
0000
0000
,
0001
0001
0000
0000
,
0010
0010
0000
0000
,
1000
0001
0000
0000
,
0010
0100
0000
0000
,
1000
0001
0000
0000
,
1000
0000
0000
0000
,
0001
0000
0100
0000
,
0010
0000
1000
0000
,
0001
0000
0100
0000
,
0010
1000
0010
0000
,
0100
0000
0010
0000
,
0100
0000
0001
1000
,
0010
0000
0010
0100
,
0200
0000
0301
0000
,
1000
0000
0010
0000
,
0100
0000
0010
0000
,
1000
0000
0001
0000
,
0010
0000
0000
0010
,
0000
0100
0000
1000
,
2000
3000
0001
0001
,
0000
0000
0100
0010
,
0100
0000
0000
0010
,
0000
1000
0000
0001
,
0100
0010
0000
0010
,
0000
1000
0000
1000
,
0100
0001
0000
0010
,
0000
1000
1000
1000
,
0000
0100
0000
0010
,
0000
0001
0100
0010
,
0000
1000
0000
0001
,
0000
1000
0000
0001
,
0000
1000
0000
0001
,
0000
1001
0000
0000
;
