#TITLE:Holiday;
#SUBTITLE:;
#ARTIST:Dizzee Rascal;
#TITLETRANSLIT:;
#SUBTITLETRANSLIT:;
#ARTISTTRANSLIT:;
#CREDIT:;
#BANNER:;
#BACKGROUND:;
#LYRICSPATH:;
#CDTITLE:;
#MUSIC:Holiday.ogg;
#OFFSET:0.288;
#SAMPLESTART:37.990;
#SAMPLELENGTH:13.160;
#SELECTABLE:YES;
#BPMS:0.000=118.010;
#STOPS:;
#BGCHANGES:;

//---------------dance-single - ----------------
#NOTES:
     dance-single:
     :
     Hard:
     8:
     0.484,0.418,0.102,0.025,0.102:
0000
0000
0000
0000
,
0000
0000
0000
0000
,
0000
0000
0000
0000
1000
0000
0001
0000
0100
0000
0010
0000
1000
0000
0000
0100
,
0000
0000
0100
0000
0000
0000
1000
0000
0010
0000
0100
0000
0010
0000
0000
1000
,
0000
0000
0001
0000
0000
0000
0010
0000
0100
0000
0010
0000
0001
0000
0000
1000
,
0000
0000
0001
0000
0000
0000
0001
0000
0100
0000
0010
0000
0100
0000
0000
0100
,
0000
0000
0010
0000
0000
0000
1000
0000
0100
0000
0010
0000
0001
0000
0000
1000
,
0000
0000
0001
0000
0000
0000
0100
0000
0010
0000
0100
0000
0001
0000
0000
0010
,
0000
0000
0100
0000
0000
0000
1000
0000
0100
0000
0010
0000
0001
0000
0000
0100
,
0000
0000
0010
0000
0000
0000
0010
0000
1000
0000
0001
0000
0010
0000
0000
0100
,
0000
0100
0000
1000
0001
0100
0000
0010
,
1000
0001
0000
0001
0010
0100
0000
1000
,
0100
0010
0000
0001
0100
0010
1000
0100
,
0010
0001
0000
1000
0010
0100
0010
0100
,
0001
0010
0000
0100
1000
0001
0100
0010
,
0100
0100
0000
0010
1000
0001
0010
0100
,
1000
0001
0100
0010
0100
0010
1000
0100
,
0010
0000
0001
0100
0010
0100
0010
1000
,
0001
0010
0100
0000
1000
0100
0010
0000
,
0001
0100
0010
1000
0010
0100
0010
0000
,
0010
1000
0001
0010
0100
0010
0001
1000
,
0010
0100
0010
1000
0001
0010
0100
0000
,
0100
1000
0001
0000
1000
0001
0100
0000
,
0010
0100
0001
0010
0100
0100
0100
0000
,
1000
0001
0010
0100
0010
0001
1000
0000
,
1000
0001
0100
0010
1000
0100
0100
0000
,
0000
0000
1000
0000
1000
0000
0001
0000
0100
0000
0010
0000
0100
0000
0010
0100
,
0000
0000
0000
0000
0001
0000
1000
0001
0000
0000
0000
0000
1000
0000
0001
0100
,
0000
0000
0010
0000
1000
0000
0001
0000
0010
0000
0100
0000
1000
0000
0001
1000
,
0000
0001
0100
0010
1000
0001
0011
0000
,
1100
0000
0000
0000
1000
0000
0001
0000
0100
0000
0010
0000
1000
0000
0100
1000
,
0000
0000
0000
0000
1000
0000
0001
0100
0000
0000
0010
0000
0100
0000
0001
1000
,
0000
0000
0100
0000
1000
0000
0001
0000
0010
0000
0100
0000
1000
0000
0001
0100
,
0000
0010
0100
0001
0010
0100
1100
0000
,
0011
0000
0001
1000
0010
0100
0010
0010
,
1000
1000
0000
0001
0010
0100
1000
1000
,
0000
0001
0010
0100
1000
0001
0100
0100
,
0000
0010
1000
0001
0010
0100
1000
1000
,
0000
0001
0100
0001
0010
0100
0000
0100
,
1000
0001
0100
0010
0100
0010
0000
1000
,
0001
0010
0100
0010
0002
0000
0000
1003
,
0100
0010
0100
1000
0001
0100
0010
0100
,
0000
0100
0001
0010
0100
1000
0001
1000
,
0001
0100
1000
0100
0001
0010
0100
1000
,
0001
0100
0010
0100
0001
0010
0100
1000
,
0001
0100
0010
0100
0001
0010
0100
1000
,
0000
0001
0100
0010
0100
0001
0010
0110
,
0000
0010
0001
0100
0010
1000
0010
0110
,
0000
0010
1000
0001
0010
0100
1000
1001
,
0000
0001
0100
0010
1000
0001
0022
0000
,
0033
0000
0001
0000
0001
0000
1000
0000
0010
0000
0100
0000
0010
0000
1000
0001
,
0000
0000
0000
0000
0001
0000
0010
0100
0000
0000
0000
0000
1000
0000
0001
0100
,
0000
0000
0010
0000
0100
0000
0010
0000
1000
0000
0001
0000
0010
0000
0100
1000
,
0000
1000
0001
0010
0100
1000
1001
0000
,
0110
0000
0000
0000
0010
0000
1000
0000
0001
0000
0010
0000
0100
0000
1000
0001
,
0000
0000
0000
0000
0001
0000
0100
0010
0000
0000
0100
0000
0010
0000
1000
0001
,
0000
0000
0001
0000
0001
0000
0010
0000
0100
0000
1000
0000
0001
0000
0100
0010
,
0000
0010
1000
0001
0010
0100
1100
0000
,
0011
0000
0000
0000
;

//---------------dance-single - ----------------
#NOTES:
     dance-single:
     :
     Challenge:
     10:
     0.711,0.712,0.415,0.034,0.728:
0000
0000
0000
0000
,
0000
0000
0000
0000
,
0000
0000
0000
0000
1000
0000
0001
0000
0100
0000
0010
0000
1000
0000
0000
0100
,
0000
0000
0100
0000
0000
0000
1000
0000
0010
0000
0100
0000
0010
0000
0000
1000
,
0000
0000
0001
0000
0000
0000
0010
0000
0100
0000
0010
0000
0001
0000
0000
1000
,
0000
0000
0001
0000
0000
0000
0001
0000
0100
0000
0010
0000
0100
0000
0000
0100
,
0000
0000
0010
0000
0000
0000
1000
0000
0100
0000
0010
0000
0001
0000
0000
1000
,
0000
0000
0001
0000
0000
0000
0100
0000
0010
0000
0100
0000
0001
0000
0000
0010
,
0000
0000
0100
0000
0000
0000
1000
0000
0100
0000
0010
0000
0001
0000
0000
0100
,
0000
0000
0010
0000
0000
0000
0010
0000
1000
0000
0001
0000
0010
0000
0000
0100
,
0000
0000
0100
0000
0000
0000
0001
0100
0001
0000
0100
0000
0000
0010
0100
0010
,
1000
0000
0100
0000
0000
1000
0001
0100
0010
0100
0010
0000
0000
0000
0010
0000
,
1000
0000
0100
0000
0000
1000
0001
0100
0010
0000
0100
0010
1000
0000
0100
0000
,
1000
0001
0100
0000
0000
0010
1000
0000
0001
0000
0010
0000
0100
0000
1000
0000
,
0001
0100
0010
0000
0000
0000
0100
0000
1000
0000
0100
0010
1000
0000
1000
0000
,
0001
0010
0100
0000
0000
0010
0001
0100
0010
0000
0010
0100
0001
0000
1000
0000
,
0100
0000
1000
0000
0001
0000
0100
1000
0100
0001
0010
0100
1000
0000
1000
0000
,
0100
0000
0000
1000
0001
1000
0100
0000
0100
0010
0001
1000
0001
0000
0010
0100
,
1000
0001
0100
0010
0100
0000
0000
0001
1000
0001
0100
0000
0010
0000
0000
0010
,
1000
0001
0010
0000
0100
1000
0001
0000
0100
0000
0010
0000
0110
0000
0000
0010
,
1000
0001
0000
0010
0000
0100
0000
1000
0000
0001
0000
0100
0000
0010
0000
1000
,
0100
0000
0010
0000
0001
0100
0010
0000
1000
0000
0001
0010
0100
0000
0000
0000
,
1000
0001
0100
0000
0010
0000
0000
1000
0100
0000
0010
0000
0001
0000
0000
0000
,
0001
1000
0010
1000
0100
0000
1000
0010
0100
0000
0010
0000
0100
0000
0000
0000
,
0010
1000
0001
0010
0100
0000
1000
0001
0100
0010
0100
0000
0110
0000
0000
0010
,
0100
0000
0001
0000
1000
0000
0100
0010
0001
1000
0001
0000
1001
0000
0000
1000
,
0000
0001
0000
1000
0001
0000
0001
0100
0010
0100
0010
0000
1000
0000
0100
0010
,
0000
0001
0100
0000
0010
0000
1000
0100
0000
0010
0001
0000
1000
0000
0010
0100
,
0000
0100
0001
1000
0010
0000
0100
0010
1000
0000
0001
0000
0010
0000
0100
1000
,
0000
1000
0001
0100
0010
0000
1000
0001
0010
0000
0100
0000
1100
0000
0000
0000
,
0011
0000
0001
0100
0010
0000
1000
0001
0100
0010
1000
0000
0001
0000
0010
0100
,
0000
0100
1000
0000
1001
0000
0001
0100
0000
0100
0010
0100
0010
0000
1000
0100
,
1000
0000
0001
0100
0001
0000
0010
0100
1000
0000
0001
0000
0100
0000
0010
1000
,
0000
0000
1000
0001
0100
0000
0010
1000
0100
0000
0010
0000
0011
0000
0000
0000
,
1100
0000
0010
0010
0001
0100
1010
0100
,
0011
0000
0100
0000
0000
0010
1000
0001
0100
0010
1000
0000
1100
0000
1010
0000
,
0000
0000
0100
0010
1000
0000
0001
0010
0100
0010
0001
0000
1001
0000
0110
0000
,
0000
0010
0100
0000
0001
0000
0010
0100
1000
0000
0001
0100
0010
0000
0110
0000
,
0000
0000
0010
1000
0001
0000
0100
0000
0110
0000
1001
0000
0000
0001
0100
0000
,
0110
0000
0010
0000
1000
0100
0010
0001
0100
0000
0110
0000
0000
0010
1000
0000
,
1001
0000
1000
0001
0100
0000
0010
0100
0020
0000
0000
0000
0000
0130
0001
0000
,
0011
0000
0110
0000
0100
1000
0001
0000
0100
0010
1000
0000
1001
0000
0110
0000
,
0000
0000
0010
1000
0001
1000
0100
0010
0001
0100
0010
0000
0110
0000
1001
0000
,
0001
0010
0100
0010
0100
1000
0001
0000
0101
0000
0110
0000
1010
0000
1100
0000
,
0010
1000
0100
0000
0110
0000
0011
0000
0001
0100
0010
0000
1010
0000
1000
0100
,
1000
0000
0001
0100
0010
0000
1000
0001
0010
0000
0010
0100
1000
0000
1001
0000
,
0000
0000
0001
0100
0010
1000
0010
0100
0010
0000
1000
0100
0010
0001
0100
0000
,
0000
0000
0010
0100
0010
1000
0001
0010
0100
0000
1000
0001
0100
0010
1000
0000
,
0000
0000
0100
0010
0001
0000
1000
0100
0010
0000
0010
0100
1000
0001
0010
0000
,
0000
0000
0001
0010
0100
0010
0001
0000
1010
0000
0010
0000
0100
0001
0010
0000
,
0000
0000
0100
0010
0001
0000
1000
0010
0100
0002
0103
0000
0110
0000
0010
1000
,
0000
0001
0100
0000
0110
0000
0010
1000
0000
0100
1000
0000
1001
0000
0001
0100
,
0000
0100
0010
1000
0001
0000
0001
0010
0100
0000
0110
0000
0010
0000
0001
0100
,
0000
0100
0010
0100
0010
0000
0010
1000
0001
0000
0010
0000
1100
0000
0000
0000
,
0011
0000
0001
0100
0010
0000
0010
0100
0010
1000
0100
0000
0011
0000
0001
0100
,
0000
0100
0010
0000
1010
0000
1000
0100
0000
0100
0010
0001
0101
0000
0000
0000
,
0110
0000
0010
1000
0001
0000
0010
0100
1000
0000
1001
0000
0101
0000
0100
0010
,
0000
0010
1000
0100
0010
0000
0001
0100
0010
0000
1000
0000
2200
0000
0000
0000
,
3311
0000
0000
0000
;

//---------------dance-single - ----------------
#NOTES:
     dance-single:
     :
     Medium:
     5:
     0.304,0.319,0.102,0.008,0.034:
0000
0000
0000
0000
,
0000
0000
0000
0000
,
1000
0000
0000
0000
0010
0000
0000
0000
0100
0000
0000
0000
0010
0000
0000
0010
,
0000
0000
0010
0000
0000
0000
0000
0000
1000
0000
0000
0000
0100
0000
0000
0100
,
0000
0000
0100
0000
0000
0000
0000
0000
1000
0000
0000
0000
0001
0000
0000
0001
,
0000
0000
0001
0000
0000
0000
0000
0000
0100
0000
0000
0000
0010
0000
0000
0010
,
0000
0000
0010
0000
0000
0000
0000
0000
1000
0000
0000
0000
0100
0000
0000
0100
,
0000
0000
0100
0000
0000
0000
0000
0000
1000
0000
0000
0000
0001
0000
0000
0001
,
0000
0000
0001
0000
0000
0000
0000
0000
0100
0000
0000
0000
0010
0000
0000
0010
,
0000
0000
0010
0000
0000
0000
0000
0000
1000
0000
0000
0000
0100
0000
0000
0100
,
0000
0100
1000
0000
,
0001
0000
0100
0000
,
0010
0000
0010
1000
,
0100
1000
0000
0000
0001
0000
0100
0000
,
0010
0100
0000
0000
0010
0000
1000
0000
,
0001
1000
0000
0000
0001
0000
0100
0000
,
0010
0000
1000
0000
0100
0000
1000
0001
,
0100
0010
1000
0001
,
1000
0100
1000
0000
1000
0000
0010
0000
,
0100
0000
0010
0000
0100
0001
0100
0000
,
0010
1000
0100
1000
,
0001
0000
0100
0001
0100
0000
0010
0000
,
1000
1100
1000
1001
,
0001
0101
0010
0110
,
0010
0000
1000
0000
0100
1000
0001
0000
,
0100
0010
1000
0010
,
0000
0010
1000
0001
,
1000
0000
0100
0000
1000
0000
0001
0100
,
0010
0000
1000
0000
0100
0000
1000
0001
,
0100
0010
1000
1001
,
1001
0000
0010
0000
0100
0000
0001
1000
,
0100
0000
1000
0001
0100
0000
0010
0100
,
0010
0000
1000
0000
0100
0000
1000
0001
,
0100
0010
1000
1010
,
0101
0000
0000
0000
0010
0000
1000
0100
,
0100
0100
0000
0000
1000
0000
0001
0001
,
0000
0000
0100
0000
0010
0000
1000
1000
,
0000
0000
0100
0000
0010
0000
0001
0001
,
0000
0000
0100
0000
0010
0010
0000
0000
,
1000
0000
0100
0000
1000
1000
0000
0000
,
0001
0100
0020
0000
,
1030
0000
0100
0000
1000
0000
0001
0100
,
0000
0000
0010
0000
1000
0000
0100
1000
,
0000
0000
0001
0000
0100
0000
0010
1000
,
0000
0000
0100
0000
1000
0001
0100
0000
,
0010
0000
1000
0000
0100
1000
0001
0000
,
0100
0010
0100
0010
,
0000
0000
0010
0000
1000
0000
0100
1000
,
0000
0000
0001
0000
0100
0000
0010
0100
,
0000
0000
0010
0000
1000
0000
0001
1000
,
0000
0001
1000
0100
,
1000
0000
0001
0100
0010
0000
0010
0100
,
0010
0000
1000
0000
0010
0000
0100
0001
,
0100
0010
1000
1010
,
0101
0000
0001
0000
0010
0000
0100
1000
,
0001
0000
0100
0010
0100
0000
0010
1000
,
0100
0000
1000
0000
0001
0000
0100
0001
,
0010
0100
1000
1010
,
0101
0000
0000
0000
;

//---------------dance-single - ----------------
#NOTES:
     dance-single:
     :
     Easy:
     2:
     0.180,0.196,0.085,0.085,0.000: // measure 1
0000
0000
0000
0000
,  // measure 2
0000
0000
0000
0000
,  // measure 3
1000
0010
0100
0020
,  // measure 4
0000
0030
0000
0000
1000
0000
0200
0000
,  // measure 5
0000
0300
1000
0002
,  // measure 6
0000
0003
0000
0000
0100
0000
0020
0000
,  // measure 7
0000
0030
0000
0000
1000
0000
0200
0000
,  // measure 8
0000
0300
0000
0000
1000
0000
0002
0000
,  // measure 9
0000
0003
0000
0000
0100
0000
0020
0000
,  // measure 10
0000
0030
0000
0000
1000
0000
0200
0000
,  // measure 11
0000
0300
0000
0000
1000
0000
0000
0000
,  // measure 12
0001
0000
0100
0000
,  // measure 13
0010
0000
1000
0000
,  // measure 14
0100
0000
0010
0000
,  // measure 15
0001
0000
0100
0000
,  // measure 16
0010
0000
1000
0000
,  // measure 17
0100
0000
0010
0000
,  // measure 18
0001
0000
0100
0000
,  // measure 19
0010
0000
1000
1000
,  // measure 20
1000
0000
0100
0100
,  // measure 21
0100
0000
0010
0000
,  // measure 22
0001
0100
0010
1000
,  // measure 23
0000
0100
0000
0010
,  // measure 24
0000
0001
0000
0100
,  // measure 25
0000
0010
1000
0100
,  // measure 26
0000
0010
0001
0100
,  // measure 27
0000
0010
0000
1000
,  // measure 28
0000
0001
0000
1001
,  // measure 29
0000
0001
0000
0100
,  // measure 30
0000
0010
0000
0110
,  // measure 31
1001
0100
0000
1000
,  // measure 32
0000
0001
0000
0100
,  // measure 33
0000
0010
0000
1000
,  // measure 34
0000
0001
0000
1001
,  // measure 35
0110
1001
0000
0100
,  // measure 36
0100
0000
1000
0001
,  // measure 37
0000
0001
0000
0100
,  // measure 38
0000
0010
0000
1000
,  // measure 39
0000
0001
0000
0100
,  // measure 40
0000
0010
0010
0000
,  // measure 41
1000
0100
2000
0000
,  // measure 42
3001
0100
0000
0010
,  // measure 43
0000
1000
0000
0100
,  // measure 44
0000
0100
0000
1000
,  // measure 45
0000
0001
0000
0100
,  // measure 46
0000
0010
0000
1000
,  // measure 47
0000
0001
0000
0010
,  // measure 48
0010
0010
0000
0100
,  // measure 49
0100
0100
0000
1000
,  // measure 50
0001
0100
0000
0020
,  // measure 51
0000
1030
0000
0100
,  // measure 52
0000
0010
0000
0001
,  // measure 53
0000
0100
0000
0010
,  // measure 54
0000
1000
0000
1001
,  // measure 55
0110
0001
0000
1000
,  // measure 56
0000
0100
0000
0010
,  // measure 57
0000
0001
0000
0100
,  // measure 58
0000
0010
0000
1001
,  // measure 59
0110
0000
0000
0000
;
