#TITLE:Good Times;
#SUBTITLE:;
#ARTIST:Roll Deep feat. Jodie Connor;
#TITLETRANSLIT:;
#SUBTITLETRANSLIT:;
#ARTISTTRANSLIT:;
#CREDIT:;
#BANNER:;
#BACKGROUND:;
#LYRICSPATH:;
#CDTITLE:;
#MUSIC:Roll Deep feat. Jodie Connor - Good Times (2010) www.eNutka.net.ogg;
#OFFSET:0.674;
#SAMPLESTART:62.230;
#SAMPLELENGTH:15.000;
#SELECTABLE:YES;
#BPMS:0.000=125.020;
#STOPS:;
#BGCHANGES:;

//---------------dance-single - ----------------
#NOTES:
     dance-single:
     :
     Hard:
     8:
     0.524,0.493,0.121,0.078,0.253: // measure 1
0000
0000
0000
0000
,  // measure 2
1000
0000
0001
0000
0010
0000
0100
0000
1000
0000
0000
0001
0000
0000
0100
0000
,  // measure 3
0000
0000
0000
0000
0010
0000
1000
0001
0000
0000
0001
0000
0010
0000
0100
0000
,  // measure 4
1000
0000
0001
0000
0100
0000
0010
0000
1000
0000
0000
0001
0000
0000
0200
0000
,  // measure 5
0000
0000
0310
1000
0001
0010
0100
0000
,  // measure 6
0100
0000
1000
0000
0001
0000
0100
0000
0010
0000
0000
1000
0000
0000
0001
0000
,  // measure 7
0000
0000
0000
0000
0001
0000
0010
0100
0000
0000
1000
0000
0001
0000
0100
0000
,  // measure 8
0010
0000
1000
0000
0001
0000
0010
0000
0100
0000
0000
0010
0000
0000
0002
0000
,  // measure 9
0000
0000
1003
0010
0100
0010
1000
0001
,  // measure 10
0010
0000
0100
0000
1000
0001
0000
0000
1000
0000
0001
0000
0100
0010
0000
1000
,  // measure 11
0000
0000
0000
0100
0010
0000
0001
0100
0000
0000
0010
0000
1000
0000
0001
0000
,  // measure 12
0010
0000
0100
0000
1000
0001
0000
0000
0001
0000
0100
0000
0010
1000
0000
0100
,  // measure 13
0010
0000
0001
0000
0100
0000
0010
0000
1000
0000
0000
0001
0000
0000
0010
0000
,  // measure 14
0100
0000
1000
0000
0001
0100
0000
0000
0010
0000
0100
0000
0010
1000
0000
0100
,  // measure 15
0000
0000
0000
0000
1000
0000
0001
0100
0000
0000
0010
0000
1000
0000
0001
0000
,  // measure 16
0010
0000
0100
0000
0010
0000
0001
0000
0001
1000
0000
0001
1000
0000
0100
0000
,  // measure 17
0010
0001
0000
0000
0001
0000
0100
0000
0020
0000
0000
0000
1030
0000
0000
0000
,  // measure 18
0000
0010
0100
0000
0010
1000
0001
0000
,  // measure 19
1000
0001
0010
0100
1000
1000
1000
0000
,  // measure 20
0001
0100
0010
0000
0010
0100
0001
1000
,  // measure 21
0010
1000
0100
0010
0001
1000
0001
0000
,  // measure 22
1001
0000
0000
0000
0001
0000
0100
0000
0010
1000
0010
0100
0010
0000
0000
0100
,  // measure 23
0000
0000
0010
1000
0001
0000
0010
0000
0100
0000
1000
0000
0001
0000
0000
1000
,  // measure 24
0000
0000
0000
0001
0100
0000
0010
0000
0100
0000
0010
0000
1000
0000
0001
0000
,  // measure 25
0010
0100
1000
0100
0001
0100
1000
0001
,  // measure 26
0100
0100
0100
0000
0000
0110
0000
1001
,  // measure 27
0000
0000
1000
0001
0100
0000
0010
1000
,  // measure 28
0001
0010
0100
0000
0000
1001
0000
0110
,  // measure 29
0000
0000
0010
0000
1000
0000
0001
0100
0000
0000
0010
0000
1000
0000
0001
0000
,  // measure 30
0100
0010
0200
0310
0000
1001
0000
0110
,  // measure 31
0000
0000
0010
0000
1000
0000
0001
0010
0000
0000
0100
0000
1000
0000
0001
0000
,  // measure 32
0100
0000
0010
0000
1000
0000
0000
0000
0000
0000
0001
0000
0000
0100
0000
0000
,  // measure 33
0010
1000
2000
0000
3000
0000
0000
1000
,  // measure 34
0100
0000
0010
0000
0001
0000
0100
0000
0010
0000
0000
1000
0000
0000
0010
0000
,  // measure 35
0000
0000
0010
0000
0100
0000
0010
1000
0000
0000
0100
0000
0010
0000
0001
0000
,  // measure 36
0100
0000
0010
0000
0100
0000
0001
0000
0010
0000
0000
0100
0000
0000
2000
0000
,  // measure 37
0000
0000
3001
0100
0010
0100
0010
1000
,  // measure 38
0001
0000
0100
0000
0010
0000
0100
0000
0010
0000
0000
1000
0000
0000
0001
0000
,  // measure 39
0000
0000
0000
0000
0001
0000
0010
0100
0000
0000
0010
0000
0001
0000
0100
0000
,  // measure 40
0010
0000
1000
0000
0100
0000
1000
0000
0010
0000
0000
0100
0000
0000
0020
0000
,  // measure 41
0000
0030
1000
0001
0100
0010
1001
0000
,  // measure 42
1000
0000
0001
0000
0100
0010
0000
0000
1000
0000
0001
0000
0010
0100
0000
1000
,  // measure 43
0000
0000
0000
0000
0001
0000
0100
0010
0000
0000
1000
0000
0100
0000
1000
0000
,  // measure 44
0001
0000
1000
0000
0100
1000
0000
0000
0010
0000
0100
0000
0010
0100
0000
0010
,  // measure 45
0100
0000
0010
0000
0010
0000
1000
0000
0100
0000
0000
1000
0000
0000
0001
0000
,  // measure 46
1000
0000
0100
0000
1000
0001
0000
0001
1000
0000
0010
0000
1000
0100
0000
1000
,  // measure 47
0000
0000
0000
0000
0001
0000
1000
0100
0000
0000
1000
0000
0010
0000
1000
0000
,  // measure 48
0100
0000
1000
0000
0001
0000
0100
0000
0010
1000
0000
1000
0100
0000
1000
0001
,  // measure 49
1000
0100
0000
0000
1000
0000
0001
0000
0100
0000
0000
0000
0110
0000
0000
0000
,  // measure 50
0010
1000
0001
0010
0100
0000
0100
0100
,  // measure 51
1000
0001
0100
0010
0100
0001
0010
0100
,  // measure 52
1000
0001
0100
0000
0100
0010
1000
0000
,  // measure 53
0001
0000
0010
0000
0100
0000
1000
0000
0001
0000
0100
0000
0010
0100
0000
0000
,  // measure 54
0000
0000
0010
0000
1000
0000
0001
0000
0010
0001
0000
0000
0001
0000
0100
0000
,  // measure 55
0010
0000
0100
0000
0001
0010
0000
0000
0010
0000
0100
0000
2000
0000
0001
3000
,  // measure 56
0001
0000
0100
0000
0010
1000
0000
0100
1000
0000
0001
0100
0010
0000
0000
0000
,  // measure 57
0010
1000
0001
0010
0100
1000
0001
0000
,  // measure 58
0001
0100
0010
0000
0000
1001
0000
0110
,  // measure 59
0000
0000
0000
0000
0010
1000
0000
0001
0000
0000
1000
0000
0010
0000
0100
0000
,  // measure 60
0010
1000
0002
1000
0003
1001
0000
0110
,  // measure 61
0000
0000
0010
0000
1000
0000
0001
0010
0000
0000
0010
0000
0100
0000
1000
0000
,  // measure 62
0001
0100
0020
1000
0030
1001
0000
0110
,  // measure 63
0000
0000
0010
0000
1000
0000
0001
0010
0000
0000
0010
0000
0100
0000
1000
0000
,  // measure 64
0001
0000
0100
0000
0010
0000
0000
0000
0000
0000
1000
0000
0000
0001
0000
0000
,  // measure 65
0100
0010
1000
0000
0000
0000
0000
0000
,  // measure 66
0001
0000
0100
0000
0010
0000
1000
0000
0001
0000
0000
0010
0000
0000
0100
0000
,  // measure 67
0000
0000
0000
0000
0100
0000
1000
0001
0000
0000
0001
0000
0100
0000
0010
0000
,  // measure 68
1000
0000
0001
0000
0010
0000
0100
0000
1000
0000
0000
0001
0000
0000
0200
0000
,  // measure 69
0000
0310
1000
0001
0010
0100
1100
0000
,  // measure 70
1000
0000
0001
0000
0100
0000
0010
0000
1000
0000
0000
0001
0000
0000
0100
0000
,  // measure 71
0000
0000
0000
0000
0010
0000
1000
0001
0000
0000
0001
0000
0010
0000
0100
0000
,  // measure 72
1000
0000
0001
0000
0100
0000
0010
0000
1000
0000
0000
0001
0000
0000
0100
0000
,  // measure 73
0000
0000
0010
0100
0001
0010
0100
1000
,  // measure 74
1001
0000
0000
0000
;

//---------------dance-single - ----------------
#NOTES:
     dance-single:
     :
     Medium:
     6:
     0.350,0.336,0.156,0.000,0.000:
0000
0000
0000
0000
,
1000
0010
0100
0000
0010
0000
1000
0000
,
0100
1000
0000
0001
,
0100
0010
1000
0000
0100
0000
1000
0000
,
0001
0000
0000
0000
,
0010
1000
0100
0000
1000
0000
0001
0000
,
0100
0000
0010
0000
1000
0100
1000
0000
,
0001
0100
0010
1000
,
0100
0000
1000
0001
,
0100
0010
1000
0000
0100
1000
0100
0000
,
1000
0001
0100
0010
,
1000
0010
1000
0000
0010
0100
0010
0000
,
0010
1000
0100
0010
,
0001
0100
1000
0010
,
1000
0000
0100
0000
1000
0001
0100
0000
,
0010
0000
1000
0000
0100
1000
0001
0000
,
0100
0000
0010
0000
1000
0100
1000
0000
,
1001
0000
0100
0000
0001
1000
0100
0000
,
1000
0000
0010
0000
0100
0001
0100
0000
,
0010
0000
1000
0000
0100
1000
0001
0000
,
0100
0000
0010
0000
1000
0010
1000
0000
,
0100
0000
1000
0000
1000
0001
0100
0000
,
0010
0000
1000
0000
0100
1000
0001
0000
,
0101
0000
0010
1000
0100
0000
1000
0000
,
0001
0100
0010
0000
0010
0000
1000
0000
,
0100
1000
0001
0000
0000
1001
0000
0110
,
0000
0000
0010
0000
1000
0000
0100
1000
,
0001
0000
0100
0000
0000
0110
0000
1001
,
0000
0000
1000
0000
0100
0000
1000
0001
,
0100
0000
0010
0000
0000
1001
0000
0101
,
0000
0000
0010
0000
1000
0000
0100
1000
,
0001
0000
0100
0000
0000
0010
0000
0000
,
1000
0000
0100
0000
1000
0001
0100
0000
,
0010
1000
0100
1000
,
0001
0100
0010
1000
,
0100
1000
0001
0100
,
0010
1000
0100
1000
,
0001
0100
0010
1000
,
0100
0000
0010
0001
0100
0000
0010
0000
,
1000
0100
0010
0100
,
1000
0000
0001
0100
0010
0000
1010
0000
,
0100
0101
0010
1100
,
1000
0000
0001
0100
0010
0000
1000
0000
,
1001
0100
1001
0010
,
0001
0000
1000
0000
0010
0100
0010
0000
,
1000
0100
0011
0101
,
0010
0000
1000
0100
1000
0000
0001
0000
,
0010
0001
0100
0000
0010
1000
0100
0000
,
1000
0000
0001
0000
0100
0010
1000
0000
,
0100
0010
0101
0100
,
0110
1000
0001
0010
,
0001
1000
0010
0000
0100
0000
0010
0000
,
1000
0000
0001
0000
0010
0001
0100
0000
,
0010
0000
1000
0000
0100
0010
0001
0000
,
0001
0000
1000
0000
0010
0100
0010
0000
,
1000
0000
0100
0000
1000
0001
0100
0000
,
0010
0000
1000
0000
0100
1000
0001
0000
,
1100
0000
0101
0000
0000
0010
0000
1000
,
0000
0100
1000
0001
,
0100
0010
1000
0000
0000
0100
0000
1000
,
0000
0000
0001
0000
0100
0000
0010
1000
,
0100
0000
1000
0000
0000
0001
0000
0100
,
0000
0000
0010
0000
1000
0000
0100
1000
,
0001
0000
0101
0000
0000
0010
0000
0000
,
1000
0000
0100
0000
1000
0001
0100
0000
,
0010
1000
0100
1000
,
0001
0000
0100
0010
1000
0000
0100
0000
,
1000
0001
0100
0001
,
0010
0000
0100
1000
0001
0000
0101
0000
,
1010
0100
1000
0001
,
0100
0000
0010
1000
0100
0000
1000
0000
,
0001
0000
0100
0000
0010
1000
0100
0000
,
1000
0000
0001
0000
0100
0010
1000
0000
;

//---------------dance-single - ----------------
#NOTES:
     dance-single:
     :
     Easy:
     3:
     0.200,0.208,0.050,0.000,0.000:
0000
0000
0000
0000
,
1000
0010
0100
0000
,
0010
0000
1000
0100
,
1000
0000
0001
0000
,
0100
0010
1000
0000
,
0100
0000
1000
0000
,
0001
0000
0100
0010
,
1000
0000
0100
0000
,
1000
0000
0001
0100
,
0010
0000
1000
0000
,
0100
0000
0010
0001
,
0100
0000
0010
0000
,
1000
0000
0100
1000
,
0001
0000
0100
0000
,
0010
0000
1000
0000
,
0100
0010
0001
0000
,
0100
0000
0010
0000
,
1000
0100
0000
1000
,
0000
0001
0100
0010
,
1000
0000
0100
0000
,
1000
0000
0001
0000
,
0100
0000
0010
0000
,
1000
0000
0100
1000
,
0001
0000
0100
0000
,
0010
0000
1000
0000
,
0001
0000
1000
0000
0000
0001
0000
1000
,
0000
0001
0000
0100
,
0010
0000
1000
0000
0000
1000
0000
0001
,
0000
0001
0000
0100
,
0010
0000
1000
0000
0000
0100
0000
1000
,
0000
0001
0100
0010
,
1000
0000
0100
1000
,
0001
0000
0100
0000
,
1010
0000
0001
0000
,
0100
0010
1000
0000
,
0100
0000
1000
0000
,
0001
0100
0010
1000
,
0100
0000
1000
0000
,
0001
0100
0010
0000
,
0010
1000
0100
0000
,
0010
0001
0100
0000
,
0010
1000
0100
0000
,
1000
0000
0001
0000
,
0100
0010
0100
0010
,
0100
0000
0010
0000
,
1000
0001
1000
0001
,
1000
0000
0001
0000
,
0100
0001
0100
0001
,
0100
0000
0010
0000
,
1001
0000
1100
0000
,
0101
0000
1010
0000
,
1001
0000
0100
0000
,
1000
0000
0000
0000
0001
0000
0100
0010
,
0000
0010
1000
0000
,
0100
0000
1000
0000
,
0001
0000
0100
0000
,
0010
0000
1000
0000
,
0100
0000
1000
0000
0000
0001
0000
1000
,
0000
0001
0000
0100
,
0010
0000
1000
0000
0000
0001
0000
1000
,
0000
0001
0000
0100
,
0010
0000
1000
0000
0000
0100
0000
1000
,
0000
0001
0000
0100
,
0010
1000
0000
0000
,
0100
1000
0000
0001
,
0100
0000
0010
0000
,
1000
0000
0100
1000
,
0001
0000
0100
0000
,
0010
0000
1000
0100
,
1000
0000
0001
0000
,
0100
0000
0010
1000
,
0100
0000
1000
0000
,
0001
0000
0100
0010
,
1001
0000
0000
0000
;
