#TITLE:Fer Sure (DJ S3RL Remix);
#SUBTITLE:(From Nonstop Megamix);
#ARTIST:The Medic Droid;
#TITLETRANSLIT:;
#SUBTITLETRANSLIT:;
#ARTISTTRANSLIT:;
#CREDIT:;
#BANNER:;
#BACKGROUND:;
#LYRICSPATH:;
#CDTITLE:;
#MUSIC:S3RL-S3RLNowPresents.ogg;
#OFFSET:0.805;
#SAMPLESTART:40.510;
#SAMPLELENGTH:14.980;
#SELECTABLE:YES;
#BPMS:0.000=178.220,211.000=178.300,338.500=190.000,339.000=178.220,384.500=356.440,385.500=178.200,393.000=356.440,394.000=178.200,433.000=178.080,451.000=178.220,590.500=179.000,594.500=178.220,690.500=180.000,692.000=178.220;
#STOPS:370.000=0.084
,370.250=0.084
,382.500=0.084
,382.750=0.084
,383.000=0.084
,383.250=0.084
;
#BGCHANGES:;

//---------------dance-single - ----------------
#NOTES:
     dance-single:
     :
     Challenge:
     13:
     1.000,1.000,0.310,0.393,1.000:
0000
0000
0000
0000
0000
0000
1000
0001
,
0100
0100
0010
1000
0001
0000
0001
1000
,
0010
0000
0110
0000
1001
0000
0000
1010
,
0000
0101
0000
0000
1001
0000
0000
1001
,
0000
0000
0011
0000
0000
0000
1000
0100
1000
0000
0001
0000
0101
0000
0001
1000
,
0010
0000
1000
0001
0100
0000
0001
0100
0010
0000
1000
0010
0100
0000
0010
1000
,
0100
0000
0010
0001
0100
0000
0010
1000
0001
0100
0010
1000
0001
0000
1000
0010
,
0100
0000
0010
1000
0001
0000
0100
0010
1000
0000
0001
0010
0100
0010
0001
0100
,
0010
0000
0010
1000
0001
0100
0010
1000
0001
0000
1000
0001
1000
0000
0010
0100
,
0010
0000
1000
0100
0010
0000
0001
0100
0010
0000
1000
0001
0100
0000
0010
1000
,
0100
0000
0010
0001
1000
0000
0010
1000
0001
1000
0100
0010
0001
0000
0001
0100
,
0010
0000
1000
0001
0100
0000
0010
1000
0001
0000
0100
0001
0100
0000
0001
1000
,
0001
0010
0001
0010
0001
0000
0001
1000
0010
1000
0010
1000
0100
0000
0010
0001
,
1000
0000
0010
1000
0001
0000
1000
0100
0010
0000
0001
0010
0100
0000
1000
0100
,
1000
0000
0010
1000
0010
0000
0100
0010
0100
0000
0010
0100
0001
0000
0001
1000
,
0010
0000
0010
1000
0100
1000
0100
1000
0100
0000
1000
0001
0100
0000
0010
1000
,
0001
0000
0010
0100
1000
0000
1000
0001
0010
0100
1000
0001
1001
0000
0000
0000
,
0000
1000
0001
0100
0010
2000
0000
3002
,
0000
1003
0010
1000
0100
0020
0000
0032
,
0000
0000
1003
0001
0100
0020
0000
2030
,
0000
0000
3002
0000
0000
0000
0103
0000
0020
0000
0000
0030
1001
0000
0001
0100
,
0001
0000
1000
0100
1000
0000
0010
1000
0010
0000
1000
0001
0100
0000
0010
1000
,
0001
0000
1000
0100
1000
0000
1000
0010
1000
0100
0010
0001
0010
0000
0001
0010
,
0001
0000
1000
0001
1000
0000
0010
1000
0010
0000
1000
0001
0010
0000
0100
1000
,
0010
0000
1000
0001
0100
0000
0010
1000
0100
0010
0001
0100
0010
0000
1000
0001
,
0100
0000
0010
1000
0100
0000
0010
0001
1000
0000
0001
1000
0100
0000
1000
0010
,
1000
0000
0010
0100
0010
0000
1000
0001
1000
0000
0001
0010
0001
0000
0010
0100
,
1000
0000
0001
0100
0010
0000
1000
0001
0100
0000
0010
1000
0001
0000
1000
0010
,
0100
0000
0010
1000
0001
0000
1000
0010
1000
0000
0100
1000
0100
0000
1000
0001
,
0010
0000
0100
1000
0010
0000
0100
0010
1000
0000
0001
0100
0010
0000
1000
0100
,
0010
0000
0001
0100
0010
0000
1000
0100
0010
0001
1000
0001
1000
0000
0010
0000
,
1000
0100
1100
0000
0011
0000
0001
0001
,
1000
1000
1010
0000
0101
0000
0010
0010
,
1000
1000
0001
0001
1000
0000
1000
0001
,
0011
0000
0001
1000
1010
0000
1000
0001
,
1000
0000
0000
0000
0000
0000
0000
0000
0000
0010
0000
0000
1000
0000
0000
0000
0000
0000
0000
0000
0000
1000
0000
0000
0001
0000
0000
0000
0000
0000
0000
0000
0000
0000
0000
0000
1000
0000
0000
0000
0000
0000
0001
0000
0100
0000
0001
0000
,
0100
0000
0000
0010
0100
0010
0100
0000
0000
0010
1000
0010
1000
0000
0000
0100
1000
0100
2000
0000
0000
0000
0000
0000
,
0000
0000
3010
1000
0001
0200
0000
0000
,
0310
2000
0000
3002
0000
0203
0000
0000
,
0310
2000
0000
3200
0000
0302
0000
0000
,
0103
2000
0000
3020
0000
0032
0000
0000
,
0013
2000
0000
3020
0000
0230
0000
0000
,
0310
2000
0000
3002
0000
0023
0000
0000
,
0130
0020
0000
0032
0000
2003
0000
0000
,
3010
2000
0000
0000
0000
0000
3001
1000
,
0010
0100
0110
0010
1000
1001
0001
0010
,
0100
1100
0100
0110
0010
0011
0001
0100
,
0010
1010
1000
1100
0100
1100
1000
0010
,
1000
1001
0001
0010
1000
0010
0001
0100
,
1000
0100
0110
1000
0100
0110
0010
0001
,
0100
0110
0010
1010
1000
1001
0001
0010
,
0100
1100
1000
1001
0001
0011
0001
0010
,
0100
0000
1200
0000
0000
0000
0000
0000
0000
0000
0000
0000
1300
0001
1000
0001
,
1000
0100
1000
0100
0010
0001
0010
0001
0100
0001
0100
0010
1000
0100
0010
0001
,
0100
0010
1000
0100
0010
0001
1000
0100
0010
0001
0100
0010
1000
0100
0010
0001
,
1000
0001
1000
0010
0100
0010
1000
0100
0010
0100
1000
0010
0100
0001
0010
0001
,
1000
0010
1000
0100
1000
0100
0010
0001
0010
0001
0100
0010
1000
0100
0010
0100
,
0010
0001
0100
0010
1000
0100
0010
0001
0100
0001
0100
0010
1000
0010
1000
0100
,
1000
0100
1000
0001
1000
0001
1000
0001
0100
0001
0100
0001
0100
0001
0100
0001
,
0100
0010
1000
0001
0100
0010
1000
0001
0100
0010
1000
0100
0010
0001
1000
0100
,
0010
0001
0010
0100
1000
0100
0010
0001
0100
0010
1000
0100
0010
0001
0010
0001
,
0100
0001
0100
0001
1000
0100
1000
0100
0010
0001
0010
0001
1000
0010
1000
0010
,
0100
0001
0100
0001
0010
0001
0010
0001
0100
0010
0100
0010
1000
0100
1000
0100
,
0010
0100
0010
0100
1000
0010
1000
0010
1000
0010
1000
0100
0010
0001
1000
0100
,
0010
0001
0100
0010
1000
0100
0010
0001
1000
0100
1000
0001
0100
0010
1000
0001
,
0100
0010
1000
0100
1000
0100
1000
0100
0010
0001
0010
0001
0100
0010
0100
0010
,
1000
0100
1000
0100
0010
0100
0010
0100
1000
0010
1000
0100
1000
0001
1000
0100
,
0010
0100
1000
0010
0100
0010
1000
0100
0010
0001
0100
0010
1000
0001
0100
0010
,
1000
0100
0010
0001
1000
0010
0100
0010
1000
0001
0100
0010
1000
0100
1000
0100
,
1000
0100
1000
0010
1000
0010
0100
0010
0100
0010
1000
0100
1000
0100
0010
0001
,
0010
0001
1000
0001
1000
0001
0100
0010
1000
0100
0010
0100
1000
0100
0010
0001
,
0010
0001
1000
0010
1000
0010
0100
0001
0010
0100
1000
0001
1000
0001
1000
0001
,
1000
0001
0010
0001
0100
0010
0100
0010
1000
0001
1000
0001
0010
0001
0010
0001
,
0010
0001
0010
0001
0010
0001
0010
0001
0100
0010
2000
0000
0000
0000
0000
0000
,
3000
0000
1000
0000
0001
0000
0000
0000
0010
0000
0000
0000
0100
1000
0100
1000
,
0100
1000
0100
1000
0100
1000
0100
1000
0100
1000
0200
0000
0000
0000
0000
0000
,
0300
0000
0000
0000
1000
0000
0000
0000
0001
0000
0000
0000
0001
0100
0001
0100
,
0001
0100
0010
0100
0010
0100
0001
0100
0001
0100
0010
0100
0010
0100
0001
0100
,
0001
0100
0010
0100
0010
0100
0001
0100
0001
0100
0010
0100
0010
0100
0001
0100
,
0001
0100
0010
0100
0010
0100
0001
0100
0001
0100
0010
0100
0010
0100
0001
0100
,
0001
0100
0010
0100
0020
0000
0000
0000
2030
0000
0000
0000
3001
1000
0001
1000
,
0010
1000
0010
1000
0001
1000
0001
1000
0010
1000
0010
1000
0001
1000
0001
1000
,
0010
1000
0010
1000
0001
1000
0001
1000
0010
1000
0010
1000
0001
1000
0001
1000
,
0010
1000
0010
1000
0001
1000
0001
1000
0010
1000
0010
1000
0001
1000
0001
1000
,
0010
1000
0010
1000
0001
1000
0001
1000
0010
1000
0010
0000
1000
0000
1000
0000
,
0001
0001
0100
0100
0010
0000
0010
1000
,
0001
0000
1000
0000
0001
0000
0000
1000
,
0000
0010
0000
0000
0101
0000
0000
0010
,
0000
0000
1000
0000
0000
0000
0000
0000
1100
0000
0100
0000
1010
0000
1000
0010
,
0100
0000
0010
1000
0001
0000
1000
0010
0100
0000
0010
1000
0100
0000
0010
0001
,
0100
0000
0010
1000
0010
0000
1000
0100
1000
0000
0100
0010
0100
0000
0010
0001
,
0100
0000
0010
1000
0001
0000
1000
0001
0100
0000
0010
1000
0100
0000
0010
0001
,
1000
0000
0010
1000
0001
0000
1000
0010
1000
1000
1000
0000
0010
1000
0010
0000
,
1000
0100
0010
0000
0001
0100
0010
0000
1000
0010
1000
0000
0100
1000
0100
0000
,
0010
0001
0010
0000
0001
0100
0001
0000
1000
0010
1000
0000
0001
1000
0001
0000
,
0010
0100
0010
0000
0001
0010
0001
0000
0001
1000
0001
0010
0100
1000
1000
0001
,
1000
0000
0000
1000
0000
0001
0000
1000
0000
0001
0000
0000
1000
0000
0000
1000
0000
0000
0010
0000
0000
0010
0000
0000
,
0100
0000
0100
0000
0010
0000
1000
0000
0010
0000
1000
0002
1003
0000
0100
0000
,
1000
0000
0100
1000
0100
1000
0001
1000
,
0010
1000
1000
0100
0010
0001
0100
0010
,
1000
0000
1100
0000
0000
1000
0200
0000
0000
0000
1300
0000
0001
0000
0100
0000
,
0010
0010
0000
1000
0010
1000
0100
1100
,
0100
0000
0010
0000
0022
0033
0000
0000
1001
0000
0001
0000
0001
0000
0010
0000
,
0010
0100
0100
1000
0100
2000
0000
0000
,
0000
0000
0000
3000
0000
1000
0100
0000
1000
0000
0100
0000
0200
0000
0300
0000
,
2000
3001
0002
1003
0020
0030
2000
3000
,
0200
0310
0002
0103
0020
0030
0200
0300
,
0020
1030
0200
0310
0002
0003
2000
3000
,
0020
0000
0030
0000
0200
0000
0020
0000
0330
0000
0010
0000
1000
0100
0010
0000
,
0001
1000
0010
0000
0100
0001
0010
0000
0100
1000
0010
0000
1000
0001
0100
0000
,
0010
1000
0010
0000
1000
0100
1000
0000
0100
0010
0100
0000
0100
0000
1000
0000
,
1000
1010
0000
0101
0000
0001
0001
0010
,
0010
0000
0110
0000
0000
0000
1001
0000
0000
0000
1000
0000
0010
1000
0010
0000
,
1000
0100
1000
0000
0001
0010
0001
0000
0100
0001
0100
0000
0010
1000
0010
0000
,
1000
0100
1000
0000
0001
0010
0100
0000
1000
0010
0100
0000
0010
1000
0001
0000
,
0010
0001
0100
0000
0010
1000
0100
0000
1000
0001
0100
0000
0010
1000
0100
0000
,
0010
0001
1000
0000
0010
1000
0010
0000
1000
0100
1000
0000
0001
0000
0001
0000
,
0010
0100
0100
0100
0010
0011
0001
0001
,
1000
0000
0010
0000
0010
0000
0010
0000
1000
0100
1000
0000
1000
0000
0010
0000
,
0010
0110
0000
1001
0000
1000
1000
0010
,
0010
0110
0000
1001
0000
1000
1000
0010
,
0010
0100
0100
0101
0000
0001
0001
0011
,
0000
1000
1000
1100
0000
1001
0001
1001
,
0000
1000
0100
0000
0000
0000
0011
0000
0000
0000
0001
0000
1000
0000
0000
0000
,
1001
0000
1010
0000
0101
0002
0000
0000
,
0000
1003
0010
0100
0020
0000
0000
1030
,
0200
0000
0320
0000
0032
0000
0003
1000
,
0020
0000
0230
0000
0302
0000
0003
1000
,
0002
0000
2003
0000
3020
0000
0030
0100
,
0020
0000
0032
0000
0023
0000
0030
1000
,
0200
0000
0302
0000
0203
0000
0300
1000
,
0020
0000
0230
0000
0302
0000
0003
1000
,
0020
0000
0000
0030
0000
0100
0010
1000
,
0100
1100
0100
0010
0011
0001
1000
1100
,
0110
0010
0011
0001
1001
1000
0010
0110
,
0110
0010
0011
0010
1010
1000
0100
0110
,
0012
0000
2003
0000
3020
0000
0030
0100
,
0002
0000
0023
0000
0230
0000
0300
1000
,
0020
0000
0230
0000
0320
0000
0030
1000
,
0002
2003
3002
1003
,
0010
0000
0100
0000
0010
1000
0010
0000
,
1000
0100
0010
0001
,
1000
0010
0100
0001
,
0010
1000
0010
0001
,
0100
1000
0100
0001
,
0010
1000
0001
0100
,
1000
0010
1000
0010
,
0100
0000
0010
0000
1000
2200
0000
0000
,
0000
0000
0000
0000
0000
0000
0000
0000
0000
0000
3300
0000
1000
0100
1000
0100
,
1000
0010
1000
0010
1000
0001
1000
0001
0010
0001
0010
0001
0100
0010
0100
0010
,
1000
0010
1000
0010
0100
0001
0100
0001
1000
0001
1000
0001
1000
0001
1000
0001
,
1000
0100
0010
0001
0100
0010
1000
0100
0010
0001
0010
0100
1000
0001
0010
0100
,
1000
0010
1000
0100
0010
0001
0010
0001
0010
0001
1000
0010
1000
0010
0100
0001
,
0100
0001
0010
0001
0010
0001
1000
0010
1000
0010
0100
0001
0100
0001
0010
0100
,
0010
0100
1000
0100
1000
0100
1000
0001
1000
0001
1000
0010
0100
0001
0010
0100
,
1000
0100
0010
0100
1000
0001
0100
0010
1000
0001
0100
0010
1000
0100
0010
0001
,
0100
0010
1000
0100
0010
0001
0010
0100
1000
0100
0010
0001
0010
0001
1000
0010
,
1000
0010
0100
0001
0100
0001
1000
0100
1000
0100
0010
0001
0010
0001
1000
0001
,
1000
0001
0100
0001
0100
0001
1000
0010
1000
0010
1000
0100
1000
0100
1000
0100
,
0010
0001
1000
0100
0010
0001
0010
0100
1000
0010
0100
0001
0010
0100
1000
0010
,
0100
0001
1000
0100
1000
0100
1000
0100
1000
0010
0100
0010
0100
0010
1000
0100
,
0010
0001
1000
0100
0010
0001
0010
0100
1000
0001
0100
0010
1000
0100
0010
0001
,
1000
0010
0100
0010
1000
0100
0010
0001
0010
0100
0010
0001
1000
0010
0100
0010
,
1000
0100
0010
0001
0010
0001
0100
0010
1000
0100
0010
0001
0010
0100
1000
0100
,
1000
0010
1000
0100
0010
0001
0100
0001
0010
0001
0010
0001
0010
0001
0010
0001
,
1000
0010
1000
0010
0100
0001
0100
0001
0010
0100
0010
0100
1000
0100
1000
0100
,
1000
0010
1000
0010
0100
0001
0100
0001
1000
0010
1000
0010
0100
0001
0100
0001
,
0010
0100
0010
0100
1000
0010
0100
0001
0010
0100
0010
0100
0010
0100
0010
0001
,
0010
0100
1000
0100
0010
0001
0100
0010
1000
0100
1000
0010
1000
0010
1000
0010
,
1000
0010
1000
0010
1000
0010
1000
0100
0010
0001
0020
0000
0000
0000
0000
0000
,
0030
0000
0001
0000
0000
0000
1000
0000
0000
0000
0010
0100
0010
0100
0010
0100
,
0010
0100
0010
0100
0010
0100
0010
1000
0100
0010
0002
0000
0000
0000
0000
0000
,
0003
1010
0000
0101
0000
0002
0000
0000
,
1003
0010
0100
0010
,
1000
0000
0100
0010
0001
0000
1000
0000
,
0010
0000
1000
0100
0010
0000
0000
0000
,
0000
0001
0000
1000
0000
0220
0000
0000
,
0000
0000
0000
0000
,
0000
0000
0000
0000
,
0000
0000
0000
0330
0000
0000
0000
0000
;
