#TITLE:FScene8;
#SUBTITLE:;
#ARTIST:The Medic Droid;
#TITLETRANSLIT:;
#SUBTITLETRANSLIT:;
#ARTISTTRANSLIT:;
#GENRE:;
#CREDIT:;
#BANNER:;
#BACKGROUND:;
#LYRICSPATH:;
#CDTITLE:;
#MUSIC:03-the_medic_droid-fscene8.ogg;
#OFFSET:0.033;
#SAMPLESTART:37.990;
#SAMPLELENGTH:13.180;
#SELECTABLE:YES;
#DISPLAYBPM:152.000;
#BPMS:0.000=152.010,59.500=304.020,60.000=152.010,227.000=304.020,228.000=152.010,241.500=304.020,242.000=152.010;
#STOPS:59.500=0.099
,59.750=0.099
,60.000=0.099
,227.000=0.049
,227.250=0.049
,227.500=0.049
,227.750=0.049
,241.500=0.049
,241.750=0.049
;
#BGCHANGES:;
#KEYSOUNDS:;

//---------------dance-single - ----------------
#NOTES:
     dance-single:
     :
     Challenge:
     8:
     0.834,0.813,0.533,0.648,0.057,489.000,56.000,68.000,0.000,0.000,0.000,0.834,0.813,0.533,0.648,0.057,489.000,56.000,68.000,0.000,0.000,0.000:
0000
0000
0000
0000
,
0000
0000
0000
0000
,
0000
0000
0000
2000
,
3002
0203
0320
0230
,
0320
0000
2030
0001
3002
0000
0013
0100
,
0010
0000
0011
0000
0001
0100
1000
0100
,
0001
0010
1000
0010
0001
0000
1001
0001
,
0100
0000
0110
0000
0010
1000
0001
0010
,
1000
0001
0100
1000
0001
2001
0000
0000
,
3000
0001
0100
0000
0010
0000
0100
0000
,
0010
0000
1000
0100
0001
0100
1000
0000
,
0001
0100
0100
0000
0010
0000
1000
0000
,
0001
0000
0010
0000
0210
0000
0310
0001
,
0100
0010
1000
0000
0001
0000
0100
0000
,
0010
1000
0001
0022
,
0033
0010
0001
1000
0010
0100
0010
1000
,
0001
0000
1000
0001
1001
0000
0001
0100
,
1000
0100
0001
0010
0000
0010
0100
1000
,
0001
0100
0010
1000
0000
1001
0000
0011
,
0000
0110
0000
1100
0000
1001
0000
1010
,
0000
0110
0010
1000
0010
1000
0001
0010
,
0100
0010
0001
1000
0000
1000
0001
0100
,
0010
0100
0001
0010
0000
0110
0000
0011
,
0000
0101
0000
0110
0000
1010
0000
1100
,
0000
0110
0010
0001
0010
0000
0001
0000
,
0000
0000
1000
0001
0000
1001
0000
0001
,
0100
0010
1000
0100
0001
0100
1000
0001
,
0000
0000
1000
0001
0000
0101
0000
0001
,
0100
0010
1000
0010
0001
0010
1000
0001
,
2000
0000
0000
0000
3001
0000
0010
0100
,
1000
0000
0001
0000
0000
1000
0001
0100
,
0010
0100
0000
0010
1000
0001
0010
0100
,
1000
0001
0000
1000
0010
0100
0010
1000
,
0001
0000
1000
0010
0100
0010
1000
0200
,
0000
0300
0010
0000
0010
0000
0001
1000
,
0010
0100
0000
0010
1000
0001
0010
0100
,
0010
0000
0001
0000
1000
0000
0010
0000
0100
0000
0000
0010
0000
0000
1001
0000
,
1001
0001
0100
0010
0100
0010
1000
0001
,
0010
0100
1000
0001
0100
0010
0000
2002
,
3003
0000
0001
0100
0010
0100
0001
0010
,
0000
0010
1000
0010
0001
0100
0010
0100
,
0000
0110
0000
1001
0000
0011
0000
0110
,
0000
0000
1100
0000
0000
0000
1001
0000
0000
0000
0101
0000
0001
1000
0010
0100
,
0010
1000
0001
0010
0100
1000
0001
0001
,
0000
1000
0010
0100
0001
0010
0100
1000
,
0000
0101
0000
0110
0000
1010
0000
1100
,
0000
0110
0000
0011
0000
0101
0001
0100
,
0010
2000
3002
0203
,
0320
2030
3200
0320
,
0000
0000
0032
0000
0000
0000
1003
0010
,
0100
0010
0000
1000
0000
0001
0000
0010
,
0100
1000
0002
0000
0203
0000
0320
0000
,
0230
0302
0023
0230
,
0000
0000
2300
0000
0000
0000
3001
0100
,
0010
0100
0000
0010
0000
1000
0000
0001
,
1000
0001
0010
0000
0110
0000
0010
0000
,
0001
0000
0000
0000
1000
0000
0010
0000
0000
0000
0000
0000
1000
0001
1000
0010
,
0100
0001
0010
0000
0001
0000
0100
0000
,
0010
0000
1000
0001
0000
1000
0001
0100
,
0010
0000
1000
0001
0010
0000
0100
0000
,
0010
0000
0000
0000
0001
0000
1000
0001
1000
0000
0000
0000
0001
0000
0100
0000
,
0010
0000
1000
0001
0100
0000
0010
0000
,
1000
0000
0001
0010
0000
0100
0100
0100
,
0100
0000
1000
0001
1000
1000
0001
0100
,
0000
0010
0000
0200
0000
0000
0000
0000
,
0301
0000
0010
0100
1000
0001
0000
0100
,
0000
0010
0000
2000
0000
0000
0000
0000
,
3001
0000
0010
0100
1000
0001
0000
0100
,
0000
0010
0000
2000
0000
0000
0000
0000
,
3001
0000
0010
0100
1000
0001
0000
0100
,
0000
0000
0010
0000
0000
0000
2000
0000
0000
0000
0000
0000
3001
0100
0010
1000
,
0001
0000
0010
0100
1000
0001
0100
0010
,
0000
0010
1000
0001
1000
0001
0010
0100
,
0000
1100
0000
0110
0000
0011
0000
0101
,
0000
0000
0110
0000
0000
0000
1010
0000
0000
0000
1100
0000
1000
0001
0100
0010
,
1000
0001
0010
0100
1000
0001
0100
0100
,
0000
0010
1000
0001
0010
0100
1000
0001
,
0000
1010
0000
0110
0000
0101
0000
0011
,
0000
0000
0110
0000
0000
0000
1100
0000
0000
0000
1010
0000
1000
0001
0010
0100
,
0010
0002
2003
3020
,
0230
0320
2030
3002
,
0000
0000
2003
0000
0000
0000
3001
0010
,
0100
1000
0000
0001
0000
0100
0000
0010
,
0000
2000
3020
0230
,
0320
2030
3002
0023
,
0000
0000
0230
0000
0000
0000
1300
0001
,
0100
0010
0000
1000
0000
0001
0000
0010
,
0100
2000
3002
0203
,
0320
2030
3002
0023
,
0000
0000
0230
0000
0000
0000
1300
0001
,
0100
0010
0000
1000
0000
0001
0000
0100
,
0000
0020
2030
3002
,
0023
0230
2300
3002
,
0000
0000
0203
0010
0000
0010
0300
1000
,
0001
0010
0000
0100
0000
0100
0000
1001
;
