#TITLE:California Gurls;
#SUBTITLE:;
#ARTIST:Katy Perry feat. Snoop Dogg;
#TITLETRANSLIT:;
#SUBTITLETRANSLIT:;
#ARTISTTRANSLIT:;
#GENRE:;
#CREDIT:;
#BANNER:;
#BACKGROUND:katy-perry-california-gurls.png;
#LYRICSPATH:;
#CDTITLE:;
#MUSIC:California Gurls.ogg;
#OFFSET:-1.474;
#SAMPLESTART:51.410;
#SAMPLELENGTH:13.200;
#SELECTABLE:YES;
#BPMS:0.000=125.000;
#STOPS:;
#BGCHANGES:;
#KEYSOUNDS:;

//---------------dance-single - ----------------
#NOTES:
     dance-single:
     :
     Hard:
     7:
     0.483,0.429,0.215,0.539,0.067,390.000,32.000,80.000,0.000,0.000,0.000,0.483,0.429,0.215,0.539,0.067,390.000,32.000,80.000,0.000,0.000,0.000:
0000
0000
0000
0000
,
0000
0000
0000
0000
,
1001
0000
1000
0000
0000
0001
1000
0020
,
0000
0000
0030
0000
0010
0000
0000
0010
0000
0000
0010
0000
1000
0000
0001
0000
,
0010
0100
1000
0001
0200
0000
0310
0000
,
0110
0000
0000
0000
0010
0000
0000
1000
0000
0000
0001
0000
1000
0000
0000
0000
,
1001
0000
0001
0000
0000
0100
0010
0200
,
0000
0000
0300
0000
0100
0000
0000
0010
0000
0000
1000
0000
0001
0000
0010
0000
,
0100
1000
0001
0100
0020
0000
0130
0000
,
1001
0000
0000
0000
0110
0000
0000
1000
0001
1000
0000
0000
1001
0000
0001
0000
,
0100
0000
0010
0000
0100
0000
0000
0010
0100
0000
0001
0000
0010
0000
0200
0000
,
0000
0000
0300
0000
1000
0000
0000
0001
0000
0000
0100
0000
0010
0000
1000
0000
,
0001
0010
0100
1000
0002
0000
1003
0000
,
0001
0000
1000
0001
0100
0000
0110
0000
,
0020
0000
0030
0000
0010
1000
0001
2000
,
0000
0000
3000
0000
0001
0000
0000
0001
0000
0000
0001
0000
1000
0000
1000
0000
,
0010
0000
0100
0000
0001
0000
0010
0000
0200
0000
0000
0000
2300
0000
0000
3000
,
1100
0000
0000
0000
0110
0000
0000
0010
0001
0010
0000
0000
0101
0000
0000
0000
,
0002
0000
0013
0100
1000
0001
1000
0002
,
0000
2000
0000
0000
3003
0000
1000
0001
,
0010
0100
2000
0000
3002
0000
0013
0100
,
2000
3002
0203
0320
,
1030
0000
0001
1000
0001
0010
0100
2000
,
0000
0002
0000
0000
3003
0000
0001
1000
,
0020
0000
0230
0000
0302
0000
0013
0100
,
0000
0000
0100
0000
0010
0000
0000
0001
0010
0001
0000
0000
0101
0000
0000
0000
,
0002
0000
2003
0000
3020
0000
0130
0010
,
0000
0010
1000
0001
0010
0100
0100
0000
,
0200
0000
2300
0000
3020
0000
0130
0001
,
0000
0001
0010
0000
0110
0000
1001
0000
,
0002
0000
0203
0000
0320
0000
1030
0100
,
0000
0010
0001
0100
0010
0100
0010
0000
,
0000
1000
0001
0100
0010
0100
0000
0010
,
0000
1000
0001
0010
0100
1000
0001
0000
,
2001
0000
3020
0000
0230
0000
0301
0010
,
0000
0001
0010
0100
1000
0001
0100
0000
,
0020
0000
2030
0000
3002
0000
0013
0100
,
0000
0010
0100
0000
0110
0000
1001
0000
,
2000
0000
3002
0000
0203
0000
0310
1000
,
0000
1000
0001
0100
0010
0000
0110
0000
,
0000
1000
0001
0100
0010
1000
0000
0001
,
0000
0010
0100
1000
0001
0100
0010
0000
,
2000
0000
0000
0000
3100
0000
0000
0010
0001
0000
0100
0000
0010
0000
2000
0000
,
0000
0000
3000
0000
0001
0000
0000
0001
0000
0000
0001
0000
0010
0000
0100
0000
,
1000
0001
0100
0010
0200
0000
0310
0000
,
0110
0000
0000
0000
1000
0000
0000
1000
0000
0000
1000
0000
0001
0000
0010
0000
,
0200
0010
0310
0000
0000
0001
1000
0001
,
0000
0000
0000
0000
0001
0000
0000
0001
0000
0000
0001
0000
1000
0000
0010
0000
,
0200
0000
0310
1000
0001
1000
0001
0000
,
1001
0000
0000
0000
0110
0000
0000
0010
1000
0010
0000
0000
0110
0000
0000
0000
,
0020
0000
1030
0001
1000
0010
0100
0020
,
0000
0200
0000
0000
0330
0000
1000
0010
,
0100
0010
2000
0000
3002
0000
0013
0100
,
0020
0032
2003
3020
,
0130
0000
0010
1000
0001
0010
0100
2000
,
0000
0002
0000
0000
3003
0000
0001
1000
,
0001
0010
0200
0000
2300
0000
3001
0000
,
0101
0000
0000
0000
0110
0000
0000
0010
1000
0010
0000
0000
1010
0000
0000
0000
,
2000
0000
3200
0000
0320
0000
0031
0100
,
0000
0100
0010
1000
0001
0010
0100
0000
,
2000
0000
3002
0000
0203
0000
0310
1000
,
0000
1000
0001
0000
1001
0000
0011
0000
,
0002
0000
2003
0000
3020
0000
0130
0010
,
0000
0010
1000
0001
0010
0100
1000
0000
,
0000
0100
0010
0100
1000
0001
0000
0100
,
0000
0010
1000
0001
0010
0010
0010
0000
,
0120
0000
0032
0000
0203
0000
0310
1000
,
0000
1000
0001
1000
0001
0010
0100
0000
,
2000
0000
3002
0000
0023
0000
0130
1000
,
0000
1000
0001
0000
1001
0000
0110
0000
,
2001
0000
3002
0000
0203
0000
0310
1000
,
0000
1000
0001
0100
0010
0000
0110
0000
,
0000
0010
1000
0001
0010
0100
0000
1000
,
0000
0001
0100
0010
1000
0001
1000
0000
,
2002
0000
0000
0000
,
3003
0000
0000
0000
;

//---------------dance-single - ----------------
#NOTES:
     dance-single:
     :
     Medium:
     5:
     0.389,0.403,0.404,0.202,0.000,314.000,60.000,30.000,0.000,0.000,0.000,0.389,0.403,0.404,0.202,0.000,314.000,60.000,30.000,0.000,0.000,0.000:
0000
0000
0000
0000
,
0000
0000
0000
0000
,
1000
0001
0000
0001
,
0100
0000
0010
1000
0100
0000
1000
0000
,
0001
0000
0100
0001
0100
0000
0010
0000
,
0000
1000
0100
1000
,
0001
0000
0100
0010
,
1000
0000
0001
0000
0100
0000
0010
1000
,
0100
0000
0010
0001
0100
0000
0010
0000
,
1000
0100
1001
0100
,
0010
1000
0000
0100
,
1000
0000
0001
0000
0100
0000
0010
0100
,
0010
0000
0010
1000
0010
0000
0101
0000
,
0010
1000
0100
1000
,
0001
0100
0001
0000
1000
0000
0010
0000
,
0100
0000
0010
1000
0100
0000
1000
0000
,
0001
0100
0001
0000
1000
0000
0010
0000
,
1010
0101
0011
1100
,
1000
0002
0203
0320
,
2030
3200
2300
3002
,
0203
0320
2030
3200
,
2300
3002
0203
0320
,
2030
0000
3100
0010
0002
0000
2003
0000
,
3020
0230
0320
2030
,
3200
0320
0032
0203
,
0310
1000
0010
0000
0010
1000
0010
0000
,
1010
0101
0011
1100
,
0011
0000
0001
0100
0001
0000
0101
0000
,
1010
0000
1100
0000
0011
0000
0001
0100
,
0000
0001
0100
0000
0101
0000
1010
0000
,
0010
0000
1000
0000
0100
0000
0010
0001
,
0000
0001
0100
0000
0110
0000
1001
0000
,
0000
0000
0100
1000
0100
0000
0100
0000
,
0010
0000
0001
0000
0100
0010
0100
0000
,
0010
0000
2000
3000
0100
0000
0010
0001
,
0000
0100
0010
0000
1000
0000
0100
0000
,
1000
0000
0001
0000
0100
0000
0010
1000
,
0000
1000
0100
0000
1100
0000
0101
0000
,
0010
0000
1000
0000
0100
0000
0010
0001
,
0000
0001
0100
0000
0110
0000
1001
0000
,
0000
0000
0100
0000
1000
0000
0000
0001
,
0000
0100
0010
1000
,
0100
0000
0000
0000
0000
0010
0001
0100
,
0000
0000
0010
0000
1000
0000
0100
1000
,
0001
0101
1010
0100
,
1000
0001
0100
0010
,
2000
0100
3100
0000
1000
0000
0001
0000
,
0100
0000
0010
0000
1000
0000
0100
0010
,
0001
0000
0001
0100
1000
0000
0100
0000
,
0010
0000
1000
0000
0100
1000
0100
0000
,
1100
0101
0010
1000
,
0100
1100
0001
0101
,
0010
1010
0100
1100
,
0001
0101
0010
0110
,
0010
1010
0010
0110
,
0100
0101
0001
0011
,
0010
0100
1100
0001
,
0100
0000
0010
0000
0100
0010
0100
0000
,
0110
1001
0011
1100
,
0101
0000
0010
1000
0010
0000
0010
0000
,
0110
1001
0011
1100
,
0100
0000
1000
0000
0001
0100
0001
0000
,
0001
0000
0100
0000
0010
0000
1000
0100
,
0000
1000
0100
0000
1000
0000
0001
0000
,
0000
0000
0001
0100
0010
0000
0000
0010
,
0000
0000
0010
1000
0100
0000
1100
0000
,
0101
0000
1010
0000
0011
0000
0100
1000
,
0000
1000
0100
0000
1100
0000
0101
0000
,
1010
0000
0011
0000
1100
0000
0001
0100
,
0000
0100
0001
0000
0101
0000
0001
0000
,
1000
0000
0100
0000
1000
0000
0010
0100
,
0000
0100
0010
0000
0110
0000
1001
0000
,
0000
0000
0001
0100
0001
0000
0001
0000
,
1000
0000
0100
0000
1000
0001
1000
0000
,
2002
0000
0000
3003
;

//---------------dance-single - ----------------
#NOTES:
     dance-single:
     :
     Easy:
     3:
     0.232,0.277,0.269,0.027,0.000,197.000,40.000,4.000,0.000,0.000,0.000,0.232,0.277,0.269,0.027,0.000,197.000,40.000,4.000,0.000,0.000,0.000:
0000
0000
0000
0000
,
0000
0000
0000
0000
,
1000
0001
0100
0000
,
0100
0010
1000
0000
,
0001
0001
0100
0100
,
0010
1000
0100
0000
,
0010
0001
0000
0100
,
0010
1000
0100
1000
,
0001
0100
0010
1000
,
0001
0000
1000
0000
,
0001
0100
0000
0010
,
1000
0100
1000
0001
,
0100
0010
0100
0001
,
0000
1000
0001
0000
,
2000
3001
0000
0100
,
0010
1000
0100
1000
,
0001
0100
0010
1000
,
0100
1000
0001
0100
,
0010
0000
1000
0000
,
0100
0000
0010
0000
,
0001
0000
0100
0000
,
0010
0000
1000
0000
,
0100
0000
0010
0000
,
0001
0000
0100
0000
,
0010
0000
1000
0000
,
0001
1000
0001
1000
,
1001
1001
1001
1001
,
1001
0000
0001
0000
,
0110
0110
0110
0000
,
0010
0000
0100
0000
,
1001
1001
1001
0000
,
1000
0000
0001
0000
,
1000
1000
1000
0000
,
0001
0000
1000
1000
,
1001
1001
1001
0000
,
0110
0000
1001
0000
,
0110
0110
0110
0000
,
0010
0000
0100
0000
,
1001
1001
1001
0000
,
1000
0000
0001
0000
,
1000
1000
1000
0000
,
0001
0000
1000
1000
,
1000
0000
0010
0000
,
0100
0000
0010
0000
,
1000
0001
1000
0000
,
0100
0000
0010
0000
,
0002
0003
0000
1000
,
0010
0000
0010
0000
,
0100
0010
0100
0010
,
0100
0100
0100
0100
,
0100
0000
0010
0000
,
1000
0000
0001
0000
,
0010
0000
0100
0000
,
1000
0000
0001
0000
,
0100
0000
0010
0000
,
1000
0000
0001
0000
,
0100
0000
0010
0000
,
1000
1000
1000
1000
,
0001
1001
1001
0000
,
0001
0000
0100
0000
,
0110
0110
0110
0000
,
0010
0000
1000
0000
,
1001
1001
1001
0000
,
0001
0000
1000
0000
,
0010
0010
0010
0000
,
0100
0000
0010
0010
,
1010
0110
0110
0000
,
0010
0000
1000
0000
,
1001
1001
1001
0000
,
0001
0000
0010
0000
,
0110
0110
0110
0000
,
0010
0000
0001
0001
,
1000
0000
0010
0000
,
0100
0010
0100
0000
,
0220
0000
0000
0330
;
