#TITLE:Bonkers;
#SUBTITLE:;
#ARTIST:Dizzee Rascal;
#TITLETRANSLIT:;
#SUBTITLETRANSLIT:;
#ARTISTTRANSLIT:;
#CREDIT:;
#BANNER:;
#BACKGROUND:;
#LYRICSPATH:;
#CDTITLE:;
#MUSIC:Bonkers.ogg;
#OFFSET:0.771;
#SAMPLESTART:22.090;
#SAMPLELENGTH:13.180;
#SELECTABLE:YES;
#BPMS:0.000=125.980;
#STOPS:;
#BGCHANGES:;

//---------------dance-single - ----------------
#NOTES:
     dance-single:
     :
     Challenge:
     11:
     0.829,0.909,0.116,0.331,1.000:
0000
0000
0000
0000
,
0000
0000
0000
0000
0000
0000
0000
2000
,
0000
3002
0000
2003
0000
3002
0000
2003
,
0000
0000
3002
0000
0000
0000
2003
0000
0000
0000
3002
0000
0003
1000
0001
0000
,
0001
0000
1000
0100
1000
0000
0001
0100
0001
0000
0110
0000
0000
0000
0010
1000
,
0001
0000
0010
0100
1000
0000
0001
0000
0100
0010
1000
0000
0000
1000
0001
0000
,
1000
0000
0000
0000
0000
0000
0010
0000
0000
0100
0000
0000
0001
0000
0000
0000
1000
0000
0000
0000
0001
0000
0000
0000
0100
0000
0000
0000
0000
0000
0000
0000
0000
0010
0000
0000
0100
0000
0000
0000
0000
0000
0010
0000
0000
0000
0000
0000
,
1000
0001
0100
0010
1000
0000
0100
0000
1000
0000
0000
0001
0100
0010
0100
0010
,
1000
0000
0001
0000
0101
0000
0001
0000
1001
0000
1000
0100
1000
0001
0100
0000
,
0010
0000
0100
0000
0001
0010
0000
0100
1000
0000
1100
0000
1000
0001
0100
0010
,
0100
0000
0010
1000
0001
0010
0100
1000
0001
0000
0000
0000
1000
0001
1000
0000
,
0100
1000
0001
0000
0100
0010
0000
1000
0001
0000
1000
0000
0000
0000
0001
0000
,
1000
0100
1000
0001
0100
0010
1000
0001
0010
0100
1000
0010
0100
0001
0010
0100
,
0010
0001
1000
0010
0100
0001
0100
0010
1000
0100
1000
0001
0100
0010
0100
0010
,
1000
0001
0010
0100
0010
0001
1000
0010
0100
0010
1000
0001
0010
0100
1000
0100
,
0010
0100
1000
0001
0100
0010
1000
0001
0100
0010
1000
0001
0010
0100
1000
0001
,
0010
0100
0010
0001
1000
0010
0100
0010
1000
0001
0010
0100
1000
0001
0100
0001
,
0010
0100
1000
0100
1000
0001
0100
0001
0010
0100
1000
0001
1000
0010
0100
0010
,
0100
0001
0010
0100
0010
0001
0100
0010
1000
0001
0010
0100
0010
0001
1000
0010
,
0100
0010
1000
0001
0010
0100
0010
0001
1000
0010
1000
0100
0010
0100
1000
0001
,
0100
0010
0100
0001
0010
0100
1000
0001
0010
0100
0010
0001
0100
0010
1000
0100
,
1000
0001
0100
0001
0010
0100
1000
0001
0100
0010
0100
0001
0010
0100
1000
0001
,
0100
0010
0100
0001
0010
0100
0010
0001
1000
0010
0100
0010
1000
0001
0010
0100
,
1000
0100
0010
0001
0100
0010
1000
0001
0100
0010
0100
0001
0010
0100
1000
0001
,
0100
0010
1000
0001
0010
0100
1000
0001
0100
0010
0100
0001
0010
0100
1000
0100
,
0010
0100
0010
0100
1000
0001
0100
0010
0100
0001
0010
0100
0010
0001
0100
0010
,
2000
3002
0203
0320
,
2030
0000
3002
0000
0023
0000
1130
1100
,
0200
0000
1300
0001
0100
0010
1000
0001
,
0020
0000
0030
0100
1000
0001
0100
0010
,
2000
0000
0000
3002
0000
0000
0000
0003
,
0200
0000
0000
0320
0000
0000
0000
0000
,
2030
0000
0000
3100
0010
0001
0100
0010
,
2000
0000
0000
3001
0100
0010
0100
0001
,
0020
0000
0000
0230
0000
0000
0000
0000
,
2300
0000
0000
0000
0000
0000
3002
0000
0000
0000
0003
0000
0020
0031
1000
0000
,
0001
0000
1000
0001
0010
0000
0100
1000
0001
0000
0101
0000
0000
0000
0001
0010
,
0100
0000
1000
0010
0100
0000
0010
0000
1000
0001
0010
0000
0000
0000
0100
0010
,
0001
0000
0000
0000
0000
0000
1000
0000
0000
0001
0000
0000
0100
0000
0000
0000
0010
0000
0000
0000
1000
0000
0000
0000
0001
0000
0000
0000
0000
0000
0000
0000
0000
1000
0000
0000
0001
0000
0000
0000
0000
0000
0010
0000
0000
0000
0000
0000
,
0100
1000
0001
0100
0010
0000
0100
0000
0110
0000
0000
0100
0010
1000
0001
1000
,
0010
0000
0100
0000
0110
0000
0100
0000
0101
0000
0001
1000
0010
0100
0010
0000
,
0110
0000
0010
0000
1000
0100
0000
0010
0001
0000
0100
0000
0010
0100
0001
0010
,
0100
0000
1000
0001
1000
0010
0100
0010
0100
0000
0000
0000
0010
1000
0001
0000
,
0010
0100
1000
0000
0001
0100
0000
0010
0100
0000
0000
0000
0110
0000
0110
0000
,
0010
1000
0001
0010
0100
0010
0001
0100
0010
1000
0100
0010
0001
0100
0010
1000
,
0100
1000
0001
0100
0010
0100
0010
1000
0001
0010
0100
0010
0001
0100
0010
1000
,
0001
0100
0010
0100
0010
1000
0100
0010
0001
0100
0010
0100
0010
1000
0100
0010
,
0001
0100
0010
0100
0001
0010
0100
1000
0001
0010
0100
0010
0200
0320
0032
0003
,
1000
0001
0100
0010
0100
0010
1000
0100
0010
0001
1000
0001
1000
0010
0100
0001
,
0100
0010
1000
0100
0010
0001
0100
0010
1000
0100
0010
0100
1000
0001
0100
0001
,
0100
0010
0100
0010
1000
0010
0100
0010
1000
0100
0010
0001
0100
0010
0100
0010
,
1000
0100
0010
0001
0100
0010
1000
0001
0010
0100
1000
0001
0200
0000
0000
0000
,
0320
0000
1030
0001
0010
0000
0200
0000
,
1300
0000
0000
0000
0001
0000
0000
0000
0010
0100
0010
0000
0000
0000
0000
0000
0010
0000
0000
0000
0001
0000
0000
0000
0100
0010
0100
0010
0100
0010
0100
0000
,
0010
1000
0001
0000
1000
0001
0010
0100
,
0020
0032
0000
0000
,
2003
0000
0000
0000
,
0000
0000
0000
0000
,
3000
0000
0000
0000
;

//---------------dance-single - ----------------
#NOTES:
     dance-single:
     :
     Hard:
     7:
     0.498,0.451,0.099,0.564,0.000:
0000
0000
0000
0000
,
0000
0000
0000
0000
0000
0000
0000
2000
,
0000
3002
0000
2003
0000
3002
0000
2003
,
0000
3002
0000
2003
0000
3002
0003
1000
,
0001
0010
0100
1000
0001
0100
0000
0010
,
0100
0001
0010
0100
1000
0001
0000
0001
,
0100
0010
1000
0100
0010
0000
0001
0100
,
0010
0100
0001
0010
0100
0000
0100
1000
,
0001
0100
0010
0100
0001
0010
0100
1000
,
0001
0100
0010
0100
0001
0010
0100
1000
,
0001
0100
0010
0100
0110
0000
0010
1000
,
0001
0010
0100
1000
0001
0200
0000
0310
,
1000
0001
0010
0100
1000
0001
1001
1001
,
0000
0001
0100
0010
1000
0001
0011
0000
,
0000
0001
1000
0010
0100
0100
0100
0010
,
1000
0001
0010
0100
2000
0000
0000
0000
,
3001
0100
0010
0100
0001
0010
0100
0000
,
0000
1000
0001
0100
0010
0100
1001
0000
,
0000
0001
0010
0100
1000
0001
0100
0010
,
1000
0001
0010
0100
2000
0000
0000
0000
,
3002
0203
0320
0230
,
0302
2003
3200
0320
,
0230
2300
3002
0203
,
0320
2030
3002
0023
,
0230
2300
3002
0023
,
0032
0203
0320
2030
,
3002
0203
0320
0230
,
0302
0000
2003
0000
3020
0000
0130
0100
,
0200
0000
0000
0301
0001
0010
0100
1000
,
0002
0000
0000
1003
0010
0100
0010
0100
,
0002
0000
0000
2003
0000
0000
0000
0000
,
3002
0000
0000
0203
0000
0000
0000
0000
,
0320
0000
0000
1030
0001
0010
0100
1000
,
0002
0000
0000
1003
0001
0100
0010
0100
,
0020
0000
0000
0230
0000
0000
0000
0000
,
0302
0000
0000
2003
0000
0000
3002
1000
,
1003
0100
0010
0100
1000
0001
0000
1000
,
0001
0100
0010
0100
0001
0010
0000
0100
,
1000
0001
0010
0100
1000
0000
0001
0100
,
0010
0100
0001
0010
0100
0000
1000
0001
,
0100
0010
0100
0100
0100
0100
0010
1000
,
0001
0010
0100
1000
0100
0010
0001
1000
,
0001
0100
0010
1000
0100
0000
0010
0001
,
0100
0010
1000
0001
0010
0000
1001
1001
,
1001
0001
0100
0010
1000
0001
0010
0100
,
0000
0100
1000
0001
0100
0010
1000
0000
,
0000
0001
0100
0010
0100
0001
0010
0100
,
1000
0001
0100
0010
0100
0000
0020
0000
,
1030
0001
0010
0100
1000
0001
1000
0000
,
0000
0100
0010
0100
1000
0010
0100
0000
,
0000
0001
0100
0010
1000
0001
0010
0100
,
1000
0001
0100
0010
0200
0000
0320
0000
,
2030
0000
3001
0000
0100
0010
1000
0000
,
0001
0010
0200
0300
0010
0001
0200
0000
,
0310
0000
1001
0000
1000
0001
0100
0000
,
0010
2002
0000
3003
,
1001
0000
0000
0000
;

//---------------dance-single - ----------------
#NOTES:
     dance-single:
     :
     Medium:
     5:
     0.285,0.383,0.054,0.099,0.000:
0000
0000
0000
0000
,
0000
0000
0000
0000
0000
0000
0000
2000
,
0000
3002
0000
2003
0000
3002
0000
2003
,
0000
3002
0000
2003
0000
3002
0003
0000
,
0100
0000
0010
0000
1000
0100
0000
0000
,
1000
0000
0001
0000
0100
0010
0000
0000
,
0010
1000
0100
1000
,
0001
0000
0100
0010
0100
0000
0010
0000
,
1000
0000
0100
0000
1000
0000
0001
0100
,
0001
0010
1010
0010
,
0100
0000
0001
1000
0100
0000
1000
0000
,
0001
0100
0010
0000
,
0010
0000
1000
0000
0100
0000
1000
0001
,
0000
0100
0010
0000
0010
0000
1000
0000
,
0000
0100
1000
0001
,
0100
0000
0010
1000
0100
0000
0000
0000
,
0010
0000
0001
0000
0100
0010
0100
0000
,
0000
0000
0010
0000
1000
0100
1000
0000
,
0000
1000
0001
0100
,
0010
0010
1000
0100
,
1000
0001
0100
0001
,
1000
0100
1000
0010
,
0100
0001
1000
0100
,
1000
0001
0010
0100
,
1000
0001
0100
0010
,
1000
0100
1000
0001
,
0100
0010
1000
0100
,
1000
0000
0001
0000
0100
0000
0010
0010
,
0010
1000
0100
1000
,
0001
0000
0100
0010
,
1000
0000
0000
0001
0000
0000
0000
0000
,
0100
0000
0000
0010
0000
0000
0000
0000
,
0010
0000
1000
0100
,
0010
0000
0001
0100
,
0010
0000
0000
1000
0000
0000
0000
0000
,
0100
0000
0000
0010
0000
0000
0002
0003
,
0100
0010
1000
0000
,
0001
0100
0010
0000
,
0010
1000
0001
0100
,
0010
1000
0100
1000
,
0001
0100
0110
0010
,
1000
0001
1001
0010
,
0100
0001
1100
1000
,
0010
0000
0100
0000
0101
0000
0010
0010
,
0010
1000
0100
1000
,
0001
0100
0010
1000
,
0100
1000
0001
0100
,
0010
0000
1000
0000
0001
0000
0100
0001
,
0100
0010
1000
0100
,
1000
0001
0100
0010
,
1000
0100
1000
0001
,
0100
0010
1000
0000
,
0001
0000
0100
0000
,
0010
0000
1000
0100
,
1000
0001
0100
0000
0000
0000
0010
0000
,
1000
0100
1000
0000
0000
0000
0001
0000
,
2002
0000
0000
0000
,
3003
0000
0000
0000
;

//---------------dance-single - ----------------
#NOTES:
     dance-single:
     :
     Easy:
     3:
     0.265,0.408,0.125,0.242,0.000: // measure 1
0000
0000
0000
0000
,  // measure 2
0000
0000
0000
0000
0000
0000
0000
2000
,  // measure 3
0000
3002
0000
2003
0000
3002
0000
2003
,  // measure 4
0000
3002
0000
2003
0000
3002
0003
0000
,  // measure 5
1000
0010
0100
0000
,  // measure 6
0010
0100
0001
0000
,  // measure 7
1000
0001
0100
0000
,  // measure 8
0010
1000
0100
0000
,  // measure 9
1000
1001
1001
0000
,  // measure 10
0001
1001
1001
0000
,  // measure 11
1000
0010
0100
0000
,  // measure 12
0010
0100
0001
0000
,  // measure 13
1000
1000
1000
1000
,  // measure 14
0000
0001
0001
0001
,  // measure 15
0000
0100
0100
0100
,  // measure 16
0100
0100
0100
0000
,  // measure 17
0010
1000
0010
0010
,  // measure 18
0000
0100
0010
0100
,  // measure 19
0000
0010
1000
0001
,  // measure 20
1000
0000
0001
0000
,  // measure 21
1000
0001
1000
0001
,  // measure 22
1000
0001
1000
0001
,  // measure 23
1000
0001
1000
0001
,  // measure 24
1000
0001
1000
0001
,  // measure 25
1000
0001
1000
0001
,  // measure 26
1000
0001
1000
0001
,  // measure 27
0200
0320
0230
0320
,  // measure 28
0230
0320
0230
0310
,  // measure 29
0010
0000
1000
0100
,  // measure 30
1000
0000
0001
0100
,  // measure 31
0020
0000
0000
0000
,  // measure 32
2030
0000
0000
0000
,  // measure 33
3100
0000
1000
0001
,  // measure 34
0100
0000
0010
1000
,  // measure 35
1001
0000
0000
0000
,  // measure 36
1001
0000
0000
0001
,  // measure 37
0100
0010
0010
0000
,  // measure 38
1000
0100
1000
0000
,  // measure 39
0001
0100
1000
0000
,  // measure 40
0100
0010
1000
0000
,  // measure 41
0100
1000
1001
0000
,  // measure 42
0001
0100
1001
0000
,  // measure 43
0100
1000
0110
0000
,  // measure 44
0001
1000
1001
1001
,  // measure 45
1001
0001
0100
0010
,  // measure 46
0000
0010
1000
0100
,  // measure 47
0000
0010
0001
0100
,  // measure 48
0010
0100
0101
0000
,  // measure 49
0010
1000
0100
1000
,  // measure 50
0000
0001
0100
0010
,  // measure 51
0000
0010
1000
0001
,  // measure 52
1000
0100
1000
0000
,  // measure 53
0002
0000
0203
0000
,  // measure 54
0320
0000
2030
0000
,  // measure 55
3002
0000
0023
0000
,  // measure 56
0230
0000
2300
3000
,  // measure 57
2002
0000
0000
0000
,  // measure 58
3003
0000
0000
0000
;
