#VERSION:0.83;
#TITLE:WORMHOLE;
#SUBTITLE:;
#ARTIST:BOU & MEFJUS;
#TITLETRANSLIT:;
#SUBTITLETRANSLIT:;
#ARTISTTRANSLIT:;
#GENRE:;
#ORIGIN:;
#CREDIT:;
#BANNER:WORMHOLE.png;
#BACKGROUND:WORMHOLE - bg.png;
#PREVIEWVID:;
#JACKET:WORMHOLE - jacket.png;
#CDIMAGE:;
#DISCIMAGE:;
#LYRICSPATH:;
#CDTITLE:;
#MUSIC:WORMHOLE.ogg;
#OFFSET:-0.000000;
#SAMPLESTART:20.590263;
#SAMPLELENGTH:12.000000;
#SELECTABLE:YES;
#DISPLAYBPM:*;
#BPMS:0.000=174.977,
60.000=349.954,
175.000=174.977,
192.000=43.744,
195.000=174.977,
199.000=43.744,
203.000=21.872,
205.000=349.954,
321.000=87.489,
322.000=349.954,
350.000=87.489,
351.000=349.954,
379.000=87.489,
380.000=349.954,
408.000=43.744;
#STOPS:60.000=1.200,
61.500=0.686,
89.500=0.686,
117.500=0.686,
205.500=0.686,
233.500=0.686,
261.500=0.686;
#DELAYS:;
#WARPS:;
#TIMESIGNATURES:0.000=4=4;
#TICKCOUNTS:0.000=4;
#COMBOS:0.000=1;
#SPEEDS:0.000=1.000=0.000=0;
#SCROLLS:0.000=1.000;
#FAKES:;
#LABELS:0.000=Song Start;
#BGCHANGES:15.750=wormhole.avi=1.000=0=0=0=StretchNoLoop==CrossFade_Faster==,
411.500=WORMHOLE - bg.png=1.000=1=0=1===CrossFade==,
99999=-nosongbg-=1.000=0=0=0 // don't automatically add -songbackground-
;
#KEYSOUNDS:;
#ATTACKS:
;

//---------------dance-single - ----------------
#NOTEDATA:;
#CHARTNAME:;
#STEPSTYPE:dance-single;
#DESCRIPTION:;
#CHARTSTYLE:;
#DIFFICULTY:Hard;
#METER:10;
#RADARVALUES:0.615221,0.770689,0.083138,0.290983,0.124707,518.000000,508.000000,10.000000,35.000000,0.000000,0.000000,0.000000,0.000000,0.000000,0.615221,0.770689,0.083138,0.290983,0.124707,518.000000,508.000000,10.000000,35.000000,0.000000,0.000000,0.000000,0.000000,0.000000;
#CREDIT:Alchemy Jones;
#DISPLAYBPM:*;
#NOTES:
0000
0000
0000
0000
,
0000
0000
0000
0000
,
0000
0000
0000
0000
,
0000
0000
0000
0000
,
1000
0100
1000
0000
0001
0000
0100
0000
1000
0000
1000
0000
0100
0000
0100
0000
,
0001
0010
1000
0010
0001
0001
0100
0100
,
1000
0100
0001
0010
1000
1000
0010
0010
,
0001
0000
0000
0100
0000
0000
1000
0000
0000
0100
0000
0000
0001
0000
0000
0001
0000
0000
0010
0000
0001
0000
1000
0000
,
0001
0000
0000
0000
0000
0000
0000
0000
0000
0000
0000
0000
0000
0000
0000
0000
0000
0000
0000
0000
0000
0000
0000
0000
0000
0000
0000
0000
0000
0000
0000
0000
0000
0000
0000
0000
0000
0000
0000
0000
0000
0000
0000
0100
0000
0000
0000
0000
,
0000
0000
0000
0000
0000
0000
0000
0000
0000
0010
0000
0000
0000
0000
0000
0000
,
0000
0000
0000
0000
0001
0000
0000
0000
0000
0000
0000
0000
0000
0000
0000
0000
0000
0000
0000
0000
0000
0000
0000
0000
0000
0100
0000
0000
0000
0000
0000
0000
0000
0000
0000
0000
0000
0000
0000
0000
0000
0000
0000
0000
0000
0000
1000
0000
,
0000
0000
0000
0000
0000
0000
0000
0000
0000
0000
0000
0000
0000
0000
0000
0000
0000
0000
0000
0000
0000
0000
0000
0000
0000
0000
0000
0000
0000
0000
0000
0000
0000
0000
0000
0000
0000
0000
0000
0000
0000
0000
0000
0000
0000
0000
0000
0000
0000
0000
0000
0000
0000
0000
0000
0000
0000
0000
0000
0000
0000
0000
0000
0000
0000
0000
0010
0000
0000
0000
0000
0000
0000
0000
0000
0000
0000
0000
0000
0000
0000
0000
0000
0000
0000
0000
0000
0000
0000
0000
0000
0000
0000
0000
0000
0000
0000
0000
0000
0000
0000
0000
0000
0000
0000
0000
0000
0000
0000
0000
0000
0000
0000
0000
0000
0000
0000
0000
0000
0000
0000
0000
0000
0000
0000
0000
0000
0000
0000
0000
0000
0000
0000
0000
0000
0000
0100
0000
0000
0000
0000
0000
0000
0000
0000
0000
0000
0000
0000
0000
0000
0000
0000
0000
0000
0000
0000
0000
0000
0000
0000
0000
0000
0000
0000
0000
0000
0000
0000
0000
0000
0000
0000
0000
0000
0000
0000
0000
0000
0000
0000
0000
0000
0000
0000
0000
0000
0000
0000
0000
0000
0000
,
0000
0000
0000
0000
0000
0000
1000
0000
0000
0000
0000
0000
0000
0000
0000
0000
0000
0000
0000
0000
0000
0000
0000
0000
0000
0000
0000
0000
0000
0000
0000
0000
0000
0000
0000
0000
0000
0000
0000
0000
0000
0000
0000
0000
0000
0000
0000
0000
0000
0000
0000
0000
0000
0000
0000
0000
0010
0000
0000
0000
0000
0000
0000
0000
0000
0000
0000
0000
0000
0000
0000
0000
0000
0000
0000
0000
0000
0000
0000
0000
0000
0000
0000
0000
0000
0000
0000
0000
0000
0000
0000
0000
0000
0000
0000
0000
0000
0000
0000
0000
0000
0000
0000
0000
0000
0000
0000
0000
0000
0000
0000
0000
0001
0000
0000
0000
0000
0000
0000
0000
0000
0000
0000
0000
0000
0000
0000
0000
0000
0000
0000
0000
0000
0000
0000
0000
0000
0000
0000
0000
0000
0000
0000
0000
0000
0000
0000
0000
0000
0000
0000
0000
0000
0000
0000
0000
0000
0000
0000
0000
0100
0000
0000
0000
0000
0000
0000
0000
0000
0000
0000
0000
0000
0000
0000
0000
0000
0000
0000
0000
0000
0000
0000
0000
0000
0000
0000
0000
0000
0000
0000
0000
,
0000
0000
0000
0000
0000
0000
0000
0000
0000
0000
0000
0000
0010
0000
0000
0000
0000
0000
0000
0000
0000
0000
0000
0000
0000
0000
0000
0000
0000
0000
0000
0000
0000
0000
0000
0000
0000
0000
0000
0000
0000
0000
0000
0000
0000
0000
0000
0000
0000
0000
0000
0000
0000
0000
0001
0000
0000
0000
0000
0000
0000
0000
0000
0000
0000
0000
0000
0000
0000
0000
0000
0000
0000
0000
0000
0000
0000
0000
0000
0000
0000
0000
0000
0000
0000
0000
0000
0000
0000
0000
0000
0000
0100
0000
0000
0000
0000
0000
0000
0000
0000
0000
0000
0000
0000
0000
0000
0000
0000
0000
0000
0000
0000
0000
0000
0000
0000
0000
0000
0000
0000
0000
0000
0000
0000
0000
0000
0000
0000
0000
0000
0000
1000
0000
0000
0000
0000
0000
0000
0000
0000
0000
0000
0000
0000
0000
0000
0000
0000
0000
0000
0000
0000
0000
0000
0000
0000
0000
0000
0000
0000
0000
0000
0000
0000
0000
0000
0000
0010
0000
0000
0000
0000
0000
0000
0000
0000
0000
0000
0000
0000
0000
0000
0000
0000
0000
0000
0000
0000
0000
0000
0000
,
1000
0100
1000
0001
1000
0100
1000
0001
,
1000
0000
0010
1000
0001
1000
0001
0000
,
0001
0010
0001
0000
1000
0100
1000
0000
,
1000
0010
1000
0010
0100
0010
0100
0010
,
1000
0100
2000
0000
0000
0000
3001
0000
,
0100
0000
0000
0000
0010
1000
0001
0100
,
0001
0020
0000
0130
,
1000
0000
0000
0000
0100
1000
0001
0010
,
0001
0000
0010
0100
1000
0100
1000
0000
,
1000
0010
1000
0000
0001
0100
0001
0000
,
0001
0010
0001
0010
0100
0010
0100
0010
,
0001
0100
0002
0000
0000
0000
1003
0000
,
0100
0000
0000
0000
0010
0001
1000
0100
,
1000
0020
0000
0130
,
0001
0000
0000
0000
0100
0001
1000
0010
,
1000
0000
0001
0100
0001
0010
0001
0000
,
0010
0100
0010
0000
0100
1000
0100
0000
,
1000
0010
1000
0010
0100
0010
0100
0010
,
0100
0001
0200
0000
0000
0000
0301
0000
,
0010
0000
0000
0000
0100
1000
0001
0100
,
0001
0020
0000
0031
,
0100
0000
0000
0000
0010
1000
0001
0010
,
0001
0000
1000
0001
1000
0000
0010
0000
,
0100
0010
1000
0010
,
0100
0001
0010
0001
,
0100
0001
0010
0001
,
0100
0010
0010
1000
,
1000
0001
0001
0100
,
0100
0101
0001
1001
,
1000
1100
1000
2020
,
3030
0000
0000
0000
0001
0000
0000
0000
0000
0000
1000
0010
1000
0001
1000
0000
,
0100
0000
0000
0000
0100
0000
1000
0000
0000
0000
0001
0000
0010
0001
0000
1000
,
0001
0000
0000
0000
0100
0000
0001
0000
0000
0000
0100
0010
0100
0001
1000
0000
,
0200
0000
0000
0000
0310
0000
0001
0000
0000
0000
0100
0010
0100
0001
1000
0000
,
2002
0000
0000
0000
0000
0000
0000
0000
0000
0000
0000
3003
0100
0000
0000
0100
,
0010
0000
0001
0000
0000
0100
0010
0000
1000
0100
0010
0001
0200
0000
0000
0000
,
0000
0000
0000
0320
,
0000
0000
1030
0001
1000
0100
1000
0000
,
0001
0100
0001
0000
1000
0010
1000
0000
,
0001
0010
0001
0100
0001
0010
0100
0010
,
0001
0010
0200
0000
0000
0000
0310
0000
,
0100
0000
0000
0000
1000
0000
0001
0100
,
0000
1000
0200
0000
0000
0000
0310
0000
,
0100
0000
0000
0000
0100
0000
1000
0010
,
1000
0000
0001
1000
0001
0100
0001
0000
,
1000
0100
1000
0000
0001
0010
0001
0000
,
1000
0010
1000
0100
1000
0010
0100
0010
,
1000
0010
0200
0000
0000
0000
0310
0000
,
0100
0000
0000
0000
0001
0000
1000
0100
,
0000
0001
0200
0000
0000
0000
0310
0000
,
0100
0000
0000
0000
0100
0000
0001
0010
,
0001
0000
0100
0010
0100
0001
0100
0000
,
0010
0100
0010
0000
1000
0010
1000
0000
,
0100
0010
0100
1000
0010
0100
0010
1000
,
0100
0010
0200
0000
0000
0000
0310
0000
,
0100
0000
0000
0000
1000
0000
0001
0010
,
0000
1000
0020
0000
0000
0000
0130
0000
,
0010
0000
0000
0000
0010
0000
1000
0100
,
1000
0000
0001
1000
0001
0000
0100
0000
,
0010
0100
0001
0100
,
0010
1000
0100
1000
,
0010
1000
0100
1000
,
0010
0100
0100
0001
,
0001
1000
1000
0010
,
0010
1010
1000
1001
,
0001
0011
0001
0202
,
0303
0000
2000
0002
3003
0000
1000
0100
,
0010
0001
1000
0010
0100
0001
1000
0100
,
0010
0001
1000
0010
0100
0001
1000
0100
,
0010
0001
1000
0010
0200
0000
0000
0000
,
0301
0000
0010
0000
0000
0000
0100
1000
,
0100
1000
0010
1000
0020
0000
0000
0000
,
0130
0000
0001
0000
0000
0000
0010
0001
,
0010
0001
0100
0001
0200
0020
0330
0000
,
0001
0010
0100
1000
0001
0100
0010
1000
,
0001
0010
0100
1000
0001
0100
0010
1000
,
0001
0010
0100
1000
0001
0100
0020
0000
,
0000
1030
0100
0000
,
0010
0001
0010
0001
0100
0001
0200
0000
,
0000
0310
1000
0000
,
0010
1000
0010
1000
0010
0100
0020
0200
,
0330
0000
1000
0100
0010
0001
0100
0010
,
1000
0100
0010
0001
0100
0010
1000
0100
,
0010
0001
0100
0010
1000
0100
0010
0001
,
2000
0000
3010
0100
,
0000
0000
0001
0010
0001
0100
0001
0010
,
0200
0000
0310
0100
,
0000
0000
1000
0010
1000
0100
1000
0000
,
0220
0000
0000
0000
,
0330
0000
0000
0000
;

//---------------dance-single - ----------------
#NOTEDATA:;
#CHARTNAME:;
#STEPSTYPE:dance-single;
#DESCRIPTION:;
#CHARTSTYLE:;
#DIFFICULTY:Medium;
#METER:8;
#RADARVALUES:0.484576,0.685057,0.066510,0.124707,0.000000,408.000000,400.000000,8.000000,15.000000,0.000000,0.000000,0.000000,0.000000,0.000000,0.484576,0.685057,0.066510,0.124707,0.000000,408.000000,400.000000,8.000000,15.000000,0.000000,0.000000,0.000000,0.000000,0.000000;
#CREDIT:Alchemy Jones;
#DISPLAYBPM:*;
#NOTES:
// measure 0
0000
0000
0000
0000
,  // measure 1
0000
0000
0000
0000
,  // measure 2
0000
0000
0000
0000
,  // measure 3
0000
0000
0000
0000
,  // measure 4
1000
0100
0010
0100
1000
0000
1000
0000
,  // measure 5
0001
0100
0010
0100
0001
0000
0001
0000
,  // measure 6
0010
0100
1000
0100
0010
0000
0010
0000
,  // measure 7
0100
0010
0001
0010
0100
0000
0100
0000
,  // measure 8
0010
0001
0100
1000
,  // measure 9
0010
0001
0100
1000
,  // measure 10
0010
1000
0100
0001
,  // measure 11
0010
0000
0100
1000
0010
0000
0100
0000
,  // measure 12
0001
0000
0010
0001
0100
0000
0010
1000
,  // measure 13
0100
0000
0100
1000
0010
0000
0100
0001
,  // measure 14
0010
0001
1000
0001
0010
0001
1000
0001
,  // measure 15
0010
1001
1000
0100
,  // measure 16
0010
0001
1000
0100
,  // measure 17
0010
0001
1000
0010
,  // measure 18
0100
0001
0100
0000
0000
0000
0001
0000
,  // measure 19
0010
0000
0000
0000
0100
0000
1000
0010
,  // measure 20
0000
0100
0000
0001
,  // measure 21
0010
0000
0000
0000
0100
0000
1000
0001
,  // measure 22
0000
1001
0001
0010
,  // measure 23
0100
1000
0001
0010
,  // measure 24
0100
1000
0001
0100
,  // measure 25
0010
1000
0010
0000
0000
0000
1000
0000
,  // measure 26
0100
0000
0000
0000
0010
0000
0001
0100
,  // measure 27
0000
0010
0000
1000
,  // measure 28
0100
0000
0000
0000
0010
0000
0001
1000
,  // measure 29
0000
1001
1000
0010
,  // measure 30
0100
0001
1000
0010
,  // measure 31
0100
0001
1000
0100
,  // measure 32
0010
0001
0010
0000
0000
0000
0001
0000
,  // measure 33
0100
0000
0000
0000
0010
0000
1000
0100
,  // measure 34
0000
0010
0000
0001
,  // measure 35
0100
0000
0000
0000
0010
0000
1000
0001
,  // measure 36
0000
0100
0001
0100
,  // measure 37
0000
0001
1000
0001
,  // measure 38
0000
1000
0100
1000
,  // measure 39
0000
0001
1000
0001
,  // measure 40
0000
0010
0100
0010
,  // measure 41
0100
1000
0001
1000
,  // measure 42
0001
1000
1000
0001
,  // measure 43
0001
0100
0100
1001
,  // measure 44
0000
0000
0110
0000
0000
1000
0010
1000
,  // measure 45
0001
0000
0100
0010
0000
0100
0001
1000
,  // measure 46
0100
0000
0010
0100
0000
1000
0001
0100
,  // measure 47
0001
0000
0100
0010
0000
0100
0001
1000
,  // measure 48
0200
0000
0000
0310
,  // measure 49
0001
0100
0000
0001
0010
0001
0200
0000
,  // measure 50
0000
0000
0000
0320
,  // measure 51
0000
1030
0001
0100
,  // measure 52
0010
1000
0001
0100
,  // measure 53
0010
1000
0001
0010
,  // measure 54
0100
1000
0100
0000
0000
0000
1000
0000
,  // measure 55
0010
0000
0000
0000
0100
0000
0001
0010
,  // measure 56
0001
0010
0001
0000
0000
0000
1000
0000
,  // measure 57
0010
0000
0000
0000
0100
0000
0001
1000
,  // measure 58
0001
1001
1000
0100
,  // measure 59
0010
0001
1000
0100
,  // measure 60
0010
0001
1000
0010
,  // measure 61
0100
0001
0100
0000
0000
0000
0001
0000
,  // measure 62
0010
0000
0000
0000
0100
0000
1000
0010
,  // measure 63
1000
0010
1000
0000
0000
0000
0001
0000
,  // measure 64
0010
0000
0000
0000
0100
0000
1000
0001
,  // measure 65
1000
1001
1000
0010
,  // measure 66
0100
0001
1000
0010
,  // measure 67
0100
0001
1000
0100
,  // measure 68
0010
0001
0010
0000
0000
0000
0001
0000
,  // measure 69
0100
0000
0000
0000
0010
0000
1000
0100
,  // measure 70
1000
0100
1000
0000
0000
0000
0001
0000
,  // measure 71
0100
0000
0000
0000
0010
0000
1000
0001
,  // measure 72
1000
0001
0010
0001
,  // measure 73
0000
1000
0001
1000
,  // measure 74
0000
0010
1000
0010
,  // measure 75
0000
1000
0001
1000
,  // measure 76
0000
0100
0010
0100
,  // measure 77
0010
0001
1000
0001
,  // measure 78
1000
0001
0001
1000
,  // measure 79
1000
0100
0100
2002
,  // measure 80
3003
0000
0002
2000
3003
0000
0001
0000
,  // measure 81
0010
0000
0001
1000
0001
0000
0100
0000
,  // measure 82
0010
0000
1000
0001
1000
0000
0010
0000
,  // measure 83
0100
0000
0001
1000
0002
0000
0000
0000
,  // measure 84
1003
0001
0000
1000
,  // measure 85
0010
0100
0000
0000
0001
0000
0000
0000
,  // measure 86
0010
0100
0010
0001
,  // measure 87
0010
0100
0000
0000
2000
0002
3003
0000
,  // measure 88
1000
0000
0100
0000
1000
0001
1000
0000
,  // measure 89
0010
0000
0100
0000
0001
1000
0001
0000
,  // measure 90
0100
0000
0010
0000
1000
0001
2000
0000
,  // measure 91
0000
3001
1000
0000
,  // measure 92
0001
0000
0100
0010
0000
0000
1000
0000
,  // measure 93
0000
0100
0010
0100
,  // measure 94
1000
0000
0100
0010
0000
0000
0002
2000
,  // measure 95
3003
0000
0001
0010
0001
0000
1000
0001
,  // measure 96
1000
0000
0001
0100
0001
0000
0010
0100
,  // measure 97
0010
0000
0001
0000
1000
0000
0010
0100
,  // measure 98
0020
0000
1030
0001
,  // measure 99
1000
0000
0000
0000
0010
0100
0010
0100
,  // measure 100
0010
0000
1000
0001
,  // measure 101
1000
0000
0001
1000
0001
1000
0001
0000
,  // measure 102
0020
0000
0000
0000
,  // measure 103
0030
0000
0000
0000
;

//---------------dance-single - ----------------
#NOTEDATA:;
#CHARTNAME:;
#STEPSTYPE:dance-single;
#DESCRIPTION:;
#CHARTSTYLE:;
#DIFFICULTY:Easy;
#METER:6;
#RADARVALUES:0.311173,0.428160,0.166276,0.274355,0.000000,262.000000,242.000000,20.000000,33.000000,0.000000,0.000000,0.000000,0.000000,0.000000,0.311173,0.428160,0.166276,0.274355,0.000000,262.000000,242.000000,20.000000,33.000000,0.000000,0.000000,0.000000,0.000000,0.000000;
#CREDIT:Alchemy Jones;
#DISPLAYBPM:*;
#NOTES:
0000
0000
0000
0000
,
0000
0000
0000
0000
,
0000
0000
0000
0000
,
0000
0000
0000
0000
,
2000
0010
0001
3010
,
0002
0010
1000
0013
,
2000
0100
0001
3100
,
0002
0100
1000
0103
,
0001
0000
0100
0000
,
1000
0000
0010
0000
,
0001
0000
0100
0000
,
1000
0000
0010
0000
,
1000
0100
0001
0010
,
1000
0100
0001
0010
,
1000
0100
0010
0001
,
1001
0010
0000
1000
,
0000
0100
0000
1000
,
0000
0001
0000
0010
,
0100
0020
0000
0001
,
0031
0000
0000
0100
,
0000
0020
0000
1000
,
1030
0000
0000
1001
,
0000
0010
0000
0001
,
0000
0010
0000
0001
,
0000
1000
0000
0100
,
0010
0200
0000
1000
,
1300
0000
0000
0010
,
0000
0200
0000
0001
,
0301
0000
0000
1001
,
0000
0010
0000
1000
,
0000
0010
0000
1000
,
0000
0001
0000
0100
,
0010
0200
0000
0001
,
0301
0000
0000
0010
,
0000
0200
0000
1000
,
1300
0000
0000
1001
,
0000
0001
0000
0100
,
0000
0010
0000
0001
,
0000
0100
0000
0010
,
0000
0001
0000
1000
,
0000
1002
0000
0103
,
0000
2001
0000
3010
,
0000
1001
0000
0110
,
0000
1001
0000
0110
,
0000
1001
0000
1000
,
0001
0100
0000
0001
,
1000
0100
0000
1000
,
0001
0010
0001
1000
,
0020
0000
0000
0130
,
0000
0100
0000
0000
0100
0000
0002
0000
,
0000
0000
0000
2003
,
0000
3010
0000
0100
,
0000
0001
0000
0100
,
0000
0010
0000
1000
,
0001
2000
0000
0010
,
3010
0000
0000
0001
,
0000
2000
0000
0100
,
3100
0000
0000
1001
,
0000
0100
0000
0010
,
0000
1000
0000
0010
,
0000
0100
0000
0001
,
1000
0002
0000
0100
,
0103
0000
0000
1000
,
0000
0002
0000
0010
,
0013
0000
0000
1001
,
0000
0100
0000
0010
,
0000
0001
0000
0010
,
0000
0100
0000
1000
,
0001
2000
0000
0100
,
3100
0000
0000
0001
,
0000
2000
0000
0010
,
3010
0000
0000
1001
,
0000
0001
0000
0100
,
0000
0010
0000
1000
,
0000
0001
0000
0100
,
0000
0010
0000
1000
,
0000
2001
0000
3010
,
0000
1002
0000
0103
,
0000
1001
0000
0110
,
0000
1001
0000
0110
,
0000
2000
3000
0001
,
0010
0001
0010
0001
,
1000
0001
1000
0001
,
0100
0001
0200
0000
,
0301
0000
0000
1000
,
0001
1000
0002
0000
,
1003
0000
0000
0010
,
0100
0000
0002
0003
,
1000
0010
1000
0010
,
1000
0001
1000
0001
,
1000
0100
1000
0200
,
0000
1300
0000
0000
,
0001
1000
0001
2000
,
0000
3001
0000
0000
,
0010
0100
0000
0020
,
0030
0001
1000
0001
,
1000
0010
0100
0010
,
0100
0001
0010
0100
,
2000
0000
3001
0000
,
0000
1000
0100
1000
,
0020
0000
0130
0000
,
0000
0001
0100
0001
,
0020
0000
0000
0000
,
0030
0000
0000
0000
;
