#VERSION:0.83;
#TITLE:WOMAN ON THE MOON;
#SUBTITLE:;
#ARTIST:YUNG BAE feat. UPSAHL;
#TITLETRANSLIT:;
#SUBTITLETRANSLIT:;
#ARTISTTRANSLIT:;
#GENRE:;
#ORIGIN:;
#CREDIT:;
#BANNER:WOMAN ON THE MOON.png;
#BACKGROUND:WOMAN ON THE MOON - bg.png;
#PREVIEWVID:;
#JACKET:WOMAN ON THE MOON - jacket.jpg;
#CDIMAGE:;
#DISCIMAGE:;
#LYRICSPATH:;
#CDTITLE:;
#MUSIC:WOMAN ON THE MOON.ogg;
#OFFSET:0.002000;
#SAMPLESTART:63.556580;
#SAMPLELENGTH:12.000000;
#SELECTABLE:YES;
#BPMS:0.000=117.000;
#STOPS:;
#DELAYS:;
#WARPS:;
#TIMESIGNATURES:0.000=4=4;
#TICKCOUNTS:0.000=4;
#COMBOS:0.000=1;
#SPEEDS:0.000=1.000=0.000=0;
#SCROLLS:0.000=1.000;
#FAKES:;
#LABELS:0.000=Song Start;
#LASTSECONDHINT:96.444725;
#BGCHANGES:-0.250=WOMAN ON THE MOON.avi=1.000=0=0=0=StretchNoLoop==CrossFade_Fastest==,
191.000=WOMAN ON THE MOON - bg.png=1.000=1=0=1===CrossFade==,
99999=-nosongbg-=1.000=0=0=0 // don't automatically add -songbackground-
;
#KEYSOUNDS:;
#ATTACKS:
;

//---------------dance-single - ----------------
#NOTEDATA:;
#CHARTNAME:;
#STEPSTYPE:dance-single;
#DESCRIPTION:;
#CHARTSTYLE:;
#DIFFICULTY:Hard;
#METER:8;
#RADARVALUES:0.472438,0.524895,0.244968,0.081656,0.117380,324.000000,300.000000,24.000000,8.000000,0.000000,0.000000,0.000000,0.000000,0.000000,0.472438,0.524895,0.244968,0.081656,0.117380,324.000000,300.000000,24.000000,8.000000,0.000000,0.000000,0.000000,0.000000,0.000000;
#CREDIT:Alchemy Jones;
#NOTES:
0000
0000
0000
0000
,
0000
0000
0000
0000
,
0000
0000
0000
0000
,
0000
0000
0000
0000
,
0100
0000
0001
0000
0010
0000
0001
1000
,
0010
0000
1000
0001
0100
0010
1000
0001
,
0020
0100
0001
0130
,
1000
0000
0100
0000
0001
1000
0010
1000
,
0100
0000
1000
0000
0010
0000
1000
0001
,
0010
0000
0001
1000
0100
0010
0001
1000
,
0020
0000
0000
0000
0100
0000
0000
0000
1000
0000
0000
0000
0130
0000
0001
1000
,
0100
0000
0000
0000
0000
0000
0010
0100
0000
0010
0001
0000
1000
0000
0001
0000
,
0100
0000
0000
0000
0000
0000
0010
0100
0000
0010
1000
0000
0001
0000
1000
0000
,
0100
0000
0000
0000
0000
0000
0010
0100
0000
1000
0001
0000
0100
0000
0010
0000
,
2000
0000
0000
0000
0000
0001
3001
0000
,
1000
0100
1000
0100
0010
0100
1000
0001
,
1000
0010
1000
0010
0100
0010
1000
0001
,
0010
0010
0100
1000
0010
0010
0100
0001
,
0011
0000
0001
0000
0010
0000
0001
0000
0100
0001
0100
0000
0001
0000
0010
0000
,
0011
0000
0101
0000
0100
0100
0001
1000
,
1010
0000
1100
0000
0010
0001
1000
0100
,
0010
0010
0001
1000
0100
0100
1000
0001
,
1001
0000
1000
0001
1000
0000
1001
0000
0001
1000
0001
0000
1001
0000
0000
0000
,
0001
0010
0100
1000
0020
0000
1030
1000
,
0010
0100
0100
0001
0020
0000
0030
0000
,
1000
0010
0100
0001
0020
0000
0031
0001
,
0010
0000
0100
0000
0100
0000
1000
0000
0020
0000
0000
0000
0030
0000
1000
0001
,
0100
0000
0000
0000
0000
0000
0010
0100
0000
0010
1000
0000
0001
0000
1000
0000
,
0100
0000
0000
0000
0000
0000
0010
0100
0000
0010
0001
0000
1000
0000
0001
0000
,
0100
0000
0000
0000
0000
0000
0010
0100
0000
0001
1000
0000
0100
0000
0010
0000
,
0002
0000
0000
0000
0000
1000
1003
0000
,
0001
0100
0001
0100
0010
0100
0001
1000
,
0001
0010
0001
0010
0100
0010
0001
1000
,
0010
0010
0100
0001
0010
0010
0100
1000
,
1010
0000
1000
0000
0010
0000
1000
0000
0100
1000
0100
0000
1000
0000
0010
0000
,
1010
0000
1100
0000
0100
0100
1000
0001
,
0011
0000
0101
0000
0010
1000
0001
0100
,
0010
0010
1000
0001
0100
0100
0001
1000
,
1001
0000
0001
1000
0001
0000
1001
0000
1000
0001
1000
0000
1001
0000
0000
0000
,
1000
0100
1000
0100
0010
0100
1000
0001
,
1000
0010
1000
0010
0100
0010
1000
0001
,
0010
0010
0100
1000
0010
0010
0100
0001
,
0011
0000
0001
0000
0010
0000
0001
0000
0100
0001
0100
0000
0001
0000
0010
0000
,
0011
0000
0101
0000
0100
0100
0001
1000
,
1010
0000
1100
0000
0010
0001
1000
0100
,
0010
0010
0001
1000
0100
0100
1000
0010
,
0110
0000
0100
0010
0100
0000
0110
0000
0010
0100
0010
0000
0110
0000
0000
0000
;

//---------------dance-single - ----------------
#NOTEDATA:;
#CHARTNAME:;
#STEPSTYPE:dance-single;
#DESCRIPTION:;
#CHARTSTYLE:;
#DIFFICULTY:Medium;
#METER:5;
#RADARVALUES:0.355787,0.381742,0.347038,0.204140,0.000000,244.000000,210.000000,34.000000,20.000000,0.000000,0.000000,0.000000,0.000000,0.000000,0.355787,0.381742,0.347038,0.204140,0.000000,244.000000,210.000000,34.000000,20.000000,0.000000,0.000000,0.000000,0.000000,0.000000;
#CREDIT:Alchemy Jones;
#NOTES:
0000
0000
0000
0000
,
0000
0000
0000
0000
,
0000
0000
0000
0000
,
0000
0000
0000
0000
1000
0000
0100
0010
,
0001
0000
0000
0000
0001
0000
0100
0010
,
1000
0000
0010
1000
0010
1000
0001
1000
,
0002
0000
0003
0000
,
0110
0000
1001
0000
0001
0000
0010
0100
,
1000
0000
0000
0000
1000
0000
0010
0100
,
0001
0000
0010
0001
0010
0001
1000
0001
,
2000
0000
0000
3000
,
1001
0000
0000
0000
0001
0010
0001
1000
,
0001
0000
0000
0000
1000
0010
1000
0001
,
1000
0000
0000
0000
0010
1000
0001
0010
,
0002
0000
0000
0003
,
1000
0100
1000
0002
1000
0000
1003
0000
,
0001
0100
0001
2000
0001
0000
3001
0000
,
1000
0010
1000
0000
0001
0010
0001
0000
,
1001
0110
1001
0110
,
1002
0000
1003
0000
0010
1000
0010
0000
,
2001
0000
3001
0000
0010
0001
0010
0000
,
0001
0100
0001
0000
1000
0100
1000
0000
,
1001
0110
1001
0110
,
0001
0100
0010
0100
0020
0000
1000
0000
,
1030
0000
0100
0010
0200
0000
0300
0000
,
1000
0100
0010
0100
0020
0000
0001
0000
,
0031
0000
0100
0010
0200
0000
0300
0000
,
1001
0000
0000
0000
1000
0100
1000
0001
,
1000
0000
0000
0000
0001
0100
0001
1000
,
0001
0000
0000
0000
0100
0001
1000
0100
,
2000
0000
0000
3000
,
0001
0010
0001
2000
0001
0000
3001
0000
,
1000
0010
1000
0002
1000
0000
1003
0000
,
0001
0100
0001
0000
1000
0100
1000
0000
,
1001
0110
1001
0110
,
2001
0000
3001
0000
0100
0001
0100
0000
,
1002
0000
1003
0000
0100
1000
0100
0000
,
1000
0010
1000
0000
0001
0010
0001
0000
,
1001
0110
1001
0110
,
1000
0010
1000
0002
1000
0000
1003
0000
,
0001
0010
0001
2000
0001
0000
3001
0000
,
1000
0100
1000
0000
0001
0100
0001
0000
,
1001
0110
1001
0110
,
1002
0000
1003
0000
0100
1000
0100
0000
,
2001
0000
3001
0000
0100
0001
0100
0000
,
0001
0010
0001
0000
1000
0010
1000
0000
,
1001
0110
1001
0110
;

//---------------dance-single - ----------------
#NOTEDATA:;
#CHARTNAME:;
#STEPSTYPE:dance-single;
#DESCRIPTION:;
#CHARTSTYLE:;
#DIFFICULTY:Easy;
#METER:3;
#RADARVALUES:0.223096,0.334024,0.234761,0.102070,0.000000,153.000000,130.000000,23.000000,10.000000,0.000000,0.000000,0.000000,0.000000,0.000000,0.223096,0.334024,0.234761,0.102070,0.000000,153.000000,130.000000,23.000000,10.000000,0.000000,0.000000,0.000000,0.000000,0.000000;
#CREDIT:Alchemy Jones;
#NOTES:
// measure 0
0000
0000
0000
0000
,  // measure 1
0000
0000
0000
0000
,  // measure 2
0000
0000
0000
0000
,  // measure 3
0000
0000
0010
1000
,  // measure 4
0100
0000
0010
0001
,  // measure 5
0100
0000
0001
1000
,  // measure 6
0020
0030
0200
0300
,  // measure 7
1000
0100
0010
0001
,  // measure 8
0100
0000
0010
1000
,  // measure 9
0100
0000
1000
0001
,  // measure 10
0020
0030
0200
0300
,  // measure 11
1001
0000
0100
0010
,  // measure 12
0100
0000
0001
1000
,  // measure 13
0001
0000
0010
0100
,  // measure 14
0020
0000
0000
0030
,  // measure 15
0001
0001
1000
1000
,  // measure 16
0001
0001
1000
1000
,  // measure 17
0010
0100
0010
0100
,  // measure 18
0110
0110
1001
1001
,  // measure 19
1001
0000
1000
0000
,  // measure 20
1001
0000
0110
0000
,  // measure 21
1000
1000
0001
0001
,  // measure 22
0100
0010
0100
0010
,  // measure 23
2000
0000
0000
3000
,  // measure 24
0002
0000
0000
0003
,  // measure 25
2000
0000
0000
3000
,  // measure 26
0002
0000
0000
0003
,  // measure 27
1001
0000
0100
0010
,  // measure 28
0100
0000
1000
0001
,  // measure 29
1000
0000
0010
0100
,  // measure 30
0020
0000
0000
0030
,  // measure 31
1000
1000
0001
0001
,  // measure 32
1000
1000
0001
0001
,  // measure 33
0010
0100
0010
0100
,  // measure 34
0110
0110
1001
1001
,  // measure 35
1001
0000
0001
0000
,  // measure 36
1001
0000
0110
0000
,  // measure 37
0001
0001
1000
1000
,  // measure 38
0100
0010
0100
0010
,  // measure 39
0001
0001
1000
1000
,  // measure 40
0001
0001
1000
1000
,  // measure 41
0010
0100
0010
0100
,  // measure 42
0110
0110
1001
1001
,  // measure 43
1001
0000
1000
0000
,  // measure 44
1001
0000
0110
0000
,  // measure 45
1000
1000
0001
0001
,  // measure 46
0100
0010
0100
0010
;
