#VERSION:0.83;
#TITLE:WHERE'S YOUR HEAD AT;
#SUBTITLE:(1991 Remix);
#ARTIST:BASEMENT JAXX;
#TITLETRANSLIT:;
#SUBTITLETRANSLIT:;
#ARTISTTRANSLIT:;
#GENRE:;
#ORIGIN:;
#CREDIT:;
#BANNER:WHERE'S YOUR HEAD AT (1991 REMIX).png;
#BACKGROUND:WHERE'S YOUR HEAD AT (1991 REMIX) - bg.png;
#PREVIEWVID:;
#JACKET:WHERE'S YOUR HEAD AT (1991 REMIX) - jacket.png;
#CDIMAGE:;
#DISCIMAGE:;
#LYRICSPATH:;
#CDTITLE:;
#MUSIC:WHERE'S YOUR HEAD AT (1991 REMIX).ogg;
#OFFSET:-0.137000;
#SAMPLESTART:56.671230;
#SAMPLELENGTH:12.000000;
#SELECTABLE:YES;
#DISPLAYBPM:173.964005;
#BPMS:0.000=173.964,
171.500=86.982,
175.500=173.964;
#STOPS:;
#DELAYS:;
#WARPS:;
#TIMESIGNATURES:0.000=4=4;
#TICKCOUNTS:0.000=4;
#COMBOS:0.000=1;
#SPEEDS:0.000=1.000=0.000=0;
#SCROLLS:0.000=1.000;
#FAKES:;
#LABELS:0.000=Song Start;
#BGCHANGES:19.500=WHERE'S YOUR HEAD AT (1991 Remix).avi=1.000=0=0=0=StretchNoLoop==CrossFade_Fastest==,
286.000=WHERE'S YOUR HEAD AT (1991 REMIX) - bg.png=1.000=0=0=1=====,
99999=-nosongbg-=1.000=0=0=0 // don't automatically add -songbackground-
;
#KEYSOUNDS:;
#ATTACKS:
;

//---------------dance-single - ----------------
#NOTEDATA:;
#CHARTNAME:;
#STEPSTYPE:dance-single;
#DESCRIPTION:;
#CHARTSTYLE:;
#DIFFICULTY:Hard;
#METER:9;
#RADARVALUES:0.665219,0.874323,0.127174,0.097826,0.039131,476.000000,463.000000,13.000000,10.000000,0.000000,0.000000,0.000000,0.000000,0.000000,0.665219,0.874323,0.127174,0.097826,0.039131,476.000000,463.000000,13.000000,10.000000,0.000000,0.000000,0.000000,0.000000,0.000000;
#CREDIT:Alchemy Jones;
#DISPLAYBPM:173.964005;
#NOTES:
// measure 0
0000
0000
0000
0000
,  // measure 1
0000
0000
0000
0000
,  // measure 2
0000
0000
0000
0000
,  // measure 3
0000
0000
0000
0000
,  // measure 4
0000
0000
0000
0000
,  // measure 5
1010
0000
0000
0101
0000
0000
0011
0000
,  // measure 6
0000
1100
0000
0000
0110
0000
0000
1001
,  // measure 7
0100
1000
0100
1000
0100
0010
0100
0010
,  // measure 8
0001
0010
0001
0010
0200
0000
0000
0000
,  // measure 9
1300
0100
1000
0010
0200
0000
0301
0010
,  // measure 10
0000
0010
0100
1000
0000
1000
0001
0010
,  // measure 11
0001
0100
0001
0010
0200
0000
1300
0010
,  // measure 12
0000
0010
0100
0001
0000
0001
1000
0000
,  // measure 13
0010
1000
0010
0100
0001
0010
0100
0020
,  // measure 14
0000
0031
1000
0100
0000
0100
0010
0100
,  // measure 15
1000
0010
0100
0001
0010
0001
0100
0020
,  // measure 16
0000
1030
0100
0010
0000
0010
0001
0100
,  // measure 17
0010
0000
0010
1000
0000
1000
0001
0000
,  // measure 18
0001
0100
0100
0010
1000
1000
0100
0010
,  // measure 19
0010
0001
0100
0100
0001
0010
0010
0100
,  // measure 20
1000
1000
0010
0000
1000
0001
1000
0001
,  // measure 21
0010
0000
0010
0001
0000
0001
1000
0000
,  // measure 22
1000
0010
0010
0100
0001
0001
0010
0100
,  // measure 23
0100
1000
0010
0010
1000
0100
0100
0010
,  // measure 24
0001
0100
0001
0100
0001
0010
0001
0010
,  // measure 25
0000
0100
1000
0010
0100
0010
1000
0001
,  // measure 26
1000
1000
0100
0000
0010
0001
1000
0000
,  // measure 27
0010
0100
0001
0010
0100
0010
0001
1000
,  // measure 28
0001
0001
0100
0000
1010
1000
0100
0000
,  // measure 29
0010
0100
1000
0010
0100
0010
1000
0001
,  // measure 30
1000
1000
0100
0000
0010
0001
1000
0000
,  // measure 31
0010
0100
0001
0010
0100
0010
0001
1000
,  // measure 32
0001
0001
0100
0000
0011
0001
0100
0000
,  // measure 33
0001
0010
0001
0100
0010
0100
0001
2000
,  // measure 34
0010
0010
3010
0000
0010
1000
0001
0000
,  // measure 35
0100
0010
1000
0100
0010
0100
1000
0001
,  // measure 36
1000
1000
0010
0000
0101
0001
0010
0000
,  // measure 37
0100
0010
0001
0100
0010
0100
0001
2000
,  // measure 38
0100
0100
3100
0000
0100
1000
0001
0000
,  // measure 39
0100
0010
1000
0100
0010
0000
0010
0001
,  // measure 40
0000
0001
1000
0000
2020
0000
0000
3030
,  // measure 41
0010
0000
0010
1000
0000
1000
0001
0000
,  // measure 42
0001
0000
0100
0000
0100
0000
0010
0000
1000
0000
1000
0000
0100
0000
0010
0010
,  // measure 43
0001
0100
0100
0001
0010
0010
0100
1000
1000
0010
0100
0001
1000
0001
1000
0000
,  // measure 44
0001
0100
0001
1000
0001
0100
0001
1000
,  // measure 45
0100
0010
0100
1000
0100
0010
0100
1000
,  // measure 46
0001
0010
0001
1000
0001
0010
0001
1000
,  // measure 47
0010
0100
0010
1000
0020
0000
0000
0000
,  // measure 48
1030
0100
0010
0100
1000
0001
0100
1000
,  // measure 49
0001
0010
1000
0100
0001
0100
1000
0001
,  // measure 50
0010
1000
0010
0001
0100
1000
0100
0001
,  // measure 51
1000
0010
0001
0010
0100
1000
0100
0001
,  // measure 52
1000
0100
0010
0100
1000
0001
0100
1000
,  // measure 53
0001
0010
1000
0100
0001
0100
1000
0001
,  // measure 54
0010
1000
0010
0001
0100
1000
0100
0010
,  // measure 55
0001
0010
1000
0001
0010
1000
0010
0001
,  // measure 56
0100
0000
0100
0001
0000
0001
1000
0000
,  // measure 57
1000
0010
0010
0100
0001
0001
0010
0100
,  // measure 58
0100
1000
0010
0010
1000
0100
0100
0010
,  // measure 59
0001
0001
0100
0000
0001
1000
0001
1000
,  // measure 60
0100
0000
0100
1000
0000
1000
0001
0000
,  // measure 61
0001
0100
0100
0010
1000
1000
0100
0010
,  // measure 62
0010
0001
0100
0100
0001
0010
0010
0100
,  // measure 63
0010
0001
0010
0001
0100
0001
0100
0001
,  // measure 64
1000
0010
0100
0010
1000
0100
0010
0100
,  // measure 65
1000
0010
0100
0010
0110
0000
0000
0000
,  // measure 66
0001
0010
0100
0010
0001
0100
0010
0100
,  // measure 67
0001
0010
0100
0010
0001
0100
0010
0000
,  // measure 68
0100
0010
1000
0100
0010
0000
0010
0001
,  // measure 69
0000
0001
0100
0000
1100
0000
0000
0000
,  // measure 70
0100
0010
0001
0100
0010
0000
0010
1000
,  // measure 71
0000
1000
0100
0000
0101
0000
0000
0000
;

//---------------dance-single - ----------------
#NOTEDATA:;
#CHARTNAME:;
#STEPSTYPE:dance-single;
#DESCRIPTION:;
#CHARTSTYLE:;
#DIFFICULTY:Medium;
#METER:7;
#RADARVALUES:0.487734,0.524594,0.313044,0.058696,0.014674,349.000000,317.000000,32.000000,6.000000,0.000000,0.000000,0.000000,0.000000,0.000000,0.487734,0.524594,0.313044,0.058696,0.014674,349.000000,317.000000,32.000000,6.000000,0.000000,0.000000,0.000000,0.000000,0.000000;
#CREDIT:Alchemy Jones;
#DISPLAYBPM:173.964005;
#NOTES:
0000
0000
0000
0000
,
0000
0000
0000
0000
,
0000
0000
0000
0000
,
0000
0000
0000
0000
,
0000
0000
0000
0000
,
1001
0000
0000
0110
0000
0000
1001
0000
,
0000
0110
0000
0000
0110
0000
0000
0000
,
0001
0010
0100
1000
,
0010
0100
0002
0000
,
1003
0000
0010
0000
0100
0000
0001
0010
,
0000
0010
0100
0000
1000
0010
0100
0000
,
0001
0000
0010
0000
0100
0000
1000
0010
,
0000
0010
0100
0000
0001
0010
0100
0000
,
1000
0000
0100
0000
0010
0000
0001
0100
,
0000
0100
0010
0000
1000
0100
0010
0000
,
0001
0000
0100
0000
0010
0000
1000
0100
,
0000
0100
0010
0000
0001
0100
0010
0000
,
1001
0000
0000
0110
0000
0000
1001
0000
,
0000
0110
0000
0000
0110
0000
0010
1000
,
0010
1000
0000
0100
0000
0100
0010
0001
,
0010
0001
0000
0001
1000
0010
1000
0000
,
1001
0000
0000
0110
0000
0000
1001
0000
,
0000
0110
0000
0000
0110
0000
0010
0001
,
0010
0001
0000
0100
0000
0100
0010
1000
,
0010
1000
0000
1000
0001
0010
0001
1000
,
0000
1000
0010
1000
0100
0000
0100
0000
,
0010
0001
0010
0000
0001
0000
0100
0000
,
0000
0001
0010
0001
0100
0000
0100
0000
,
0010
1000
0010
0000
1000
0000
0100
0000
,
0000
1000
0100
1000
0010
0000
0010
0000
,
0100
0001
0100
0000
0001
0000
0010
0000
,
0000
0001
0100
0001
0010
0000
0010
0000
,
0100
1000
0100
0000
1000
0000
0010
0000
,
0000
1000
0010
1000
0100
0000
0100
0020
,
0000
0030
0001
0100
,
0000
0001
0010
0001
0100
0000
0100
0000
,
0010
1000
0010
0000
1000
0000
0100
0000
,
0000
1000
0100
1000
0010
0000
0010
0200
,
0000
0300
0001
0010
,
0000
0001
0100
0001
0010
0000
0010
0100
,
0000
0100
0000
1000
0002
0000
0003
0000
,
1001
0000
0000
1001
0000
0000
0110
0000
,
0000
1001
0000
0000
0110
0000
0000
2000
,
0000
0010
0000
0000
0010
0000
0000
0010
0000
0000
0001
0000
0000
3001
0000
0000
,
0001
0010
0001
0000
0001
0100
0001
0000
,
1000
0010
1000
0000
1000
0100
1000
0000
,
0100
1000
0010
0000
0100
0001
0010
0000
,
0100
1000
0001
0000
0200
0000
0000
0300
,
0001
0010
0001
1000
0001
0000
0001
0000
,
1000
0010
1000
0001
1000
0000
1000
0000
,
0100
1000
0001
0100
0010
0000
0010
0000
,
0100
0001
1000
0100
0010
0000
0010
0000
,
0001
0100
0001
1000
0001
0000
0001
0000
,
1000
0100
1000
0001
1000
0000
1000
0000
,
0010
1000
0001
0010
0100
0000
0100
0000
,
0010
0001
1000
0010
0100
0000
0100
0000
,
1001
0000
0000
0110
0000
0000
1001
0000
,
0000
0110
0000
0000
0110
0000
0100
0001
,
0100
0001
0000
0010
0000
0010
0100
1000
,
0100
1000
0000
1000
0001
0100
0001
0000
,
1001
0000
0000
0110
0000
0000
1001
0000
,
0000
0110
0000
0000
0110
0000
0100
1000
,
0100
1000
0000
0010
0000
0010
0100
0001
,
0010
0001
0010
0001
0010
0001
0010
0001
,
0100
0000
0000
1000
0000
0000
0010
0000
,
0000
0001
0100
1000
0100
0000
0000
0000
,
0010
0000
0000
1000
0000
0000
0100
0000
,
0000
0001
0010
1000
0001
0000
0000
0000
,
0100
1000
0010
0100
,
0001
0010
0100
0000
1001
0000
0000
0000
,
0100
0001
0010
0100
,
1000
0010
0100
0000
1001
0000
0000
0000
;

//---------------dance-single - ----------------
#NOTEDATA:;
#CHARTNAME:;
#STEPSTYPE:dance-single;
#DESCRIPTION:;
#CHARTSTYLE:;
#DIFFICULTY:Easy;
#METER:5;
#RADARVALUES:0.315839,0.419675,0.215218,0.097826,0.000000,226.000000,204.000000,22.000000,10.000000,0.000000,0.000000,0.000000,0.000000,0.000000,0.315839,0.419675,0.215218,0.097826,0.000000,226.000000,204.000000,22.000000,10.000000,0.000000,0.000000,0.000000,0.000000,0.000000;
#CREDIT:Alchemy Jones;
#DISPLAYBPM:173.964005;
#NOTES:
0000
0000
0000
0000
,
0000
0000
0000
0000
,
0000
0000
0000
0000
,
0000
0000
0000
0000
,
0000
0000
0000
0000
,
1000
0000
0000
1000
0000
0000
0010
0000
,
0000
0010
0000
0000
0100
0000
0000
0100
,
0000
0000
0001
0000
0000
0001
0000
0000
,
0010
0000
0200
0000
,
0301
0001
1000
1000
,
0010
1000
0010
1000
,
0001
0001
1000
1000
,
0100
1000
0100
1000
,
0010
0010
0100
0100
,
0001
1000
0001
1000
,
0100
0100
0010
0010
,
0001
1000
0001
1000
,
0001
0000
0000
0001
0000
0000
0010
0000
,
0000
0010
0000
0000
0100
0000
0000
0100
,
0000
0000
1000
0000
0000
1000
0000
0000
,
0010
0000
0000
0100
0000
0000
0010
0000
,
1000
0000
0000
1000
0000
0000
0100
0000
,
0000
0100
0000
0000
0010
0000
0000
0010
,
0000
0000
0001
0000
0000
1000
0000
0000
,
0002
0000
0000
0003
,
1000
0010
1000
0100
,
0010
0010
0000
1001
,
0001
0010
0001
0100
,
0010
0010
0010
0000
,
1000
0100
1000
0010
,
0100
0100
0000
1001
,
0001
0100
0001
0010
,
0100
0100
0100
0000
,
1000
0010
1000
0100
,
0220
0000
0330
1001
,
0001
0010
0001
0100
,
0010
0010
0000
1001
,
1000
0100
1000
0010
,
0220
0000
0330
1001
,
0001
0100
0001
0010
,
0100
0100
0200
0000
,
1300
0000
0000
1000
0000
0000
0010
0000
,
0000
0010
0000
0000
0100
0000
0000
0200
,
0000
0000
0000
0300
0000
0000
0000
0000
,
1001
0000
0000
1001
0000
0000
0110
0000
,
0000
0110
0000
0000
1001
0000
0000
0110
,
0000
0000
1001
0000
0000
0110
0000
0000
,
1001
0000
0020
0000
,
0031
0001
1000
1000
,
0010
0001
0100
1000
,
0001
0001
1000
1000
,
0010
1000
0100
0001
,
1000
1000
0001
0001
,
0010
1000
0100
0001
,
0010
0000
0100
0000
,
1001
0000
1001
0000
,
0001
0000
0000
0001
0000
0000
0010
0000
,
0000
0010
0000
0000
0100
0000
0000
0100
,
0000
0000
1000
0000
0000
1000
0000
0000
,
0010
0000
0000
0100
0000
0000
0010
0000
,
1000
0000
0000
1000
0000
0000
0010
0000
,
0000
0010
0000
0000
0100
0000
0000
0100
,
0000
0000
0001
0000
0000
0001
0000
0000
,
2000
0000
0000
3000
,
0010
0010
1000
0100
,
0010
0001
1001
0000
,
0010
0010
0001
0100
,
0010
1000
1001
0000
,
0001
0000
0100
0000
,
1000
0001
1001
0000
,
1000
0000
0100
0000
,
0001
1000
1001
0000
;
