#TITLE:WHERE MY GIRLS AT?;
#SUBTITLE:(Honey Dijon Remix);
#ARTIST:702;
#TITLETRANSLIT:;
#SUBTITLETRANSLIT:;
#ARTISTTRANSLIT:;
#GENRE:;
#CREDIT:;
#BANNER:WHERE MY GIRLS AT (Honey Dijon Remix).png;
#BACKGROUND:WHERE MY GIRLS AT (Honey Dijon Remix) - bg.png;
#LYRICSPATH:;
#CDTITLE:;
#MUSIC:WHERE MY GIRLS AT (Honey Dijon Remix).ogg;
#OFFSET:-0.137000;
#SAMPLESTART:64.920753;
#SAMPLELENGTH:12.000000;
#LASTBEATHINT:194.000000;
#SELECTABLE:YES;
#BPMS:0.000000=118.000000
;
#STOPS:
;
#BGCHANGES:15.750=WHERE MY GIRLS AT (Honey Dijon Remix).avi=1.000=1=0=0=StretchNoLoop==CrossFade==,
191.000=WHERE MY GIRLS AT (Honey Dijon Remix) - bg.png=1.000=1=0=1===CrossFade==,
99999=-nosongbg-=1.000=0=0=0 // don't automatically add -songbackground-
;
#KEYSOUNDS:;
#ATTACKS:;

//---------------dance-single - ----------------
#NOTES:
     dance-single:
     :
     Hard:
     9:
     0.480712,0.498751,0.136418,0.081851,0.482011,370.000000,355.000000,15.000000,9.000000,0.000000,0.000000,0.480712,0.498751,0.136418,0.081851,0.482011,370.000000,355.000000,15.000000,9.000000,0.000000,0.000000:
0000
0000
0000
0000
,
0000
0000
0000
0000
,
0000
0000
0000
0000
,
0000
0000
0000
0000
,
0000
0000
0010
0000
0000
0000
1000
0000
0010
0000
0000
0100
0001
0000
1000
0000
,
0010
0000
1010
0000
0001
0000
0000
0000
0010
0000
0000
0100
1000
0000
0001
0001
,
0010
0000
0011
0000
1000
0000
0000
0000
0010
0000
0000
0100
0001
0000
1000
0000
,
0100
0000
1100
0000
0001
0000
0000
0000
0010
0000
0000
0100
1000
0000
0001
0001
,
0100
0000
0101
0000
1000
0000
0000
0000
0100
0000
0000
0010
0001
0000
1000
0000
,
0100
0000
1100
0000
0001
0000
0000
0000
0100
0000
0000
0010
1000
0000
0001
0001
,
0100
0000
0101
0000
1000
0000
0000
0000
0100
0000
0000
0010
0001
0000
1000
0000
,
0010
0000
1010
0000
0001
0000
0000
0010
0100
0000
1000
0000
0010
0000
1000
0100
,
0001
0000
0001
0000
0000
0000
0100
0010
0001
0000
0001
0100
0000
0010
1000
0100
,
1000
0010
0100
0000
1000
0000
0100
0000
0001
0010
0000
0010
0000
0000
0001
0010
,
0100
0000
0100
0000
0000
0000
1000
0010
0100
0000
0100
0001
0000
0010
0001
0100
,
0010
0000
0010
0000
1000
0000
0100
0000
0001
0000
0100
0000
1000
0000
0001
0100
,
1000
0000
1000
0000
0000
0000
0100
0010
1000
0000
1000
0100
0000
0010
0001
0100
,
0001
0010
0100
0000
0001
0000
0100
0000
1000
0010
0000
0010
0000
0000
1000
0010
,
0100
0000
0100
0000
0000
0000
0001
0010
0100
0000
0100
1000
0000
0010
1000
0100
,
0010
0000
0010
0000
0002
0000
0000
0000
0000
0000
0003
0000
1000
0100
1000
0000
,
0001
0100
0001
0000
0010
0000
0100
0000
0110
0000
0000
0000
0001
0100
0001
0000
,
1000
0100
1000
0000
0010
0000
0100
0000
0110
0000
0000
0000
1000
0100
1000
0000
,
0001
0100
0001
0000
0010
0000
0100
0000
0110
0000
0000
0000
0001
0100
0001
0000
,
1001
1100
1001
0101
,
2200
0000
0000
0000
3300
0000
0000
0000
0001
0000
0000
0010
0000
0000
0001
0000
,
0200
0000
0000
0000
0300
0000
0000
0000
0001
0000
0000
1000
0000
0000
0100
0000
,
0020
0000
0000
0000
0030
0000
0000
0000
0001
0000
0000
0100
0000
0000
0010
0000
,
2000
0000
3200
0000
0320
0000
0031
1000
,
0001
0100
0010
1000
,
0001
0000
0000
0000
0010
0000
0000
0000
0100
0000
0000
0000
1000
0000
0000
0010
,
0100
0001
0010
0100
,
2000
0000
0000
0000
0000
0000
0000
0000
3000
0000
0000
0000
0000
0000
0001
0100
,
1000
0000
1000
0000
0000
0000
0100
0010
1000
0000
1000
0100
0000
0010
0001
0100
,
0001
0010
0100
0000
0001
0000
0100
0000
1000
0010
0000
0010
0000
0000
1000
0010
,
0100
0000
0100
0000
0000
0000
0001
0010
0100
0000
0100
1000
0000
0010
1000
0100
,
0010
0000
0010
0000
0000
0100
1000
0000
0010
0000
0100
0001
0000
0000
1000
0010
,
0001
0000
0001
0000
0000
0000
0010
0100
0001
0000
0001
0010
0000
0100
1000
0010
,
1000
0100
0010
0000
1000
0000
0010
0000
0001
0100
0000
0100
0000
0000
0001
0100
,
0010
0000
0010
0000
0000
0000
1000
0100
0010
0000
0010
0001
0000
0100
0001
0010
,
0100
0000
0100
0000
1000
0000
0001
0010
0001
0000
1000
0100
1000
0000
0001
0010
,
1000
0000
1000
0000
0000
0000
0010
0100
1000
0000
1000
0010
0000
0100
0001
0010
,
0001
0100
0010
0000
0001
0000
0010
0000
1000
0100
0000
0100
0000
0000
1000
0100
,
0010
0000
0010
0000
0000
0000
0001
0100
0010
0000
0010
1000
0000
0100
1000
0010
,
0100
0000
0100
0000
0001
0000
0010
0000
1000
0000
0010
0000
0001
0000
1000
0100
,
0001
0000
0001
0000
0000
0000
0100
0010
0001
0000
0001
0100
0000
0010
1000
0100
,
1000
0010
0100
0000
1000
0000
0100
0000
0001
0010
0000
0010
0000
0000
0001
0010
,
0100
0000
0100
0000
0000
0000
1000
0010
0100
0000
0100
0001
0000
0010
0001
0100
,
0010
0000
0010
0000
0000
0100
0001
0000
0010
0000
0100
1000
0000
0000
0000
0000
;

//---------------dance-single - ----------------
#NOTES:
     dance-single:
     :
     Medium:
     5:
     0.306616,0.325698,0.127324,0.063662,0.000000,236.000000,222.000000,14.000000,7.000000,0.000000,0.000000,0.306616,0.325698,0.127324,0.063662,0.000000,236.000000,222.000000,14.000000,7.000000,0.000000,0.000000:
// measure 0
0000
0000
0000
0000
,  // measure 1
0000
0000
0000
0000
,  // measure 2
0000
0000
0000
0000
,  // measure 3
0000
0000
0000
0000
,  // measure 4
0000
1000
0000
1000
0010
0000
0100
0001
,  // measure 5
0010
0000
0001
0000
1000
0000
0100
1000
,  // measure 6
0010
0000
1000
0000
0001
0000
0100
0001
,  // measure 7
0010
0000
0001
0000
1000
0010
0100
0001
,  // measure 8
0000
0020
0000
0000
0031
0000
0100
1000
,  // measure 9
0010
0000
1000
0000
0001
0000
0100
0001
,  // measure 10
0010
0000
0001
0000
1000
0000
0010
1000
,  // measure 11
0100
0000
0010
0001
0100
0000
1001
0000
,  // measure 12
0110
0000
0000
0010
1000
0010
1000
0100
,  // measure 13
1000
0000
0000
0001
0010
0001
0010
0100
,  // measure 14
0010
0000
0000
0100
1000
0100
1000
0001
,  // measure 15
1000
0000
0101
1100
,  // measure 16
0110
0000
0000
0100
0001
0100
0001
0010
,  // measure 17
0001
0000
0000
1000
0100
1000
0100
0010
,  // measure 18
0100
0000
0000
0010
0001
0010
0001
1000
,  // measure 19
0001
0000
2000
0000
3000
0000
0001
0010
,  // measure 20
0100
1000
0000
0010
0100
0000
1000
0010
,  // measure 21
0100
0001
0000
0010
0100
0000
0001
0010
,  // measure 22
0100
1000
0000
0010
0100
0000
0001
1000
,  // measure 23
0001
0001
1000
1000
,  // measure 24
0002
0000
0000
0000
1003
0000
1000
0010
,  // measure 25
2000
0000
0000
0000
3001
0000
0001
0010
,  // measure 26
0002
0000
0203
0000
,  // measure 27
0310
0000
0010
0000
0100
0000
0100
0001
,  // measure 28
0010
1000
0100
0001
,  // measure 29
0010
0001
0100
1000
,  // measure 30
0010
1000
0100
0001
,  // measure 31
0020
0000
0030
0000
,  // measure 32
0110
0000
0000
0010
0001
1000
0001
0100
,  // measure 33
0001
0000
0000
1000
0010
1000
0001
0100
,  // measure 34
0010
0000
0000
0100
0001
0010
0001
1000
,  // measure 35
0001
0000
0101
1100
,  // measure 36
0110
0000
0000
0100
1000
0001
1000
0010
,  // measure 37
1000
0000
0000
0001
0100
0001
1000
0010
,  // measure 38
0100
0000
0000
0010
1000
0100
1000
0001
,  // measure 39
1000
0100
0001
0010
,  // measure 40
0110
0000
0000
0100
1000
0001
1000
0010
,  // measure 41
1000
0000
0000
0001
0100
0001
1000
0010
,  // measure 42
0100
0000
0000
0010
1000
0100
1000
0001
,  // measure 43
1000
0000
0001
0010
1000
0010
0001
0000
,  // measure 44
0110
0000
0000
0010
0001
1000
0001
0100
,  // measure 45
0001
0000
0000
1000
0010
1000
0001
0100
,  // measure 46
0010
0000
0000
0100
0001
0010
0001
1000
,  // measure 47
0001
0101
1100
1001
;

//---------------dance-single - ----------------
#NOTES:
     dance-single:
     :
     Easy:
     2:
     0.154607,0.259195,0.090945,0.036378,0.000000,119.000000,109.000000,10.000000,4.000000,0.000000,0.000000,0.154607,0.259195,0.090945,0.036378,0.000000,119.000000,109.000000,10.000000,4.000000,0.000000,0.000000:
0000
0000
0000
0000
,
0000
0000
0000
0000
,
0000
0000
0000
0000
,
0000
0000
0000
0000
,
0000
0000
1000
0100
,
0001
0000
1000
0010
,
0001
0000
0100
0000
,
0010
0000
0001
0100
,
0000
0002
0003
0000
,
2000
3000
0001
0100
,
1000
0000
0001
0010
,
1000
0100
1001
1001
,
0010
0000
0100
0000
,
0001
0000
0010
1000
,
0100
0000
0001
0000
,
1000
0000
0100
0001
,
0010
0000
0100
0000
,
1000
0000
0010
0001
,
0100
0000
1000
0000
,
0002
0000
0003
1000
,
1000
0000
1001
0001
,
0001
0000
1001
1000
,
1000
0000
1001
0000
,
1001
1001
0110
0110
,
0001
0000
0000
0000
,
0100
0000
0000
0000
,
1000
0000
0000
0000
,
0010
0000
0000
0000
,
0001
0100
0001
0100
,
0001
0010
0001
0010
,
0100
1000
0100
1000
,
0020
0000
0030
0000
,
0100
0000
0010
0000
,
1000
0000
0100
0001
,
0010
0000
1000
0000
,
0001
0000
0010
1000
,
0100
0000
0010
0000
,
0001
0000
0100
1000
,
0010
0000
0001
0000
,
1000
0010
0001
0100
,
0010
0000
0100
0000
,
1000
0000
0010
0001
,
0100
0000
1000
0000
,
0001
0000
0100
1000
,
0010
0000
0100
0000
,
0001
0000
0010
1000
,
0100
0000
0001
0000
,
1000
0000
1001
0000
;
