#VERSION:0.83;
#TITLE:WASTED;
#SUBTITLE:;
#ARTIST:PISCEAN;
#TITLETRANSLIT:;
#SUBTITLETRANSLIT:;
#ARTISTTRANSLIT:;
#GENRE:;
#ORIGIN:;
#CREDIT:;
#BANNER:WASTED.png;
#BACKGROUND:WASTED-bg.png;
#PREVIEWVID:;
#JACKET:WASTED-jacket.png;
#CDIMAGE:;
#DISCIMAGE:;
#LYRICSPATH:;
#CDTITLE:;
#MUSIC:WASTED.ogg;
#OFFSET:-0.077000;
#SAMPLESTART:38.428833;
#SAMPLELENGTH:12.000000;
#SELECTABLE:YES;
#BPMS:0.000=125.012;
#STOPS:;
#DELAYS:;
#WARPS:;
#TIMESIGNATURES:0.000=4=4;
#TICKCOUNTS:0.000=4;
#COMBOS:0.000=1;
#SPEEDS:0.000=1.000=0.000=0;
#SCROLLS:0.000=1.000;
#FAKES:;
#LABELS:0.000=Song Start;
#LASTSECONDHINT:108.343086;
#BGCHANGES:-0.160=WASTED.avi=1.000=1=0=1===CrossFade==,
225.500=WASTED-bg.png=1.000=1=0=1===CrossFade==,
99999=-nosongbg-=1.000=0=0=0 // don't automatically add -songbackground-
;
#KEYSOUNDS:;
#ATTACKS:
;

//---------------dance-single - ----------------
#NOTEDATA:;
#CHARTNAME:;
#STEPSTYPE:dance-single;
#DESCRIPTION:;
#CHARTSTYLE:;
#DIFFICULTY:Hard;
#METER:8;
#RADARVALUES:0.481312,0.511313,0.173481,0.191742,0.283048,369.000000,350.000000,19.000000,21.000000,0.000000,0.000000,0.000000,0.000000,0.000000,0.481312,0.511313,0.173481,0.191742,0.283048,369.000000,350.000000,19.000000,21.000000,0.000000,0.000000,0.000000,0.000000,0.000000;
#CREDIT:Alchemy Jones;
#NOTES:
0000
0000
0000
0000
,
0000
0000
0000
0000
,
0000
0000
0000
0000
,
0000
0000
0000
0000
,
0001
0100
0010
0100
0001
0000
0020
0100
,
0000
1000
0000
0002
0000
0000
0033
0000
,
1000
0100
0010
0100
1000
0001
0100
0010
,
0000
0000
1000
0000
0001
0000
0010
0000
0000
0000
0100
0000
1000
0010
0100
0000
,
0001
0010
0100
0010
0001
0100
0020
0001
,
0000
1030
0100
0020
0000
0200
0000
0000
,
0330
0000
0010
0001
1000
0010
0100
0010
,
0000
1000
0000
0001
0000
0010
0001
0200
,
0000
1300
0100
0010
0000
0010
1000
0200
,
0000
0301
0100
0010
0000
0010
0001
0200
,
0000
1300
0100
0010
0000
1000
0001
0100
,
0000
0100
0001
1000
0000
0010
1000
0200
,
0000
0301
0100
0010
0000
0010
0001
0200
,
0000
1300
0100
0010
0000
0010
1000
0200
,
0000
0301
0100
0010
0000
0001
1000
0100
,
0000
0100
1000
0020
0000
0200
0000
0330
,
1001
0000
0000
0000
0000
0000
0000
0000
0100
0000
0100
0001
0000
0001
1000
0000
,
1100
0000
0000
0000
0000
0000
1000
0010
1000
0001
0000
0100
0000
0000
0001
0000
,
1010
0000
0000
0000
0000
0000
0001
0010
0100
0000
0100
1000
0000
1000
0001
0000
,
0101
0000
0000
0000
0000
0000
0001
0010
0001
1000
0000
0100
0000
0000
1000
0000
,
0011
0000
0000
0000
0000
0000
0000
0000
0010
0000
0010
0001
0000
0001
1000
0000
,
1010
0000
0000
0000
0000
0000
1000
0100
1000
0001
0000
0010
0000
0000
0001
0000
,
1100
0000
0000
0000
0000
0000
0001
0100
0010
0000
0010
1000
0000
1000
0001
0000
,
0011
0000
0000
0000
0000
0000
0001
0100
0001
1000
0000
0010
0000
0000
1000
0000
,
0001
0000
0010
0000
0001
1000
0000
0010
1000
0000
0001
0100
0000
0100
1000
0000
,
0000
0000
0100
0000
0010
1000
0000
0001
0010
0000
0001
1000
0000
0100
0000
0000
,
1000
0000
0010
0000
1000
0001
0000
0010
0001
0000
1000
0100
0000
0100
0001
0000
,
0000
0000
0100
0000
0010
0001
0000
1000
0010
0000
1000
0000
0000
0000
0000
0000
,
0001
0100
0010
0100
0001
0010
0100
0010
,
0001
0000
0100
0000
1000
0000
0100
0000
0001
0000
0100
0010
1000
0000
0000
0000
,
1000
0100
0010
0100
1000
0010
0100
0010
,
1000
0000
0100
0000
0001
0000
0100
0000
1000
0000
0100
0010
0001
0000
0000
0000
,
0001
0010
0100
0001
0100
0010
0001
0100
,
1000
0000
0100
0000
0010
0000
0100
0000
1000
0000
0100
0001
1000
0000
0000
0000
,
1000
0010
0100
1000
0100
0010
1000
0100
,
0001
0000
0100
0000
0010
0000
0100
0000
0001
0000
0100
1000
0001
0000
0000
0000
,
1001
0000
0000
0000
0000
0000
0000
0000
0010
0000
0010
0001
0000
0001
1000
0000
,
1010
0000
0000
0000
0000
0000
1000
0100
1000
0001
0000
0010
0000
0000
0101
0000
,
1001
0000
0000
0000
0000
0000
0001
0100
0010
0000
0010
1000
0000
1000
0001
0000
,
0011
0000
0000
0000
0000
0000
0001
0100
0001
1000
0000
0010
0000
0000
1100
0000
,
1001
0000
0000
0000
0000
0000
0000
0000
0100
0000
0100
0001
0000
0001
1000
0000
,
1100
0000
0000
0000
0000
0000
1000
0010
1000
0001
0000
0100
0000
0000
0011
0000
,
1001
0000
0000
0000
0000
0000
0001
0010
0100
0000
0100
1000
0000
1000
0001
0000
,
0101
0000
0000
0000
0000
0000
0001
0010
0001
1000
0100
0000
1000
0000
0020
0000
,
0000
0031
0010
0100
0000
0100
0001
0020
,
0000
1030
0010
0100
0000
0100
1000
0020
,
0000
0031
0010
0100
0000
0001
1000
0010
,
0000
0010
1000
0001
0000
0100
0001
0020
,
0000
1030
0010
0100
0000
0100
1000
0020
,
0000
0031
0010
0100
0000
0100
0001
0020
,
0000
1030
0010
0100
0000
1000
0001
0010
,
0000
0010
0001
0200
0000
0020
0000
0000
,
0330
0000
0000
0000
;

//---------------dance-single - ----------------
#NOTEDATA:;
#CHARTNAME:;
#STEPSTYPE:dance-single;
#DESCRIPTION:;
#CHARTSTYLE:;
#DIFFICULTY:Medium;
#METER:6;
#RADARVALUES:0.370441,0.357919,0.073045,0.136959,0.068479,284.000000,276.000000,8.000000,15.000000,0.000000,0.000000,0.000000,0.000000,0.000000,0.370441,0.357919,0.073045,0.136959,0.068479,284.000000,276.000000,8.000000,15.000000,0.000000,0.000000,0.000000,0.000000,0.000000;
#CREDIT:Alchemy Jones;
#NOTES:
0000
0000
0000
0000
,
0000
0000
0000
0000
,
0000
0000
0000
0000
,
0000
0000
0000
0000
,
1000
0000
1000
0010
0100
0000
0100
0001
,
0000
0001
1000
0100
0000
0100
0010
0001
,
0000
0000
1000
0010
1000
0010
0100
0001
,
0000
0010
0000
0100
0000
1000
0100
0010
,
0001
0000
0001
0010
0100
0000
0100
1000
,
0000
1000
0001
0100
0000
0100
0010
1000
,
0000
0000
0001
0010
0001
0010
0100
1000
,
0000
0010
0000
0100
0000
0001
1000
0200
,
0000
1300
0001
0100
0000
0001
1000
0200
,
0000
1300
0001
0100
0000
0001
1000
0200
,
0000
1300
0001
0100
0000
0010
1000
0001
,
0000
0001
1000
0010
0000
1000
0001
0020
,
0000
0031
1000
0010
0000
1000
0001
0020
,
0000
0031
1000
0010
0000
1000
0001
0020
,
0000
0031
1000
0010
0000
0100
0001
1000
,
0000
1000
0001
0200
0000
0301
0000
0000
,
1001
0000
0000
0000
0000
0000
0000
0000
1000
0000
0000
0010
0000
0000
1000
0000
,
0001
0000
0000
0000
0000
0000
0010
0000
0100
0000
0000
0010
0000
0000
0001
0000
,
1000
0000
0000
0000
0000
0000
1000
0000
0001
0000
0000
0010
0000
0000
0001
0000
,
1000
0000
0000
0000
0000
0000
0010
0000
0100
0000
0000
0010
0000
0000
1000
0000
,
0001
0000
0000
0000
0000
0000
0000
0000
1000
0000
0000
0100
0000
0000
1000
0000
,
0001
0000
0000
0000
0000
0000
0100
0000
0010
0000
0000
0100
0000
0000
0001
0000
,
1000
0000
0000
0000
0000
0000
1000
0000
0001
0000
0000
0100
0000
0000
0001
0000
,
1000
0000
0000
0000
0000
0000
0100
0000
0010
0000
0000
0100
0000
0000
0000
0000
,
1001
0000
0001
0000
0100
0010
0100
0001
,
0000
0001
1000
0000
1000
0100
1000
0000
,
1001
0000
1000
0000
0100
0010
0100
1000
,
0000
1000
0001
0000
0001
0100
0001
0000
,
1001
0000
1000
0000
0100
0010
0001
0000
,
1000
0000
0001
0000
0100
0010
0100
0000
,
1001
0000
0001
0000
0010
0100
1000
0000
,
0001
0000
1000
0000
0100
0010
0100
0000
,
1001
0000
0001
0000
0010
0100
1000
0000
,
0001
0000
1000
0000
0010
0100
0010
0000
,
1001
0000
1000
0000
0100
0010
0001
0000
,
1000
0000
0001
0000
0010
0100
0010
0000
,
1001
0000
0000
0000
0000
0000
0000
0000
0001
0000
0000
0100
0000
0000
0001
0000
,
1000
0000
0000
0000
0000
0000
0100
0000
0010
0000
0000
0100
0000
0000
1000
0000
,
0001
0000
0000
0000
0000
0000
0001
0000
1000
0000
0000
0100
0000
0000
1000
0000
,
0001
0000
0000
0000
0000
0000
0100
0000
0010
0000
0000
0100
0000
0000
0001
0000
,
1000
0000
0000
0000
0000
0000
0000
0000
0001
0000
0000
0010
0000
0000
0001
0000
,
1000
0000
0000
0000
0000
0000
0010
0000
0100
0000
0000
0010
0000
0000
1000
0000
,
0001
0000
0000
0000
0000
0000
0001
0000
1000
0000
0000
0010
0000
0000
1000
0000
,
0001
0000
0000
0010
0100
1000
0001
0020
,
0000
0031
1000
0010
0000
1000
0001
0020
,
0000
0031
1000
0010
0000
1000
0001
0020
,
0000
0031
1000
0010
0000
0100
0001
1000
,
0000
1000
0001
0100
0000
0001
1000
0200
,
0000
1300
0001
0100
0000
0001
1000
0200
,
0000
1300
0001
0100
0000
0001
1000
0200
,
0000
1300
0001
0100
0000
0010
1000
0001
,
0000
0001
1000
0020
0000
2000
0000
0000
,
3030
0000
0000
0000
;

//---------------dance-single - ----------------
#NOTEDATA:;
#CHARTNAME:;
#STEPSTYPE:dance-single;
#DESCRIPTION:;
#CHARTSTYLE:;
#DIFFICULTY:Easy;
#METER:4;
#RADARVALUES:0.245221,0.279967,0.182612,0.063914,0.000000,188.000000,168.000000,20.000000,7.000000,0.000000,0.000000,0.000000,0.000000,0.000000,0.245221,0.279967,0.182612,0.063914,0.000000,188.000000,168.000000,20.000000,7.000000,0.000000,0.000000,0.000000,0.000000,0.000000;
#CREDIT:Alchemy Jones;
#NOTES:
// measure 0
0000
0000
0000
0000
,  // measure 1
0000
0000
0000
0000
,  // measure 2
0000
0000
0000
0000
,  // measure 3
0000
0000
0000
0000
,  // measure 4
0010
1000
0100
0001
,  // measure 5
0020
0000
0030
0000
,  // measure 6
0100
0001
0010
1000
,  // measure 7
0100
0000
0001
0000
,  // measure 8
0010
0001
0100
1000
,  // measure 9
0020
0000
0002
0033
,  // measure 10
0100
1000
0010
0001
,  // measure 11
0100
0000
0010
0000
,  // measure 12
1000
0100
0010
1000
,  // measure 13
0100
0010
1000
0100
,  // measure 14
0010
1000
0100
0001
,  // measure 15
0010
0001
0200
0300
,  // measure 16
0001
0010
0100
0001
,  // measure 17
0010
0100
0001
0010
,  // measure 18
0100
0001
0010
1000
,  // measure 19
0100
1000
0020
0030
,  // measure 20
1001
0000
0010
0001
,  // measure 21
1001
0000
0100
0000
,  // measure 22
1001
0000
0010
1000
,  // measure 23
1001
0000
0100
0000
,  // measure 24
1001
0000
0100
0001
,  // measure 25
1001
0000
0010
0000
,  // measure 26
1001
0000
0100
1000
,  // measure 27
1001
0000
0010
0000
,  // measure 28
0100
0001
1000
1000
,  // measure 29
0000
0100
0010
0010
,  // measure 30
0100
1000
0001
0001
,  // measure 31
0000
0100
0010
0000
,  // measure 32
1000
0100
0010
0001
,  // measure 33
1000
0100
0010
1001
,  // measure 34
0001
0100
0010
1000
,  // measure 35
0001
0100
0010
1001
,  // measure 36
1000
0100
0010
0001
,  // measure 37
1000
0100
0010
1001
,  // measure 38
0001
0100
0010
1000
,  // measure 39
0001
0100
0010
1001
,  // measure 40
0110
0000
0001
0100
,  // measure 41
0110
0000
1000
0000
,  // measure 42
0110
0000
0001
0010
,  // measure 43
0110
0000
1000
0000
,  // measure 44
0110
0000
1000
0100
,  // measure 45
0110
0000
0001
0000
,  // measure 46
0110
0000
1000
0010
,  // measure 47
0110
0000
0010
0000
,  // measure 48
0001
0010
0100
0001
,  // measure 49
0010
0100
0001
0010
,  // measure 50
0100
0001
0010
1000
,  // measure 51
0100
1000
0020
0030
,  // measure 52
1000
0100
0010
1000
,  // measure 53
0100
0010
1000
0100
,  // measure 54
0010
1000
0100
0001
,  // measure 55
0010
0001
0200
0300
;
