#VERSION:0.83;
#TITLE:VOYAGE;
#SUBTITLE:;
#ARTIST:PROSPA;
#TITLETRANSLIT:;
#SUBTITLETRANSLIT:;
#ARTISTTRANSLIT:;
#GENRE:;
#ORIGIN:;
#CREDIT:;
#BANNER:VOYAGE - bn.png;
#BACKGROUND:VOYAGE - bg.png;
#PREVIEWVID:;
#JACKET:VOYAGE - jacket.png;
#CDIMAGE:VOYAGE - jacket.jpg;
#DISCIMAGE:;
#LYRICSPATH:;
#CDTITLE:;
#MUSIC:VOYAGE.ogg;
#OFFSET:-0.052000;
#SAMPLESTART:69.695480;
#SAMPLELENGTH:12.000000;
#SELECTABLE:YES;
#BPMS:0.000=124.000;
#STOPS:143.000=0.242;
#DELAYS:;
#WARPS:;
#TIMESIGNATURES:0.000=4=4;
#TICKCOUNTS:0.000=4;
#COMBOS:0.000=1;
#SPEEDS:0.000=1.000=0.000=0;
#SCROLLS:0.000=1.000;
#FAKES:;
#LABELS:0.000=Song Start;
#LASTSECONDHINT:102.669121;
#BGCHANGES:15.750=VOYAGE.avi=1.000=1=0=0=StretchNoLoop==CrossFade==,
208.000=VOYAGE - bg.png=1.000=1=0=1===CrossFade==,
99999=-nosongbg-=1.000=0=0=0 // don't automatically add -songbackground-
;
#KEYSOUNDS:;
#ATTACKS:
;

//---------------dance-single - ----------------
#NOTEDATA:;
#CHARTNAME:;
#STEPSTYPE:dance-single;
#DESCRIPTION:;
#CHARTSTYLE:;
#DIFFICULTY:Hard;
#METER:9;
#RADARVALUES:0.619675,0.557411,0.034426,0.000000,1.290989,504.000000,500.000000,4.000000,0.000000,0.000000,0.000000,0.000000,0.000000,0.000000,0.619675,0.557411,0.034426,0.000000,1.290989,504.000000,500.000000,4.000000,0.000000,0.000000,0.000000,0.000000,0.000000,0.000000;
#CREDIT:Alchemy Jones;
#NOTES:
// measure 0
0000
0000
0000
0000
,  // measure 1
0000
0000
0000
0000
,  // measure 2
0000
0000
0000
0000
,  // measure 3
0000
0000
0000
0000
,  // measure 4
0010
0001
0000
1000
0000
0010
0000
1000
0001
0100
0000
1000
0000
0100
0001
0000
,  // measure 5
0000
0010
0100
1000
0000
0010
0000
0100
0001
1000
0000
0001
0000
0010
0000
1000
,  // measure 6
0000
0010
0100
0000
0000
1000
0000
0010
0000
0001
0000
0010
0000
0100
0001
1000
,  // measure 7
0000
0100
1000
0001
0000
0010
0000
0100
1000
0010
0000
0001
0000
0010
0000
1000
,  // measure 8
0000
0100
1000
0001
0000
1000
0000
0001
0010
0100
0000
1000
0010
1000
0001
0100
,  // measure 9
0000
0010
1000
0001
0000
1000
0100
1000
0010
0100
0000
0001
0000
0010
0001
0100
,  // measure 10
0000
0001
1000
0010
0000
0100
0000
0001
0010
0100
0000
0001
0000
0100
0000
1000
,  // measure 11
0000
0010
0100
0001
0000
1000
0000
0010
0000
0001
0000
0010
0000
1000
0100
0000
,  // measure 12
0001
0000
0000
0001
0100
0000
0000
0100
1000
0000
0000
1000
0001
0000
0000
0001
,  // measure 13
0100
0000
0000
0100
1000
0000
0000
1000
0010
0000
0000
0010
0000
1000
0000
0100
,  // measure 14
0000
0001
0010
0000
0000
1000
0000
0010
0000
0001
0000
1000
0000
0010
0100
0001
,  // measure 15
0000
0010
0100
1000
0000
0001
0000
1000
0001
0100
0000
1000
0000
0100
0000
0001
,  // measure 16
0000
0010
0001
1000
0000
0010
0000
1000
0001
0100
0000
0001
0000
1000
0001
0010
,  // measure 17
0000
0100
1000
0001
0000
1000
0010
1000
0100
0010
0000
0100
0000
1000
0001
0100
,  // measure 18
0000
0010
1000
0001
0000
0010
0000
1000
0010
0100
0000
1000
0000
0010
0100
0001
,  // measure 19
0000
1000
0100
0010
0000
0001
0000
0010
0000
1000
0000
0010
0000
0001
1000
0010
,  // measure 20
0000
0100
0001
1000
0000
0100
0000
0010
0001
1000
0000
0010
0000
0100
0001
1000
,  // measure 21
0000
0100
0010
0001
0000
0100
0000
0001
0010
0100
0000
0001
0000
0100
0000
1000
,  // measure 22
0000
0010
0100
0000
0000
1000
0000
0100
0000
0001
0000
0010
0000
0001
1000
0100
,  // measure 23
0000
1000
0001
0100
0000
0010
0000
1000
0010
0100
0000
1000
0000
0100
0000
0001
,  // measure 24
0000
1000
0100
0010
0000
0001
0000
0100
0001
1000
0000
0010
1000
0010
0100
0001
,  // measure 25
0000
0010
0100
1000
0000
0001
0100
0001
0010
0100
0000
1000
0000
0010
1000
0001
,  // measure 26
0000
0010
0001
1000
0000
0010
0000
0100
0001
0010
0000
1000
0000
0010
0000
0001
,  // measure 27
0000
0100
0001
1000
0000
0100
0000
0010
0100
1000
0000
0001
0000
0000
0100
0000
,  // measure 28
0010
0000
1000
0100
1000
0000
0100
1000
0100
1000
0100
0000
0010
0000
0000
0001
,  // measure 29
0100
0001
0100
0001
0100
0000
0010
1000
0010
1000
0010
0000
0100
0000
0000
0000
,  // measure 30
0001
0010
0001
0010
0001
0000
0100
0010
0000
0100
0001
0000
1000
0000
0000
0010
,  // measure 31
1000
0010
1000
0010
0100
0000
0001
0100
0001
0100
0001
0000
1000
0000
0000
0000
,  // measure 32
0100
1000
0100
1000
0100
0000
0010
0100
0010
0100
0010
0000
0001
0010
0000
0000
,  // measure 33
0001
0100
0001
0100
0001
0000
0100
0010
0100
0010
0100
0000
0001
0000
0000
0000
,  // measure 34
1000
0010
1000
0010
1000
0000
0001
0010
0000
0001
1000
0000
0100
0000
0000
0000
,  // measure 35
1001
0000
0000
0000
1010
0000
1000
0000
1001
0000
0001
0000
0011
0000
0100
0001
,  // measure 36
1000
0100
0000
0010
0000
0001
1000
0010
0000
0100
0000
0001
1000
0100
0000
1000
,  // measure 37
0001
0100
0000
0001
0000
1000
0100
0010
0000
0100
0000
1000
0001
0010
0000
0100
,  // measure 38
1000
0001
0000
0100
0000
0001
0010
0100
0000
1000
0000
0001
1000
0010
0000
1000
,  // measure 39
0001
0100
0000
0010
0000
1000
0001
0010
0000
1000
0000
0010
0000
0001
0000
0100
,  // measure 40
0001
1000
0000
0001
0000
1000
0010
0100
0000
0001
1000
0010
1000
0100
0000
1000
,  // measure 41
0001
0100
0000
0001
0100
0001
0010
0100
0000
1000
0000
0010
1000
0001
0000
0010
,  // measure 42
0001
1000
0000
0010
0000
0100
0001
1000
0000
0100
0000
0010
0001
1000
0000
0010
,  // measure 43
0100
0001
0000
1000
0000
0010
1000
0001
0000
0100
0000
0000
0000
0000
1000
0000
,  // measure 44
0000
1000
0100
0000
0000
0100
0001
0000
0000
0001
1000
0000
0000
1000
0100
0000
,  // measure 45
0000
0100
0001
0000
0000
0001
0010
0000
0000
0010
0001
0000
0000
0100
0010
0000
,  // measure 46
0100
1000
0001
0000
1000
0000
0010
1000
0001
0000
0100
0000
0001
0010
0100
0000
,  // measure 47
1000
0001
0100
0000
0001
0000
1000
0010
1000
0010
0100
0010
1000
0100
0010
0000
,  // measure 48
0001
1000
0100
0000
1000
0000
0001
0100
0010
0000
0100
0000
0001
1000
0100
0000
,  // measure 49
1000
0010
0100
0000
0001
0000
1000
0100
0010
0000
0100
0000
1000
0001
0010
0000
,  // measure 50
0001
0100
0010
0000
1000
0000
0100
1000
0001
0000
0010
0000
0001
0100
0010
0000
,  // measure 51
1000
0001
0010
0000
0001
0000
1000
0100
1000
0100
0010
0100
1000
0010
0000
0000
;

//---------------dance-single - ----------------
#NOTEDATA:;
#CHARTNAME:;
#STEPSTYPE:dance-single;
#DESCRIPTION:;
#CHARTSTYLE:;
#DIFFICULTY:Medium;
#METER:7;
#RADARVALUES:0.404510,0.423122,0.068853,0.034426,0.047336,329.000000,321.000000,8.000000,4.000000,0.000000,0.000000,0.000000,0.000000,0.000000,0.404510,0.423122,0.068853,0.034426,0.047336,329.000000,321.000000,8.000000,4.000000,0.000000,0.000000,0.000000,0.000000,0.000000;
#CREDIT:Alchemy Jones;
#NOTES:
0000
0000
0000
0000
,
0000
0000
0000
0000
,
0000
0000
0000
0000
,
0000
0000
0000
0000
,
1000
0000
0010
0100
0001
0010
0100
0001
,
0000
0100
1000
0010
0100
0010
1000
0100
,
1000
0001
0000
0010
0100
1000
0010
0100
,
0000
0001
0010
0100
1000
0010
0100
0010
,
1000
0001
0000
0100
0010
0001
0010
0100
,
0000
0001
0010
0100
1000
0010
0100
1000
,
0000
0100
0001
0010
0100
0001
0100
0010
,
0001
1000
0000
0100
1000
0001
0100
0000
,
0010
0000
1000
0000
0001
0100
1000
0000
,
0100
0000
0001
0000
1000
0100
0001
0000
,
0100
0000
0000
1000
0010
0100
1000
0100
,
0000
0010
1000
0010
0100
1000
0100
0010
,
1000
0100
0000
0010
0001
0100
0010
0001
,
0000
0010
0100
0001
0010
0100
1000
0010
,
0000
0100
0010
1000
0100
0010
1000
0010
,
0100
1000
0000
0010
1000
0001
0010
0100
,
0000
1000
0001
0100
0010
0001
0010
0100
,
0000
0001
0010
0100
1000
0001
0100
0010
,
0001
0010
0000
1000
0100
0010
1000
0010
,
0000
0100
1000
0010
0100
1000
0100
0010
,
1000
0001
0000
0100
0001
0010
0100
0010
,
0000
0001
0100
0010
0001
0010
0100
0001
,
0000
0010
0100
0001
0100
0010
0001
1000
,
0010
1000
0000
0100
1000
0001
0100
0000
,
0001
0000
0010
0000
0001
0000
1000
0000
0001
0100
0001
0000
0010
0000
0000
0000
,
0100
0000
1000
0000
0001
0000
1000
0000
0010
1000
0010
0000
0100
0000
0000
0000
,
0010
0000
1000
0000
0001
0000
1000
0000
0100
1000
0100
0000
0010
0000
0000
0000
,
0001
0000
1000
0000
0001
0000
0100
0000
0001
0010
0001
0000
0100
0000
0000
0000
,
0010
0000
0000
0000
1000
0000
0000
0000
0001
0010
0001
0010
0001
0000
0000
0000
,
0010
0000
0000
0000
0001
0000
0000
0000
1000
0010
1000
0010
1000
0000
0000
0000
,
1001
0101
1001
1100
,
1001
0000
0110
0000
1001
0000
0110
1000
,
0100
0010
1000
0010
0100
1000
0010
0000
,
0100
0001
0010
0100
0001
0100
0010
0001
,
0100
0000
0010
1000
0001
0010
0100
0000
,
0010
0001
1000
0010
0100
1000
0100
0010
,
1000
0000
0001
0010
0100
0001
0100
0000
,
0010
0001
0100
0010
0001
0010
0100
0000
,
0010
1000
0100
0010
1000
0010
0100
0000
,
1000
0000
0001
0010
0100
1000
0000
0002
,
0000
0203
0000
2300
0000
3020
0000
0031
,
1000
0000
0010
0000
1000
0000
0100
0010
0100
0000
0010
0000
0000
0000
0001
0000
,
0000
0100
0000
0010
1000
0100
0000
1000
,
0001
0000
0010
0000
0001
0000
0100
0010
0100
0000
0010
0000
0000
0000
1000
0000
,
0000
0100
0000
0010
0001
0100
0000
0001
,
1000
0000
0100
0000
0010
0000
0100
0010
0100
0000
0010
0000
0000
0000
0001
0000
,
0000
0010
0000
0100
1000
0010
0000
1000
,
0001
0100
0010
1000
0100
0010
0001
0000
;

//---------------dance-single - ----------------
#NOTEDATA:;
#CHARTNAME:;
#STEPSTYPE:dance-single;
#DESCRIPTION:;
#CHARTSTYLE:;
#DIFFICULTY:Easy;
#METER:4;
#RADARVALUES:0.225001,0.244965,0.017213,0.043033,0.000000,183.000000,181.000000,2.000000,5.000000,0.000000,0.000000,0.000000,0.000000,0.000000,0.225001,0.244965,0.017213,0.043033,0.000000,183.000000,181.000000,2.000000,5.000000,0.000000,0.000000,0.000000,0.000000,0.000000;
#CREDIT:Alchemy Jones;
#NOTES:
0000
0000
0000
0000
,
0000
0000
0000
0000
,
0000
0000
0000
0000
,
0000
0000
0000
0000
,
0001
0100
0010
0001
,
0100
0010
0001
0100
,
2000
3000
0010
0100
,
0001
0010
0100
0001
,
0020
0000
1030
0100
,
0010
1000
0100
0002
,
0003
0100
1000
0010
,
0002
0000
2000
3003
,
0010
1000
0100
0001
,
0010
1000
0100
0001
,
0010
0000
0100
0010
,
1000
0100
0010
1000
,
0100
0000
0001
0010
,
0100
0001
0010
1000
,
0000
0010
0001
0100
,
1000
0000
0001
1000
,
0001
0010
0100
0001
,
0010
0100
0001
0010
,
1000
0000
0100
0010
,
0001
0100
0010
0001
,
0100
0000
1000
0010
,
0100
1000
0010
0001
,
0000
0010
1000
0100
,
0001
0000
1000
0001
,
1000
0010
1000
1000
,
0010
0100
0010
0010
,
0100
0001
0100
0100
,
0001
0010
0001
0001
,
0010
0100
0010
0010
,
0100
1000
0100
0100
,
1000
1000
1000
1010
,
0001
0000
0001
0000
0001
0000
0011
1000
,
0000
0100
0000
0010
0000
1000
0000
0100
,
0000
0010
0000
1000
0000
0100
0000
0001
,
0000
0000
0000
0010
0000
0100
0000
1000
,
0000
0010
0000
0100
0000
1000
0000
0010
,
0000
0000
0000
0001
0000
0100
0000
0010
,
0000
0001
0000
0100
0000
1000
0000
0000
,
0000
0100
0000
0001
0000
0010
0000
1000
,
0000
0000
0000
0001
0000
0000
0000
0010
,
0000
0001
0000
0100
0000
1000
0000
0010
,
0000
0001
0000
0100
0000
1000
0000
0010
,
0000
0010
0000
0010
0001
0010
0000
0001
,
0000
0001
0000
0001
1000
0001
0000
1000
,
0000
1000
0000
1000
0100
1000
0000
0010
,
0000
0010
0000
0010
1000
0010
0000
1000
,
0000
1000
0000
1000
0001
1000
0000
0001
,
0000
0001
0000
0001
0100
0001
0100
0000
;
