#VERSION:0.83;
#TITLE:UP & DOWN;
#SUBTITLE:;
#ARTIST:TIMMY TRUMPET x VENGABOYS;
#TITLETRANSLIT:;
#SUBTITLETRANSLIT:;
#ARTISTTRANSLIT:;
#GENRE:;
#ORIGIN:;
#CREDIT:;
#BANNER:UP & DOWN - bn.png;
#BACKGROUND:UP & DOWN-BG.png;
#PREVIEWVID:;
#JACKET:UP & Down-jacket.jpg;
#CDIMAGE:;
#DISCIMAGE:;
#LYRICSPATH:;
#CDTITLE:;
#MUSIC:UP & DOWN.ogg;
#OFFSET:0.000000;
#SAMPLESTART:75.274010;
#SAMPLELENGTH:12.000000;
#SELECTABLE:YES;
#BPMS:0.000=135.000;
#STOPS:;
#DELAYS:;
#WARPS:;
#TIMESIGNATURES:0.000=4=4;
#TICKCOUNTS:0.000=4;
#COMBOS:0.000=1;
#SPEEDS:0.000=1.000=0.000=0;
#SCROLLS:0.000=1.000;
#FAKES:;
#LABELS:0.000=Song Start;
#BGCHANGES:0.000=UP & DOWN.avi=1.000=0=0=0=StretchNoLoop==CrossFade_Fastest==,
235.000=UP & DOWN-BG.png=1.000=0=0=1=====,
99999=-nosongbg-=1.000=0=0=0 // don't automatically add -songbackground-
;
#KEYSOUNDS:;
#ATTACKS:
;

//---------------dance-single - ----------------
#NOTEDATA:;
#CHARTNAME:;
#STEPSTYPE:dance-single;
#DESCRIPTION:;
#CHARTSTYLE:;
#DIFFICULTY:Hard;
#METER:8;
#RADARVALUES:0.527031,0.688847,0.046115,0.276691,0.253634,400.000000,395.000000,5.000000,30.000000,0.000000,0.000000,0.000000,0.000000,0.000000,0.527031,0.688847,0.046115,0.276691,0.253634,400.000000,395.000000,5.000000,30.000000,0.000000,0.000000,0.000000,0.000000,0.000000;
#CREDIT:Alchemy Jones;
#NOTES:
// measure 0
0000
0000
0000
0000
,  // measure 1
0000
0000
0000
0000
,  // measure 2
0000
0000
0000
0000
,  // measure 3
0000
0000
0000
0000
,  // measure 4
0000
0000
0000
0000
,  // measure 5
0010
0000
0000
0002
0010
0000
0013
0000
,  // measure 6
0100
0000
0000
2000
0100
0000
3100
0000
,  // measure 7
0010
0000
0000
2000
0010
0000
3010
0000
,  // measure 8
0100
0000
0000
0002
0100
0000
0103
0000
,  // measure 9
0010
1000
0010
1000
0100
1000
0100
1000
,  // measure 10
0010
0001
0010
0001
0100
0001
0100
0001
,  // measure 11
0010
1000
0010
1000
0100
1000
0100
1000
,  // measure 12
1001
0000
0000
0000
0000
0000
0001
0010
0001
0000
0010
0000
0100
0000
1000
0000
,  // measure 13
0002
0000
0000
1003
0000
0000
0010
0000
1000
0000
1000
0000
0010
0000
1000
0000
,  // measure 14
0001
0000
0100
0000
0001
0000
0010
0100
0000
0000
1000
0000
0010
0000
0200
0000
,  // measure 15
0001
0000
0000
0301
0000
0000
0010
0000
0100
1000
0100
0000
1000
0000
0001
0000
,  // measure 16
0200
0000
0000
0000
0300
0000
0010
0100
0010
0000
1000
0000
0100
0000
0010
0000
,  // measure 17
0002
0000
0000
0103
0000
0000
0010
0000
0100
0000
0100
0000
0001
0000
1000
0000
,  // measure 18
0010
0000
1000
0000
0100
0000
0010
0001
0000
0000
0100
0000
0001
0000
2000
0000
,  // measure 19
0010
0000
0000
3010
0000
0000
0100
0000
0001
0010
0001
0000
1000
0000
0100
0000
,  // measure 20
0020
0000
0000
0000
0000
0000
0130
1000
0100
0000
0010
0000
0001
0000
1000
0000
,  // measure 21
0200
0000
0000
0310
0000
0000
0100
0000
0001
0000
0001
0000
0100
0000
0100
0000
,  // measure 22
1000
0000
1000
0000
1000
0000
0001
0010
0100
0000
1000
0000
0001
0000
0200
0000
,  // measure 23
0010
0000
0000
0310
0000
0000
1000
0000
0100
0010
0100
0000
0010
0000
0001
0000
,  // measure 24
0100
0000
0000
0000
0000
0000
0010
1000
0010
0000
1000
0000
0100
0000
0010
0000
,  // measure 25
0002
0000
0000
0103
0000
0000
0010
0000
0001
0000
0001
0000
0010
0000
0010
0000
,  // measure 26
1000
0000
1000
0000
1000
0000
0001
0100
0010
0000
0010
0000
0100
0000
0100
0000
,  // measure 27
0002
0000
0000
1003
0000
0000
0100
0000
0010
0001
0010
0000
0100
0000
1000
0000
,  // measure 28
0020
0000
0000
0030
,  // measure 29
0011
0000
0000
2000
0010
0000
3010
0000
,  // measure 30
1010
0000
0000
0002
0010
0000
0013
0000
,  // measure 31
1100
0000
0000
0002
0100
0000
0103
0000
,  // measure 32
0101
0000
0000
2000
0100
0000
3100
0000
,  // measure 33
0010
1000
0010
1000
0100
1000
0100
1000
,  // measure 34
0010
1000
0010
1000
0100
1000
0100
0000
,  // measure 35
0010
0001
0010
0001
0100
0001
0100
0001
,  // measure 36
0010
0001
0010
0001
0100
0001
0100
0000
,  // measure 37
0010
1000
0100
1000
0010
1000
0100
1000
,  // measure 38
0010
0001
0100
0001
0010
0001
0100
0001
,  // measure 39
0010
1000
0100
1000
0010
1000
0100
1000
,  // measure 40
0010
0001
0100
0001
0010
0001
0100
0001
,  // measure 41
0010
0001
0010
0001
0010
0001
0010
0001
1000
0100
1000
0100
1000
0100
1000
0100
,  // measure 42
1000
0000
0000
0000
0000
0000
1000
0100
1000
0000
0100
0000
0010
0000
0001
0000
,  // measure 43
2000
0000
0000
3001
0000
0000
0100
0000
0001
0000
0001
0000
0100
0000
0001
0000
,  // measure 44
1000
0000
0010
0000
1000
0000
0100
0010
0000
0000
0001
0000
0100
0000
0020
0000
,  // measure 45
1000
0000
0000
1030
0000
0000
0100
0000
0010
0001
0010
0000
0001
0000
1000
0000
,  // measure 46
0020
0000
0000
0000
0030
0000
0100
0010
0100
0000
0001
0000
0010
0000
0100
0000
,  // measure 47
2000
0000
0000
3010
0000
0000
0100
0000
0010
0000
0010
0000
1000
0000
0001
0000
,  // measure 48
0100
0000
0001
0000
0010
0000
0100
1000
0000
0000
0010
0000
1000
0000
0002
0000
,  // measure 49
0100
0000
0000
0103
0000
0000
0010
0000
1000
0100
1000
0000
0001
0000
0100
0000
,  // measure 50
0020
0000
0000
0000
0000
0000
0130
0001
0100
0000
0010
0000
1000
0000
0001
0000
,  // measure 51
0020
0000
0000
0130
0000
0000
0010
0000
1000
0000
1000
0000
0010
0000
0010
0000
,  // measure 52
0001
0000
0001
0000
0001
0000
1000
0100
0010
0000
0001
0000
1000
0000
0020
0000
,  // measure 53
0100
0000
0000
0130
0000
0000
0001
0000
0100
0010
0100
0000
0010
0000
1000
0000
,  // measure 54
0100
0000
0000
0000
0000
0000
0010
0001
0010
0000
0001
0000
0100
0000
0010
0000
,  // measure 55
2000
0000
0000
3010
0000
0000
0100
0000
1000
0000
1000
0000
0100
0000
0100
0000
,  // measure 56
0001
0000
0001
0000
0001
0000
1000
0010
0100
0000
0100
0000
0010
0000
0010
0000
,  // measure 57
2000
0000
0000
3001
0000
0000
0100
0000
0001
0010
0001
0000
1000
0000
0001
0000
,  // measure 58
0010
0100
0010
0100
0010
0100
0010
0100
0010
0100
0010
0100
0010
0100
0010
0000
,  // measure 59
0200
0000
0000
0300
;

//---------------dance-single - ----------------
#NOTEDATA:;
#CHARTNAME:;
#STEPSTYPE:dance-single;
#DESCRIPTION:;
#CHARTSTYLE:;
#DIFFICULTY:Medium;
#METER:6;
#RADARVALUES:0.400544,0.489744,0.212130,0.221353,0.000000,304.000000,281.000000,23.000000,24.000000,0.000000,0.000000,0.000000,0.000000,0.000000,0.400544,0.489744,0.212130,0.221353,0.000000,304.000000,281.000000,23.000000,24.000000,0.000000,0.000000,0.000000,0.000000,0.000000;
#CREDIT:Alchemy Jones;
#NOTES:
0000
0000
0000
0000
,
0000
0000
0000
0000
,
0000
0000
0000
0000
,
0000
0000
0000
0000
,
0000
0000
0000
0000
,
0010
0000
0000
1000
0010
0000
0010
0000
,
0100
0000
0000
0001
0100
0000
0100
0000
,
0010
0000
0000
1000
0010
0000
0010
0000
,
0100
0000
0000
0001
0100
0000
0100
0000
,
0010
1000
0010
1000
0100
0000
0000
0000
,
0010
0001
0010
0001
0100
0000
0000
0000
,
0010
1000
0001
0010
0100
0000
0100
0000
,
1001
0000
0000
1000
0001
0100
0010
2000
,
0010
0000
3010
0000
0100
0001
0100
0020
,
1000
0000
1030
0000
0001
0010
0001
0100
,
0002
0000
0103
0000
0010
1000
0001
0010
,
0200
0000
0300
1000
0001
0100
0001
2000
,
0010
0000
3010
0000
0100
0001
0010
0001
,
0100
0010
0100
0000
1010
0000
1100
0000
,
0020
0000
0130
0000
0001
1000
0100
1000
,
0020
0000
0030
1000
0001
0100
0010
0200
,
0001
0000
0301
0000
1000
1000
0001
0001
,
0100
0100
0100
0000
0001
1000
0001
0200
,
0010
0000
0310
0000
1000
0010
0100
0010
,
1000
0000
0000
0010
1000
0001
0010
0200
,
1000
0000
1300
0000
0010
0010
1000
1000
,
0100
0100
0100
0000
0010
0001
0010
0200
,
0010
0000
0310
0000
0001
0010
0100
1000
,
0002
0000
0000
0003
,
0010
0000
0000
1000
0010
0000
0010
0000
,
1010
0000
0000
0001
0010
0000
0010
0000
,
0100
0000
0000
1000
0100
0000
0100
0000
,
1100
0000
0000
0001
0100
0000
0100
0000
,
0010
0000
0000
1000
0100
0000
0000
0000
,
0010
0000
0000
0001
0100
0000
0000
0000
,
0010
0000
0000
1000
0100
0000
0000
0000
,
0010
0000
0000
0001
0100
0000
0000
0000
,
1010
0101
1010
0101
,
1010
0101
1010
0101
,
0011
1100
0011
1100
,
0011
1100
0011
1100
,
0010
0100
0010
0100
0010
0100
0010
0100
,
0010
0000
0000
0001
1000
0010
0100
0002
,
0100
0000
0103
0000
0010
1000
0010
0200
,
0001
0000
0301
0000
1000
0100
1000
0010
,
2000
0000
3010
0000
0100
0001
1000
0100
,
0020
0000
0030
0001
1000
0010
1000
0002
,
0100
0000
0103
0000
0010
1000
0100
1000
,
0010
0100
0010
0000
0101
0000
0011
0000
,
0200
0000
0310
0000
1000
0001
0010
0001
,
0200
0000
0300
0001
1000
0010
0100
0020
,
1000
0000
1030
0000
0001
0001
1000
1000
,
0010
0010
0010
0000
1000
0001
1000
0020
,
0100
0000
0130
0000
0001
0100
0010
0100
,
0001
0000
0000
0100
0001
1000
0100
0020
,
0001
0000
0031
0000
0100
0100
0001
0001
,
0010
0010
0010
0000
0100
1000
0100
0020
,
0100
0000
0130
0000
1000
0100
0010
0001
,
0020
0000
0000
0000
,
0130
0000
0000
0000
;

//---------------dance-single - ----------------
#NOTEDATA:;
#CHARTNAME:;
#STEPSTYPE:dance-single;
#DESCRIPTION:;
#CHARTSTYLE:;
#DIFFICULTY:Easy;
#METER:3;
#RADARVALUES:0.206860,0.272080,0.009223,0.221353,0.000000,157.000000,156.000000,1.000000,24.000000,0.000000,0.000000,0.000000,0.000000,0.000000,0.206860,0.272080,0.009223,0.221353,0.000000,157.000000,156.000000,1.000000,24.000000,0.000000,0.000000,0.000000,0.000000,0.000000;
#CREDIT:Alchemy Jones;
#NOTES:
0000
0000
0000
0000
,
0000
0000
0000
0000
,
0000
0000
0000
0000
,
0000
0000
0000
0000
,
0000
0000
0000
0000
,
0010
0000
0000
0000
,
0100
0000
0000
0000
,
0010
0000
0000
0000
,
0100
0000
0000
0000
,
0010
0000
0100
0000
,
0010
0000
0100
0000
,
0010
0000
0100
0100
,
1000
0000
1000
0100
,
0002
0003
1000
1000
,
0010
0010
0001
0100
,
0020
0030
0001
0100
,
2000
3000
0001
0010
,
2000
3000
0001
0001
,
0100
0100
1000
0010
,
0200
0300
1000
0010
,
0002
0003
0100
1000
,
0020
0030
0001
0001
,
0010
0010
1000
1000
,
2000
3000
0010
1000
,
0100
0000
0010
0001
,
0200
0300
1000
1000
,
0100
0100
0001
0001
,
0002
0003
0010
1000
,
0200
0000
0000
0300
,
0010
0000
0010
0010
,
0010
0000
0020
0030
,
0100
0000
0100
0100
,
0100
0000
0200
0300
,
0010
0000
0100
0000
,
0010
0000
0100
0000
,
0010
0000
0100
0000
,
0010
0000
0100
0000
,
0010
0100
0010
0100
,
0010
0100
0010
0100
,
0010
0100
0010
0100
,
0010
0100
0010
0100
,
0010
0100
0010
0100
,
0110
0000
0001
0010
,
2000
3000
0001
0001
,
0100
0100
1000
0010
,
0200
0300
1000
0010
,
0002
0003
1000
0100
,
0002
0003
1000
1000
,
0010
0010
0001
0100
,
0020
0030
0001
0100
,
2000
3000
0010
0001
,
0200
0300
1000
1000
,
0100
0100
0001
0001
,
0002
0003
0100
0001
,
0010
0000
0100
1000
,
0020
0030
0001
0001
,
0010
0010
1000
1000
,
2000
3000
0100
0001
,
0020
0000
0000
0000
,
0130
0000
0000
0000
;
