#VERSION:0.83;
#TITLE:TWERKULATOR;
#SUBTITLE:;
#ARTIST:CITY GIRLS;
#TITLETRANSLIT:;
#SUBTITLETRANSLIT:;
#ARTISTTRANSLIT:;
#GENRE:;
#ORIGIN:;
#CREDIT:;
#BANNER:TWERKULATOR.png;
#BACKGROUND:TWERKULATOR - bg.png;
#PREVIEWVID:;
#JACKET:TWERKULATOR - jacket.png;
#CDIMAGE:;
#DISCIMAGE:;
#LYRICSPATH:;
#CDTITLE:;
#MUSIC:TWERKULATOR.ogg;
#OFFSET:-0.004000;
#SAMPLESTART:46.987999;
#SAMPLELENGTH:12.000000;
#SELECTABLE:YES;
#BPMS:0.000=127.000;
#STOPS:;
#DELAYS:;
#WARPS:;
#TIMESIGNATURES:0.000=4=4;
#TICKCOUNTS:0.000=4;
#COMBOS:0.000=1;
#SPEEDS:0.000=1.000=0.000=0;
#SCROLLS:0.000=1.000;
#FAKES:;
#LABELS:0.000=Song Start;
#LASTSECONDHINT:95.933838;
#BGCHANGES:-0.250=TWERKULATOR.avi=1.000=0=0=0=StretchNoLoop==CrossFade_Fastest==,
202.000=TWERKULATOR - bg.png=1.000=1=0=1===CrossFade==,
99999=-nosongbg-=1.000=0=0=0 // don't automatically add -songbackground-
;
#KEYSOUNDS:;
#ATTACKS:
;

//---------------dance-single - ----------------
#NOTEDATA:;
#CHARTNAME:;
#STEPSTYPE:dance-single;
#DESCRIPTION:;
#CHARTSTYLE:;
#DIFFICULTY:Hard;
#METER:8;
#RADARVALUES:0.527173,0.583878,0.471681,0.036995,0.342200,399.000000,348.000000,51.000000,4.000000,0.000000,0.000000,0.000000,0.000000,0.000000,0.527173,0.583878,0.471681,0.036995,0.342200,399.000000,348.000000,51.000000,4.000000,0.000000,0.000000,0.000000,0.000000,0.000000;
#CREDIT:Alchemy Jones;
#NOTES:
// measure 0
0000
0000
0000
0000
,  // measure 1
1100
0000
0010
0001
1000
0000
0100
1000
,  // measure 2
0000
1000
0100
0010
0001
0000
0001
1000
,  // measure 3
1001
0000
0010
1000
0001
0000
0100
0001
,  // measure 4
0101
0000
1010
0000
0101
0000
1010
0010
,  // measure 5
0100
0000
0001
0100
0001
0000
1000
0100
1000
0000
0000
0000
0000
0000
0010
0000
,  // measure 6
0100
0000
0001
0100
0001
0000
1000
0100
1000
0000
0000
0000
0000
0000
0010
0000
,  // measure 7
0100
0000
0001
0100
0001
0000
1000
0100
1000
0000
0000
0000
0000
0000
0010
0000
,  // measure 8
0100
0000
0001
0100
0001
0000
1000
0100
1000
0000
0000
0000
0011
0000
0000
0000
,  // measure 9
0000
0100
0001
0100
0010
0000
1010
0000
,  // measure 10
0000
0100
1000
0100
0010
0000
0011
0000
,  // measure 11
0000
0001
0001
1000
1000
0000
1001
0000
,  // measure 12
0000
0100
1000
0001
0100
0000
1001
0000
,  // measure 13
0000
0000
0001
0000
0010
0000
0100
1000
0100
0000
0000
0000
1010
0000
0000
0000
,  // measure 14
0000
0000
1000
0000
0010
0000
0100
0001
0100
0000
0000
0000
0011
0000
0000
0000
,  // measure 15
0000
0000
1000
0000
0001
0000
0100
0010
0100
0000
0000
0000
1001
0000
0000
0000
,  // measure 16
0100
0000
1000
0000
0001
0000
0100
0000
0001
0000
1000
0100
1000
0000
0000
0000
,  // measure 17
0000
0000
0010
0001
1000
0000
0100
0000
1000
0000
0000
0000
0101
0000
0000
0000
,  // measure 18
0010
1000
0001
0010
0100
0000
1100
0000
,  // measure 19
0000
0000
1000
0100
0010
0000
0100
0000
0020
0000
0000
0000
0030
0000
0000
0000
,  // measure 20
0001
0000
0010
0000
0001
0000
0100
0000
0001
1000
0001
0000
0200
0000
0000
0000
,  // measure 21
0300
0000
0010
0000
0100
0001
0100
0000
0020
0000
0000
0000
0030
0000
1000
0001
,  // measure 22
1000
0100
0010
0100
2000
0000
0000
3010
,  // measure 23
0100
0000
0001
0100
0001
0000
0010
0000
0100
0000
0000
0000
0000
0000
0010
0000
,  // measure 24
0100
0000
1000
0100
1000
0000
0001
0100
0001
0000
0000
0000
0000
0000
0101
0000
,  // measure 25
0101
0000
0100
0001
0100
0001
1000
0100
1000
0100
0000
0000
0000
0000
1100
0000
,  // measure 26
1100
0000
0100
1000
0100
1000
0001
0100
0001
0100
0000
0000
0000
0000
0100
0000
,  // measure 27
0100
0000
0001
1000
0001
0000
1000
0001
1000
0000
0000
0000
0000
0000
0001
0000
,  // measure 28
0100
0001
1000
0100
1000
0000
0000
1001
,  // measure 29
1001
0000
0001
0100
0001
0100
0001
0100
0001
0100
0000
0000
0000
0000
1001
0000
,  // measure 30
1001
0000
1000
0001
1000
0001
1000
0001
1000
0001
0000
0000
0000
0000
1001
0000
,  // measure 31
1001
0000
1000
0100
1000
0100
1000
0100
1000
0100
0000
0000
0000
0000
1001
0000
,  // measure 32
1001
0000
0001
1000
0001
1000
0001
1000
0001
1000
0000
0000
0000
0000
0000
0000
,  // measure 33
1100
0000
0011
0000
0001
0100
0010
0100
,  // measure 34
0001
1010
0101
1100
,  // measure 35
1001
0000
1001
0000
0010
0001
0100
0000
,  // measure 36
0001
0000
1000
0001
0000
1000
0001
0000
1000
0000
0000
0000
1100
0000
0000
0000
,  // measure 37
0001
0010
0001
0100
0001
0000
1010
0000
,  // measure 38
0100
1000
0100
0010
0100
0001
0100
0000
,  // measure 39
0010
0001
1000
0100
1000
0001
0100
0000
,  // measure 40
0101
0000
1100
0000
0010
1000
0100
1100
,  // measure 41
1100
0000
0100
1000
0100
1000
0001
0100
0001
0100
0000
0000
0000
0000
0101
0000
,  // measure 42
0101
0000
0100
0001
0100
0001
1000
0100
1000
0100
0000
0000
0000
0000
0100
0000
,  // measure 43
0010
0000
0001
1000
0001
0000
1000
0001
1000
0000
0000
0000
0000
0000
0001
0000
,  // measure 44
0100
0001
1000
0100
1000
0000
0000
1001
,  // measure 45
1001
0000
1000
0100
1000
0100
1000
0100
1000
0100
0000
0000
0000
0000
1001
0000
,  // measure 46
1001
0000
0001
1000
0001
1000
0001
1000
0001
1000
0000
0000
0000
0000
1001
0000
,  // measure 47
1001
0000
0001
0100
0001
0100
0001
0100
0001
0100
0000
0000
0000
0000
1001
0000
,  // measure 48
1001
0000
1000
0001
1000
0001
1000
0001
1000
0001
0000
0000
0000
0000
0000
0000
;

//---------------dance-single - ----------------
#NOTEDATA:;
#CHARTNAME:;
#STEPSTYPE:dance-single;
#DESCRIPTION:;
#CHARTSTYLE:;
#DIFFICULTY:Medium;
#METER:5;
#RADARVALUES:0.319739,0.336419,0.157227,0.055492,0.000000,242.000000,225.000000,17.000000,6.000000,0.000000,0.000000,0.000000,0.000000,0.000000,0.319739,0.336419,0.157227,0.055492,0.000000,242.000000,225.000000,17.000000,6.000000,0.000000,0.000000,0.000000,0.000000,0.000000;
#CREDIT:Alchemy Jones;
#NOTES:
0000
0000
0000
0000
,
1001
0000
1000
0010
1000
0000
0000
0000
,
0000
0100
0001
0100
0010
0000
0000
0000
,
1001
0000
0000
0001
0100
0000
0000
0000
,
1100
0011
1100
0011
,
0001
0100
0001
0100
0001
0000
0000
0000
,
1000
0100
1000
0100
1000
0000
0000
0000
,
0001
0100
0001
0100
0001
0000
0000
0000
,
1000
0100
1000
0100
1000
0000
0000
0000
,
0000
0001
1000
0001
0020
0000
0130
0000
,
0000
1000
0001
1000
0020
0000
0130
0000
,
0000
0001
0001
1000
1000
0000
1100
0000
,
0101
0000
0010
0100
0002
0000
0103
0000
,
0000
0010
1000
0100
2000
0000
3100
0000
,
0000
0010
0100
1000
0002
0000
0103
0000
,
0000
1000
0001
0100
,
0001
1000
0200
1300
,
0000
0010
0001
1000
0010
0000
0010
0000
,
1000
0001
0100
0001
1000
0000
1000
0000
,
0000
0001
0010
0001
0010
0000
0000
0000
,
0100
0000
1000
0000
0001
0100
0001
0000
,
0000
1000
0100
1000
0010
0000
0000
1000
,
0100
1000
0001
0100
0001
0000
0000
0000
,
0100
0001
1000
0100
,
1000
0001
0100
0000
,
0001
0100
0001
0100
0001
0000
0000
0000
,
1000
0100
1000
0100
1000
0000
0000
0000
,
0001
1000
0001
0000
,
1000
0001
1000
0001
1000
0000
0000
0000
,
1000
0100
1000
0100
1000
0000
0000
0000
,
0001
0100
0001
0100
0001
0000
0000
0000
,
1000
0100
1000
0100
1000
0000
0000
0000
,
0001
0100
0001
0100
0001
0000
0000
0000
,
1001
0000
1001
0000
0001
0010
0001
0000
,
1000
0010
1000
0000
1001
0000
1001
0000
,
0001
0101
1000
1100
,
1000
0100
0001
0000
0100
0000
1001
0000
,
0000
0010
0000
0100
0001
0100
0001
0000
,
1000
0010
0100
0000
0001
0010
0100
0000
,
1000
0000
0001
0000
0100
0010
1000
0000
,
0110
0000
0110
0000
0001
1000
0001
0000
,
1000
0100
1000
0100
1000
0000
0000
0000
,
0001
0100
0001
0100
0001
0000
0000
0000
,
1000
0001
1000
0000
,
1000
0001
1000
0001
1000
0000
0000
0000
,
0001
0100
0001
0100
0001
0000
0000
0000
,
1000
0100
1000
0100
1000
0000
0000
0000
,
0001
0100
0001
0100
0001
0000
0000
0000
,
1000
0100
1000
0100
1000
0000
0000
0000
;

//---------------dance-single - ----------------
#NOTEDATA:;
#CHARTNAME:;
#STEPSTYPE:dance-single;
#DESCRIPTION:;
#CHARTSTYLE:;
#DIFFICULTY:Easy;
#METER:3;
#RADARVALUES:0.236501,0.313991,0.286708,0.018497,0.000000,179.000000,148.000000,31.000000,2.000000,0.000000,0.000000,0.000000,0.000000,0.000000,0.236501,0.313991,0.286708,0.018497,0.000000,179.000000,148.000000,31.000000,2.000000,0.000000,0.000000,0.000000,0.000000,0.000000;
#CREDIT:Alchemy Jones;
#NOTES:
0000
0000
0000
0000
,
0001
0000
0001
0000
,
0010
0100
0010
0000
,
1000
0000
1000
0000
,
0100
0010
0110
0110
,
0001
0001
0001
0000
,
1000
1000
1000
0000
,
0001
0001
0001
0000
,
1000
1000
1000
0000
,
0000
0100
1000
0001
,
0000
0100
0001
1000
,
0000
0001
1000
1001
,
0000
0010
0001
0100
,
0000
0010
1000
0001
,
0000
0010
0001
1000
,
0000
1000
1000
0100
,
0001
0010
0100
0001
,
0000
1000
1000
0010
,
0100
0100
0001
0001
,
0000
0010
0020
0030
,
0001
1000
0001
2000
,
3000
0100
1000
0000
,
0010
1000
1000
0000
,
0001
0001
0001
0000
,
1000
1000
1000
0000
,
1000
0100
1000
0000
,
0001
0100
0001
0000
,
1001
0000
1001
0000
,
0001
1000
0001
0000
,
1100
1100
1100
0000
,
0101
0101
0101
0000
,
1100
1100
1100
0000
,
0101
0101
0101
0000
,
0001
0001
1000
1000
,
0010
0100
0001
0100
,
0010
1000
0100
0001
,
0100
1000
0001
0100
,
0000
0001
0001
0001
,
0010
1000
1000
1000
,
0100
0000
0010
0001
,
0100
1000
0010
0001
,
0001
0100
0001
0000
,
1000
0100
1000
0000
,
1001
0000
1001
0000
,
1000
0001
1000
0000
,
0101
0101
0101
0000
,
1100
1100
1100
0000
,
0101
0101
0101
0000
,
1100
1100
1100
0000
;
