#TITLE:TUSCIA EST;
#SUBTITLE:;
#ARTIST:ANDREA RIBECCA;
#TITLETRANSLIT:;
#SUBTITLETRANSLIT:;
#ARTISTTRANSLIT:;
#GENRE:;
#CREDIT:;
#BANNER:TUSCIA EST.png;
#BACKGROUND:TUSCIA EST - bg.png;
#LYRICSPATH:;
#CDTITLE:;
#MUSIC:TUSCIA EST.ogg;
#OFFSET:-0.055000;
#SAMPLESTART:44.596497;
#SAMPLELENGTH:12.000000;
#SELECTABLE:YES;
#BPMS:0.000000=140.000000
,36.000000=70.000000
,68.000000=140.000000
;
#STOPS:
;
#BGCHANGES:11.500=TUSCIA EST.avi=1.000=0=0=0=StretchNoLoop==CrossFade_Faster==,
200.000=TUSCIA EST - bg.png=1.000=0=0=1===CrossFade_Faster==,
99999=-nosongbg-=1.000=0=0=0 // don't automatically add -songbackground-
;
#KEYSOUNDS:;
#ATTACKS:;

//---------------dance-single - ----------------
#NOTES:
     dance-single:
     :
     Hard:
     9:
     0.638031,0.702136,0.028208,0.263272,1.038983,475.000000,472.000000,3.000000,28.000000,0.000000,0.000000,0.638031,0.702136,0.028208,0.263272,1.038983,475.000000,472.000000,3.000000,28.000000,0.000000,0.000000:
0000
0000
0000
0000
,
0000
0000
0000
0000
,
0000
0000
0000
0000
,
0010
0000
0001
0000
1000
0000
1000
0001
0000
0000
0100
0000
0010
0000
0010
1000
,
0000
0000
0100
0000
1000
0000
1000
0001
0000
0000
0010
0000
0001
0000
0100
0000
,
0001
0000
1000
0000
0100
0000
0100
1000
0000
0000
0010
0000
0100
0000
0100
0001
,
0000
0000
0010
0000
0001
0000
0001
1000
0000
0000
0010
0000
1000
0000
0100
0000
,
0010
0000
0001
0000
1000
0000
1000
0010
0000
0000
1000
0000
0001
0000
0001
0010
,
0100
1000
0010
0100
0001
0010
0100
1000
,
0110
1000
0100
0010
0000
1000
0100
0010
0000
0001
1000
0010
0000
0001
1000
0010
,
0000
0100
0001
0010
0000
0100
0001
0010
0000
0001
0100
1000
0000
0001
0100
1000
,
0000
0100
0010
1000
0000
0100
0010
1000
0100
0010
0001
1000
0000
0010
0001
1000
,
0100
1000
0010
0100
0000
1000
0010
0100
0001
0010
0001
1000
0000
0010
0001
1000
,
0010
0100
0001
1000
0000
0100
0001
1000
0010
0100
0001
0010
0000
0100
0001
0010
,
0100
1000
0001
0100
0000
1000
0001
0100
0010
1000
0100
0001
0000
1000
0100
0001
,
0100
1000
0010
1000
0000
0100
1000
0100
0000
0010
0001
0010
0000
0001
0100
0001
,
0000
0100
0010
0100
0000
0010
1000
0010
0000
1000
0100
1000
0000
0220
0000
0000
,
0000
0000
0000
0000
0000
0000
0000
0330
,
0001
1000
0000
1000
0010
0000
0010
0200
0000
0001
0000
0301
0010
0000
0010
0000
,
0100
1000
0000
1000
0001
0000
0001
0020
0000
0100
0000
0130
1000
0000
1000
0000
,
0001
0100
0000
0100
0010
0000
0010
2000
0000
0100
0000
3100
0010
0000
0010
0000
,
0001
0100
0000
0100
0001
0000
0001
0020
0000
0100
0000
0130
1000
0000
1000
0000
,
0010
0100
0000
0001
0100
0000
0002
0010
0000
0010
0000
0013
0100
0000
0100
0000
,
1000
0010
0000
0100
0010
0000
2000
0100
0000
0100
0000
3100
0010
0000
0010
0000
,
0001
1000
0000
0001
0100
0000
0002
0010
0000
0010
0000
0013
0100
0000
0100
0000
,
1000
0001
0000
1000
0100
0000
2000
0010
0000
0010
0000
3010
0100
0000
0100
0000
,
0010
0100
0000
0100
0001
0000
0001
2000
0000
0100
0000
3100
0010
0000
0010
0000
,
0100
1000
0000
1000
0010
0000
0010
0200
0000
0001
0000
0301
0010
0000
0010
0000
,
0001
1000
0000
1000
0100
0000
0100
0020
0000
0001
0000
0031
0100
0000
0100
0000
,
0010
1000
0000
1000
0001
0000
0001
0200
0000
0010
0000
0310
1000
0000
1000
0000
,
0001
0100
0000
0001
0000
0000
1000
0100
0000
1000
0000
1000
0001
0000
1000
0000
,
0010
0100
0000
0010
0000
0000
0100
0001
0000
0010
0000
0010
0100
0000
1000
0000
,
0001
0010
0000
0001
0000
0000
1000
0010
0000
1000
0000
1000
0001
0000
0010
0000
,
0001
0000
1000
0000
0100
0000
1000
0000
0010
1000
0010
1000
0001
0100
0001
0100
,
0010
1000
0000
1000
0001
0000
0001
0020
0000
0100
0000
0130
1000
0000
1000
0000
,
0010
0100
0000
0100
0001
0000
0001
2000
0000
0010
0000
3010
0100
0000
0100
0000
,
0001
0010
0000
0010
0001
0000
0001
0200
0000
0010
0000
0310
1000
0000
1000
0000
,
0100
0010
0000
0010
0001
0000
0001
2000
0000
0100
0000
3100
0010
0000
0010
0000
,
0001
0010
0000
0100
0010
0000
0200
1000
0000
1000
0000
1300
0010
0000
0010
0000
,
1000
0100
0000
0010
0100
0000
0020
0001
0000
0001
0000
0031
0100
0000
0100
0000
,
0010
1000
0000
0001
1000
0000
0020
0100
0000
0100
0000
0130
0001
0000
0001
0000
,
0010
0001
0000
1000
0001
0000
0200
0010
0000
0010
0000
0310
1000
0000
1000
0000
,
0001
0010
0000
0010
0001
0000
0001
2000
0000
0010
0000
3010
0100
0000
0100
0000
,
0010
1000
0000
1000
0100
0000
0100
0020
0000
0001
0000
0031
1000
0000
1000
0000
,
0010
0100
0000
0100
0010
0000
0010
2000
0000
0100
0000
3100
0010
0000
0010
0000
,
0001
1000
0000
1000
0010
0000
0010
0200
0000
0001
0000
0301
0010
0000
0010
0000
,
0100
0000
1000
0010
1000
0000
0001
0000
0000
0000
0100
0010
0100
0000
0001
0000
,
0010
0000
0001
0100
0001
0000
1000
0000
0000
0000
0010
0100
0010
0000
1000
0000
,
0100
0000
0010
0001
0010
0000
0100
0000
0000
0000
1000
0010
1000
0000
0100
0000
,
0010
0000
0001
1000
0001
0000
0100
0000
0001
0010
0001
0010
0100
1000
0100
1000
,
2002
0000
0000
0000
,
0000
0000
3003
0000
;

//---------------dance-single - ----------------
#NOTES:
     dance-single:
     :
     Medium:
     5:
     0.307598,0.387386,0.347895,0.385505,0.103428,229.000000,192.000000,37.000000,41.000000,0.000000,0.000000,0.307598,0.387386,0.347895,0.385505,0.103428,229.000000,192.000000,37.000000,41.000000,0.000000,0.000000:
// measure 0
0000
0000
0000
0000
,  // measure 1
0000
0000
0000
0000
,  // measure 2
0000
0000
0000
0000
,  // measure 3
0001
0101
1000
1100
,  // measure 4
0001
0000
0101
0000
1000
0100
0010
0100
,  // measure 5
1000
1100
0001
0101
,  // measure 6
1000
0000
1100
0000
0001
0100
0010
0100
,  // measure 7
0001
0101
1000
1100
,  // measure 8
0001
0000
0101
0000
1000
0100
0010
0100
,  // measure 9
2000
0000
0000
0000
3000
0020
0000
0000
0030
0200
0000
0000
0000
0302
0000
0000
,  // measure 10
0000
0023
0000
0000
0000
0230
0000
0000
0000
2300
0000
0000
0000
3020
0000
0000
,  // measure 11
0000
0230
0000
0000
0000
0302
0000
0000
0000
0023
0000
0000
0000
2030
0000
0000
,  // measure 12
0000
3200
0000
0000
0000
0320
0000
0000
0000
0032
0000
0000
0000
0203
0000
0000
,  // measure 13
0000
0320
0000
0000
0000
0230
0000
0000
0000
0320
0000
0000
0000
2030
0000
0000
,  // measure 14
0000
3002
0000
0000
0000
2003
0000
0000
0000
3002
0000
0000
0000
0003
0000
0000
,  // measure 15
2020
3030
0202
0303
,  // measure 16
0022
0033
2200
0000
,  // measure 17
0000
0000
0000
3300
,  // measure 18
0001
0000
0010
0000
0100
1000
0001
0000
,  // measure 19
1000
0000
0010
0000
0100
0001
1000
0000
,  // measure 20
0001
0000
0100
0000
0010
1000
0001
0000
,  // measure 21
1000
0000
0100
0000
0010
0001
1000
0000
,  // measure 22
0010
0000
0011
0000
0010
0001
0100
0001
,  // measure 23
0010
0000
1010
0000
0010
1000
0100
1000
,  // measure 24
0010
0000
0101
0000
0100
0001
0010
0001
,  // measure 25
0100
0000
1100
0000
0100
1000
0010
1000
,  // measure 26
0100
1001
0100
1001
,  // measure 27
0010
1001
0010
1001
,  // measure 28
0010
0110
0100
0110
,  // measure 29
0010
0000
0110
0000
0001
0010
0100
1000
,  // measure 30
0200
0000
0000
0000
,  // measure 31
2300
0000
0000
0000
,  // measure 32
3020
0000
0000
0000
,  // measure 33
0032
0000
0000
0000
0103
0010
1000
0010
,  // measure 34
0100
0000
0001
0000
0010
0100
1000
0000
,  // measure 35
0010
0000
0100
0000
0001
0010
0100
0000
,  // measure 36
1000
0000
0100
0000
0010
0001
1000
0000
,  // measure 37
0001
0000
0010
0000
0100
1000
0001
0000
,  // measure 38
0010
0000
1010
0000
1000
0010
0100
0010
,  // measure 39
1000
0000
0011
0000
0001
0010
0100
0010
,  // measure 40
0001
0000
1100
0000
1000
0100
0010
0100
,  // measure 41
1000
0000
0101
0000
0001
0100
0010
0100
,  // measure 42
0001
0101
1000
1100
,  // measure 43
0001
0011
1000
1010
,  // measure 44
0001
1001
1000
1001
,  // measure 45
0010
0110
0100
0110
,  // measure 46
0002
0000
0000
0000
,  // measure 47
0023
0000
0000
0000
,  // measure 48
2030
0000
0000
0000
,  // measure 49
3200
0000
0000
0300
,  // measure 50
2002
0000
0000
0000
,  // measure 51
0000
0000
3003
0000
;

//---------------dance-single - ----------------
#NOTES:
     dance-single:
     :
     Easy:
     2:
     0.167903,0.215789,0.084623,0.347895,0.000000,125.000000,116.000000,9.000000,37.000000,0.000000,0.000000,0.167903,0.215789,0.084623,0.347895,0.000000,125.000000,116.000000,9.000000,37.000000,0.000000,0.000000:
0000
0000
0000
0000
,
0000
0000
0000
0000
,
0000
0000
0000
0000
,
0020
0000
1030
0000
,
0100
0000
0010
0001
,
0020
0000
0031
0000
,
0100
0000
0010
1000
,
0020
0000
0230
0000
,
0301
1000
0001
1000
,
0100
0000
1000
0000
,
0010
0000
0001
0000
,
0100
0000
0001
0000
,
0010
0000
1000
0000
,
0100
0000
0010
0000
,
0100
0000
0010
0000
,
2000
3002
2003
3002
,
0203
0320
0230
0000
,
0000
0000
0000
0300
,
2000
0000
3001
0010
,
0200
0000
1300
0100
,
0020
0000
0031
0100
,
0020
0000
1030
0010
,
0200
0010
0010
0310
,
0020
0100
0100
0130
,
2000
0001
0001
3001
,
0002
1000
1000
1003
,
0001
0000
1001
0000
,
1000
0000
1001
0000
,
0100
0000
0110
0000
,
0010
0000
0110
0000
,
2000
0000
0000
3000
,
0020
0000
0000
0030
,
0002
0000
0000
0003
,
0200
0000
0000
0300
,
1000
0001
0020
0000
,
0031
1000
0200
0000
,
1300
0001
0200
0000
,
0301
1000
0020
0000
,
2030
0001
0001
3001
,
0002
1000
1000
1003
,
0200
0010
0010
0310
,
0020
0100
0100
0130
,
0010
0000
0110
0000
,
0100
0000
0110
0000
,
1000
0000
1001
0000
,
0001
0000
1001
0000
,
2000
0000
0000
3000
,
0200
0000
0000
0300
,
0002
0000
0000
0003
,
0020
0000
0000
0030
,
2002
0000
0000
0000
,
3003
0000
0000
0000
;
