#TITLE:TRAVEL TO ROMANTIS;
#SUBTITLE:(Love To Infinity Mix);
#ARTIST:ACE OF BASE;
#TITLETRANSLIT:;
#SUBTITLETRANSLIT:;
#ARTISTTRANSLIT:;
#GENRE:;
#CREDIT:;
#BANNER:TRAVEL TO ROMANTIS (Love To Infinity Mix).png;
#BACKGROUND:TRAVEL TO ROMANTIS (Love To Infinity Mix) - bg.png;
#LYRICSPATH:;
#CDTITLE:;
#MUSIC:TRAVEL TO ROMANTIS (Love To Infinity Mix).ogg;
#OFFSET:-0.324000;
#SAMPLESTART:36.915874;
#SAMPLELENGTH:12.000000;
#LASTBEATHINT:241.974304;
#SELECTABLE:YES;
#BPMS:0.000000=126.936996
;
#STOPS:
;
#BGCHANGES:15.750=TRAVEL TO ROMANTIS (Love To Infinity Mix).avi=1.000=0=0=0=StretchNoLoop==CrossFade_Faster==,
239.500=TRAVEL TO ROMANTIS (Love To Infinity Mix) - bg.png=1.000=1=0=1===CrossFade==,
99999=-nosongbg-=1.000=0=0=0 // don't automatically add -songbackground-
;
#KEYSOUNDS:;
#ATTACKS:;

//---------------dance-single - ----------------
#NOTES:
     dance-single:
     :
     Hard:
     8:
     0.478095,0.617170,0.231374,0.148741,0.392510,405.000000,377.000000,28.000000,18.000000,0.000000,0.000000,0.478095,0.617170,0.231374,0.148741,0.392510,405.000000,377.000000,28.000000,18.000000,0.000000,0.000000:
// measure 0
0000
0000
0000
0000
,  // measure 1
0000
0000
0000
0000
,  // measure 2
0000
0000
0000
0000
,  // measure 3
0000
0000
0000
0000
,  // measure 4
1000
0000
0000
0000
0010
0000
0000
1000
0000
0001
0100
0000
0010
0000
0000
0000
,  // measure 5
0001
0000
0000
0000
0010
0000
0000
0001
0000
1000
0100
0000
0010
0000
0000
0000
,  // measure 6
1000
0000
1000
0000
0100
0000
0000
1000
0000
0001
0010
0000
0100
0000
0000
0000
,  // measure 7
0001
0000
0000
0000
0100
0000
0000
0001
0000
1000
0010
0000
0100
0000
0000
0000
,  // measure 8
0001
0000
0001
0000
0100
0000
0000
0000
0001
0010
0000
0100
0000
0000
0000
0000
,  // measure 9
1000
0000
1000
0000
0100
0000
0000
0000
1000
0010
0000
0100
0000
0000
0000
0000
,  // measure 10
0010
0000
0010
0000
1000
0000
0000
0000
0001
0010
0000
0100
0000
0000
0000
0000
,  // measure 11
1000
0000
0000
0010
0000
0000
0000
0000
0100
0010
0000
0100
0001
0000
0000
0000
,  // measure 12
1000
0000
0100
0000
1000
0000
0010
0000
0100
0001
0000
0001
0100
0000
0001
0000
,  // measure 13
0010
0000
0100
0000
0010
0000
0001
0000
1000
0010
0000
0010
1000
0000
0000
0000
,  // measure 14
0001
0000
0010
0000
0001
0000
1000
0000
0010
0100
0000
0100
0010
0000
1000
0000
,  // measure 15
0001
1000
0000
1000
0001
0000
0100
0000
0001
0010
0001
0000
1000
0010
1000
0000
,  // measure 16
0001
0000
0100
0000
0001
0000
0010
0000
0100
1000
0000
1000
0100
0000
1000
0000
,  // measure 17
0010
0000
0100
0000
0010
0000
1000
0000
0001
0010
0000
0010
0001
0000
0000
0000
,  // measure 18
1000
0010
1000
0001
0010
0100
0010
0001
,  // measure 19
0100
0010
0100
0010
0100
0010
0100
0010
0100
0001
0100
0001
0100
0001
0100
0001
,  // measure 20
0100
0000
0000
0010
0000
0000
1000
0000
0000
0001
0000
0010
0100
0000
1000
0000
,  // measure 21
0001
0000
0000
0010
0000
0000
0001
0000
1000
0010
0000
0010
0100
0000
0001
0000
,  // measure 22
0010
0010
1001
0000
0100
0100
1001
0000
,  // measure 23
1010
0000
0101
0000
0001
0010
0001
1000
,  // measure 24
0020
0000
0000
0000
0000
0000
0130
0001
0200
0000
0000
0000
0310
0000
0000
0000
,  // measure 25
1010
0000
0000
1000
1000
0100
0010
0001
,  // measure 26
0200
0000
0310
1000
0200
0000
1300
0001
,  // measure 27
0100
0000
0000
0010
0000
0000
0100
0000
0001
1000
0000
1000
0010
0000
1000
0000
,  // measure 28
0100
0000
0000
0010
0000
0000
0001
0000
0000
1000
0000
0010
0100
0000
0001
0000
,  // measure 29
1000
0000
0000
0010
0000
0000
1000
0000
0001
0010
0000
0010
0100
0000
1000
0000
,  // measure 30
0010
0010
1001
0000
0100
0100
1001
0000
,  // measure 31
0011
0000
1100
0000
1000
0010
1000
0001
,  // measure 32
0020
0000
0000
0000
0000
0000
0130
1000
0200
0000
0000
0000
0310
0000
0000
0000
,  // measure 33
0011
0000
0000
0001
0001
0010
0100
1000
,  // measure 34
1001
0000
0000
0000
0010
0000
0001
0000
0100
0000
0000
0000
0010
0000
1000
0001
,  // measure 35
1001
0000
0010
1000
0100
0000
0010
0001
,  // measure 36
1001
0000
0010
0100
1001
0000
0100
0010
,  // measure 37
1001
0000
0100
0000
1001
0000
0010
0000
1001
1000
0001
1000
0001
1000
0001
1000
,  // measure 38
0100
0000
0000
0000
0000
0000
0000
0000
1000
0010
0000
1000
0000
0000
0000
0000
,  // measure 39
0100
0000
0000
0000
0000
0000
0000
0000
0001
0010
0000
0001
0000
0000
0000
0000
,  // measure 40
0200
0000
0000
0000
,  // measure 41
0020
0000
0000
0000
0330
0000
0000
0010
,  // measure 42
2001
0100
0000
3100
,  // measure 43
0100
0010
0100
0010
0100
0010
0100
0010
0100
1000
0100
1000
0100
1000
0100
1000
,  // measure 44
0100
0000
0000
0010
0000
0000
0001
0000
0000
1000
0000
0010
0100
0000
0001
0000
,  // measure 45
1000
0000
0000
0100
0000
0000
1000
0000
0001
0100
0000
0100
0010
0000
1000
0000
,  // measure 46
0100
0100
1001
0000
0010
0010
1001
0000
,  // measure 47
1100
0000
0011
0000
1000
0010
1000
0001
,  // measure 48
0020
0000
0000
0000
0000
0000
0130
1000
0200
0000
0000
0000
0310
0000
0000
0000
,  // measure 49
0011
0000
0000
1000
1000
0010
0100
0001
,  // measure 50
0010
0000
0001
0000
1000
0000
0010
0100
0000
0001
0000
1000
0000
0100
0010
0000
,  // measure 51
0100
0000
1000
0000
0001
0000
0100
0010
0000
1000
0000
0001
0000
0010
0100
0000
,  // measure 52
0010
0000
0000
0100
0000
0000
1000
0000
0000
0001
0000
0100
0010
0000
1000
0000
,  // measure 53
0001
0000
0000
0010
0000
0000
0001
0000
1000
0010
0000
0010
0100
0000
0001
0000
,  // measure 54
0010
0010
1001
0000
0100
0100
1001
0000
,  // measure 55
0101
0000
1010
0000
0001
0010
0001
1000
,  // measure 56
0020
0000
0000
0000
0000
0000
0130
0001
0200
0000
0000
0000
0310
0000
0000
0000
,  // measure 57
1010
0000
0000
0001
0001
0010
0100
1000
,  // measure 58
0020
0000
0000
2030
0000
0000
3002
0000
,  // measure 59
0023
0000
0000
0200
0000
0000
0330
0000
;

//---------------dance-single - ----------------
#NOTES:
     dance-single:
     :
     Medium:
     5:
     0.278594,0.345615,0.107424,0.314008,0.000000,236.000000,223.000000,13.000000,38.000000,0.000000,0.000000,0.278594,0.345615,0.107424,0.314008,0.000000,236.000000,223.000000,13.000000,38.000000,0.000000,0.000000:
0000
0000
0000
0000
,
0000
0000
0000
0000
,
0000
0000
0000
0000
,
0000
0000
0000
0000
,
0010
1000
0100
2000
0000
0000
3000
0000
,
0010
0001
0100
0002
0000
0000
0003
0000
,
0100
1000
0010
1000
0000
0010
1000
0100
,
0000
1000
0000
0001
,
0010
0001
0100
0002
0000
0000
0003
0000
,
0010
1000
0100
2000
0000
0000
3000
0000
,
0100
0001
0010
0001
0000
0010
0001
0100
,
0001
0000
0100
0000
0010
1000
0010
0000
,
0001
0010
0001
0100
0001
0000
0001
0000
,
1000
0010
1000
0100
1000
0000
1000
0000
,
0001
1000
0001
0010
0001
0000
1000
0000
,
1001
0000
1000
0100
1000
0000
1001
0000
,
1000
0010
1000
0100
1000
0000
1000
0000
,
0001
0010
0001
0100
0001
0000
0001
0000
,
1000
0001
1000
0010
1000
0000
0001
0000
,
0200
0000
0000
0310
1000
0100
0010
0001
,
0020
0000
0200
0330
,
1000
0000
0010
0000
0100
0001
0010
0100
,
2000
0000
3001
0000
,
0101
0000
0000
0000
0010
1000
0100
0010
,
0002
0000
1000
1003
,
0110
0000
0000
0010
0100
0001
0010
0100
,
2000
0000
0002
3003
,
0000
0000
0000
0010
0001
0100
0010
1000
,
0020
0000
0200
0330
,
0001
0000
0010
0000
0100
1000
0010
0100
,
0002
0000
1003
0000
,
1100
0000
0000
0000
0010
0001
0100
0010
,
2000
0000
0001
3001
,
0110
0000
0000
0010
0100
1000
0010
0100
,
0002
0000
0000
0003
,
0020
0000
0000
0030
,
2000
0000
3000
0001
2000
0000
3000
0001
,
1000
0001
1000
0001
2000
0000
0000
0000
,
3100
0000
0110
0000
,
0010
0000
0110
0000
,
0200
0000
0000
0000
,
0020
0000
0000
0330
,
1001
0000
0000
0000
,
0020
0000
0000
0130
0001
0010
0100
1000
,
0200
0000
0020
0330
,
0001
0000
0100
0000
0010
1000
0100
0010
,
0002
0000
1003
0000
,
1010
0000
0000
0000
0100
0001
0010
0100
,
2000
0000
0001
3001
,
0110
0000
0000
0100
0010
1000
0100
0010
,
0002
0000
2000
3003
,
0000
0000
0000
0100
1000
0010
0100
0001
,
0200
0000
0020
0330
,
1000
0000
0100
0000
0010
0001
0100
0010
,
2000
0000
3001
0000
,
0011
0000
0000
0000
0100
1000
0010
0100
,
0002
0000
1000
1003
,
0110
0000
0000
0100
0010
0001
0100
0010
,
2000
0000
0000
3020
0000
0000
0230
0000
,
0302
0000
0000
2000
0000
0000
3003
0000
;

//---------------dance-single - ----------------
#NOTES:
     dance-single:
     :
     Easy:
     2:
     0.160545,0.271555,0.099160,0.256164,0.000000,136.000000,124.000000,12.000000,31.000000,0.000000,0.000000,0.160545,0.271555,0.099160,0.256164,0.000000,136.000000,124.000000,12.000000,31.000000,0.000000,0.000000:
0000
0000
0000
0000
,
0000
0000
0000
0000
,
0000
0000
0000
0000
,
0000
0000
0000
0000
,
1000
0000
0010
0000
,
0001
0000
0100
0000
,
1000
0000
0010
0000
,
0001
0000
0000
0000
,
0001
0000
0010
0000
,
1000
0000
0100
0000
,
0001
0000
0010
0000
,
1000
0000
0000
0000
,
1000
1000
0200
0300
,
0001
0001
0200
0300
,
1000
0000
0010
0000
,
1001
0000
0010
0100
,
0001
0001
0020
0030
,
1000
1000
0020
0030
,
0001
0000
0100
0000
,
1001
0000
1000
0010
,
2000
0000
3001
0000
,
0000
0000
0001
0010
,
0002
0000
0203
0000
,
1300
0000
0010
0010
,
0200
0000
0010
0310
,
0110
0000
0001
0100
,
2000
3000
0020
0030
,
0001
0000
0001
0100
,
0002
0000
1003
0000
,
0000
0000
1000
0100
,
2000
0000
3020
0000
,
0031
0000
0100
0100
,
0020
0000
0100
0130
,
0110
0000
1000
0010
,
0002
0000
0000
0003
,
2000
0000
0000
3000
,
0002
0003
2000
3000
,
1001
0110
1001
0110
,
0001
0000
0000
0000
,
0100
0000
0000
0000
,
1000
0000
0000
0000
,
0010
0000
0000
0000
,
1001
0000
0000
0000
,
0020
0000
1030
0100
,
2000
0000
3001
0000
,
0000
0000
0001
0100
,
0002
0000
0023
0000
,
1030
0000
0100
0100
,
0020
0000
0100
0130
,
0110
0000
0001
0010
,
2000
3000
0200
0300
,
1001
0000
0001
0010
,
0002
0000
1003
0000
,
0000
0000
1000
0010
,
2000
0000
3200
0000
,
0301
0000
0010
0010
,
0200
0000
0010
0310
,
0110
0000
1000
0100
,
0002
0000
0000
0000
,
2000
0000
0000
3003
;
