#VERSION:0.83;
#TITLE:TIME TO GROOVE;
#SUBTITLE:;
#ARTIST:MAJESTIC feat. NONĂ”;
#TITLETRANSLIT:;
#SUBTITLETRANSLIT:;
#ARTISTTRANSLIT:;
#GENRE:;
#ORIGIN:;
#CREDIT:;
#BANNER:TIME TO GROOVE.png;
#BACKGROUND:TIME TO GROOVE - bg.png;
#PREVIEWVID:;
#JACKET:TIME TO GROOVE - jacket.png;
#CDIMAGE:TIME TO GROOVE - jacket.jpg;
#DISCIMAGE:;
#LYRICSPATH:;
#CDTITLE:;
#MUSIC:TIME TO GROOVE.ogg;
#OFFSET:-0.648000;
#SAMPLESTART:90.099442;
#SAMPLELENGTH:12.000000;
#SELECTABLE:YES;
#BPMS:0.000=128.000;
#STOPS:;
#DELAYS:;
#WARPS:;
#TIMESIGNATURES:0.000=4=4;
#TICKCOUNTS:0.000=4;
#COMBOS:0.000=1;
#SPEEDS:0.000=1.000=0.000=0;
#SCROLLS:0.000=1.000;
#FAKES:;
#LABELS:0.000=Song Start;
#BGCHANGES:15.750=TIME TO GROOVE.avi=1.000=1=0=0=StretchNoLoop==CrossFade==,
224.000=TIME TO GROOVE - bg.png=1.000=0=0=1===CrossFade_Fastest==,
99999=-nosongbg-=1.000=0=0=0 // don't automatically add -songbackground-
;
#KEYSOUNDS:;
#ATTACKS:
;

//---------------dance-single - ----------------
#NOTEDATA:;
#CHARTNAME:;
#STEPSTYPE:dance-single;
#DESCRIPTION:;
#CHARTSTYLE:;
#DIFFICULTY:Hard;
#METER:7;
#RADARVALUES:0.483106,0.468874,0.265056,0.210217,0.027420,370.000000,341.000000,29.000000,23.000000,0.000000,0.000000,0.000000,0.000000,0.000000,0.483106,0.468874,0.265056,0.210217,0.027420,370.000000,341.000000,29.000000,23.000000,0.000000,0.000000,0.000000,0.000000,0.000000;
#CREDIT:Alchemy Jones;
#NOTES:
0000
0000
0000
0000
,
0000
0000
0000
0000
,
0000
0000
0000
0000
,
0110
1001
0110
1001
,
0010
1000
0100
1000
0020
0000
0130
0000
,
1000
0001
0100
0010
1000
0000
0010
0100
,
0001
0010
0001
0200
0010
0000
0301
2000
,
0100
0000
3001
0010
0100
0000
1000
0010
,
0100
0001
1000
0000
0100
0010
0100
2000
,
0000
0010
0000
3100
0000
0001
1000
0010
,
0101
1100
0101
1100
,
0110
0000
1000
0200
0000
0000
0300
0000
,
0000
0001
0010
0100
1000
0010
0100
0000
,
0010
1000
0100
0010
0001
0100
0010
0000
,
0001
0010
0100
0010
0001
1000
0000
0000
,
1000
0010
0100
0010
1000
0001
0001
0000
,
0011
0000
0001
1000
0010
0100
0000
0010
,
1000
0000
0001
0100
0010
0100
0001
0000
1000
0000
0100
0000
1000
0000
0000
0000
,
0010
0100
0001
0010
0001
1000
0000
1000
,
0010
0100
0000
0100
0001
1000
0020
0000
,
1030
0100
0001
0100
1000
0100
0001
0100
,
1000
0001
0000
2000
0000
3100
0020
0000
,
0031
0100
1000
0100
0001
0100
1000
0100
,
0002
0000
0000
0000
1003
0010
0100
0000
0000
0000
0001
0000
0100
0010
1000
0000
,
0001
0010
1000
0010
0001
0010
1000
0010
,
0001
1000
0000
0200
0000
0310
0001
0010
,
0100
0100
1000
0001
0100
0000
0010
1000
,
0101
1010
1100
0011
,
0010
0001
0100
0001
0020
0000
0130
0000
,
0001
1000
0100
0010
0001
0000
0010
0100
,
1000
0010
1000
0200
0010
0000
1300
0002
,
0100
0000
1003
0010
0100
0000
0001
0010
,
0100
1000
0001
0000
0100
0010
0100
0002
,
0000
0010
0000
0103
0000
1000
0100
0010
,
0001
1000
0001
0020
0100
0000
0031
2000
,
0010
0000
3001
0200
0010
0000
0301
0010
,
0001
1000
0001
1000
0010
0010
0000
0000
,
1000
0001
1000
0001
0010
0010
0100
0100
,
1000
0001
1000
0001
0100
0100
0101
0000
,
1010
0000
1000
0100
0000
0100
0020
0000
,
0031
0100
1000
0100
0001
0100
1000
0100
,
0001
1000
0000
0002
0000
0103
0020
0000
,
1030
0100
0001
0100
1000
0100
0001
0100
,
2000
0000
0000
0000
3001
0010
0100
0000
0000
0000
1000
0000
0100
0010
0001
0000
,
1000
0010
0001
0010
1000
0010
0001
0010
,
1000
0001
0000
0200
0000
0310
1000
0010
,
0100
0100
0001
1000
0100
0000
0010
0001
,
1100
0011
0101
1010
,
1000
0001
1000
0001
0010
0010
0000
0000
,
0001
1000
0001
1000
0010
0010
0100
0100
,
0001
1000
0001
1000
0100
0100
1100
0000
,
0011
0000
0001
0100
0000
0100
0001
0010
,
0001
1000
0001
1000
0010
0010
0000
0000
,
1000
0001
1000
0001
0100
0100
0010
0010
,
1010
0011
1010
0011
,
0110
0000
1000
0100
0010
0000
0101
0000
,
1010
0000
1000
0200
0000
0000
0000
0000
,
0300
0000
0000
0000
;

//---------------dance-single - ----------------
#NOTEDATA:;
#CHARTNAME:;
#STEPSTYPE:dance-single;
#DESCRIPTION:;
#CHARTSTYLE:;
#DIFFICULTY:Medium;
#METER:5;
#RADARVALUES:0.364288,0.364680,0.191937,0.155377,0.000000,279.000000,258.000000,21.000000,17.000000,0.000000,0.000000,0.000000,0.000000,0.000000,0.364288,0.364680,0.191937,0.155377,0.000000,279.000000,258.000000,21.000000,17.000000,0.000000,0.000000,0.000000,0.000000,0.000000;
#CREDIT:Alchemy Jones;
#NOTES:
0000
0000
0000
0000
,
0000
0000
0000
0000
,
0000
0000
0000
0000
,
1001
0110
1001
0100
,
1001
0000
0100
0000
0010
1000
0100
0000
,
0001
0000
0100
0000
1000
0001
1000
0000
,
0010
0000
0100
0002
0000
0000
1003
0200
,
0000
0000
0310
0002
0000
0000
0013
0000
,
1001
0000
0001
1000
0100
0000
0010
0000
,
0010
0000
1000
0001
0100
0000
0001
0000
,
0010
0001
0100
1000
,
0010
0000
0100
2000
0000
0000
3000
0000
,
0001
0000
0010
0000
0100
1000
0001
0000
,
1000
0000
0010
0000
0100
0001
1000
0000
,
0100
0000
0010
0000
0001
0010
0001
0000
,
0100
0000
0010
0000
1000
0010
1000
0000
,
1001
0000
0001
0010
0100
0010
0000
0000
,
0001
0100
0001
0100
0010
0100
0010
0000
,
1000
0000
0001
0000
1000
0001
0000
0001
,
0010
0100
0000
0100
1000
0001
0100
0000
,
0001
0010
0001
0000
0010
0100
0010
0000
,
0002
0000
0000
1003
0000
0100
1000
0000
,
1000
0010
1000
0000
0010
0100
0010
0000
,
2000
0000
0000
3001
0000
0100
0010
1000
,
0100
0010
0100
0000
1000
0001
1000
0000
,
0020
0000
0000
0130
0000
0001
1000
0000
,
0001
0001
1000
1000
,
1001
0110
1001
0010
,
1001
0000
0100
0000
0010
0001
0100
0000
,
1000
0000
0100
0000
0001
1000
0001
0000
,
0010
0000
0100
2000
0000
0000
3001
0200
,
0000
0000
0310
2000
0000
0000
3010
0000
,
1001
0000
1000
0001
0100
0000
0010
0000
,
0010
0000
0001
1000
0100
0000
1000
0000
,
0100
0000
0010
0002
0000
0000
1003
0020
,
0000
0000
0130
0002
0000
0000
0103
0000
,
0001
0000
0001
0000
0010
0100
0010
0000
,
0001
0000
0001
0000
0100
0010
0100
0000
,
0001
0000
0001
0000
0010
0100
0010
0000
,
1001
0000
0001
1000
0100
0000
1001
0000
,
1000
0100
1000
0000
0100
0010
0100
0000
,
2000
0000
0000
3001
0000
0010
0001
0000
,
0001
0100
0001
0000
0100
0010
0100
0000
,
0002
0000
0000
1003
0000
0010
0100
0001
,
0010
0100
0010
0000
0001
1000
0001
0000
,
0200
0000
0000
0310
0000
1000
0001
0000
,
1000
1000
0001
0001
,
1001
0110
1001
0110
,
1000
0000
1000
0000
0010
0100
0010
0000
,
1000
0000
1000
0000
0100
0010
0100
0000
,
1000
0000
1000
0000
0010
0100
0010
0000
,
1001
0000
1000
0001
0100
0000
0110
0000
,
0001
0000
0001
0000
0010
0100
0010
0000
,
0001
0000
0001
0000
0100
0010
0100
0000
,
0001
0010
1000
0100
,
0001
0000
1000
0001
0100
0000
0110
0000
,
1001
0000
1000
0200
0000
0000
0000
0000
,
0300
0000
0000
0000
;

//---------------dance-single - ----------------
#NOTEDATA:;
#CHARTNAME:;
#STEPSTYPE:dance-single;
#DESCRIPTION:;
#CHARTSTYLE:;
#DIFFICULTY:Easy;
#METER:3;
#RADARVALUES:0.225885,0.361481,0.191937,0.118818,0.000000,173.000000,152.000000,21.000000,13.000000,0.000000,0.000000,0.000000,0.000000,0.000000,0.225885,0.361481,0.191937,0.118818,0.000000,173.000000,152.000000,21.000000,13.000000,0.000000,0.000000,0.000000,0.000000,0.000000;
#CREDIT:Alchemy Jones;
#NOTES:
// measure 0
0000
0000
0000
0000
,  // measure 1
0000
0000
0000
0000
,  // measure 2
0000
0000
0000
0000
,  // measure 3
0010
0010
0010
0010
,  // measure 4
1001
0000
0100
0000
,  // measure 5
1001
0000
0100
0000
,  // measure 6
0001
0200
0300
2000
,  // measure 7
3000
0020
0030
0000
,  // measure 8
0001
0001
1000
1000
,  // measure 9
0001
1000
0001
0001
,  // measure 10
0010
0010
0010
0010
,  // measure 11
0010
0200
0000
0300
,  // measure 12
1000
0000
0100
0000
,  // measure 13
0001
0000
0100
0000
,  // measure 14
1000
0000
0010
0000
,  // measure 15
0001
0000
1000
0001
,  // measure 16
1001
0000
0100
0000
,  // measure 17
1000
0000
0100
0000
,  // measure 18
0001
0000
0010
0000
,  // measure 19
0110
0000
1001
0000
,  // measure 20
1000
0010
1000
0010
,  // measure 21
0100
0000
0100
0000
,  // measure 22
0001
0010
0001
0010
,  // measure 23
0100
0000
0100
0000
,  // measure 24
1000
0001
1000
0001
,  // measure 25
0100
0000
0100
0000
,  // measure 26
0010
0010
0100
0100
,  // measure 27
0110
1001
0110
1001
,  // measure 28
1001
0000
0100
0000
,  // measure 29
1001
0000
0100
0000
,  // measure 30
1000
0200
0300
0002
,  // measure 31
0003
0020
0030
0000
,  // measure 32
1000
1000
0001
0001
,  // measure 33
1000
0001
1000
1000
,  // measure 34
0001
0200
0300
2000
,  // measure 35
3000
0020
0030
0001
,  // measure 36
0010
0010
0010
0000
,  // measure 37
0100
0100
0100
0000
,  // measure 38
1000
1000
1000
0000
,  // measure 39
0110
0000
1001
0000
,  // measure 40
0001
0010
0001
0010
,  // measure 41
0100
0000
0100
0000
,  // measure 42
1000
0010
1000
0010
,  // measure 43
0100
0000
0100
0000
,  // measure 44
0001
1000
0001
1000
,  // measure 45
0100
0000
0100
0000
,  // measure 46
0010
0010
0100
0100
,  // measure 47
0110
1001
0110
1001
,  // measure 48
0100
0100
0100
0000
,  // measure 49
0010
0010
0010
0000
,  // measure 50
0001
0001
0001
0000
,  // measure 51
0110
0000
0110
1001
,  // measure 52
0100
0100
0100
0000
,  // measure 53
0010
0010
0010
0000
,  // measure 54
1000
0001
1000
0001
,  // measure 55
2000
0000
3001
0000
,  // measure 56
2002
0000
3003
0000
;
