#VERSION:0.83;
#TITLE:THAT KIND OF WOMAN;
#SUBTITLE:(Jacques Lu Cont Remix);
#ARTIST:DUA LIPA;
#TITLETRANSLIT:;
#SUBTITLETRANSLIT:;
#ARTISTTRANSLIT:;
#GENRE:;
#ORIGIN:;
#CREDIT:;
#BANNER:THAT KIND OF WOMAN (Jacques Lu Cont Remix).png;
#BACKGROUND:THAT KIND OF WOMAN (Jacques Lu Cont Remix) - bg.png;
#PREVIEWVID:;
#JACKET:THAT KIND OF WOMAN (Jacques Lu Cont Remix) - jacket.png;
#CDIMAGE:;
#DISCIMAGE:;
#LYRICSPATH:;
#CDTITLE:;
#MUSIC:THAT KIND OF WOMAN (Jacques Lu Cont Remix).ogg;
#OFFSET:-0.067000;
#SAMPLESTART:92.556305;
#SAMPLELENGTH:12.000000;
#SELECTABLE:YES;
#BPMS:0.000=124.500;
#STOPS:;
#DELAYS:;
#WARPS:;
#TIMESIGNATURES:0.000=4=4;
#TICKCOUNTS:0.000=4;
#COMBOS:0.000=1;
#SPEEDS:0.000=1.000=0.000=0;
#SCROLLS:0.000=1.000;
#FAKES:;
#LABELS:0.000=Song Start;
#BGCHANGES:15.750=THAT KIND OF WOMAN (Jacques Lu Cont Remix).avi=1.000=1=0=0=StretchNoLoop==CrossFade==,
223.500=THAT KIND OF WOMAN (Jacques Lu Cont Remix) - bg.png=1.000=1=0=1===CrossFade==,
99999=-nosongbg-=1.000=0=0=0 // don't automatically add -songbackground-
;
#KEYSOUNDS:;
#ATTACKS:
;

//---------------dance-single - ----------------
#NOTEDATA:;
#CHARTNAME:;
#STEPSTYPE:dance-single;
#DESCRIPTION:;
#CHARTSTYLE:;
#DIFFICULTY:Hard;
#METER:7;
#RADARVALUES:0.418638,0.437642,0.102823,0.274196,0.021422,342.000000,330.000000,12.000000,32.000000,0.000000,0.000000,0.000000,0.000000,0.000000,0.418638,0.437642,0.102823,0.274196,0.021422,342.000000,330.000000,12.000000,32.000000,0.000000,0.000000,0.000000,0.000000,0.000000;
#CREDIT:Alchemy Jones;
#NOTES:
0000
0000
0000
0000
,
0000
0000
0000
0000
,
0000
0000
0000
0000
,
0000
0000
0000
0000
,
0000
0000
0000
0000
0001
0000
1000
0000
0100
0000
0000
0010
0000
0000
0100
0000
,
0000
1000
0010
0000
0100
0001
1000
0000
,
0010
1000
0000
1000
0001
0000
1001
0000
,
0010
0001
0000
0001
1000
0010
1000
0001
,
0010
0000
0001
0000
0000
0000
0001
0000
0100
0000
0000
0010
0000
0000
0100
0000
,
0000
0001
0010
0001
1000
0001
1000
0100
,
0000
0100
1000
0010
0000
0010
1000
0002
,
0000
0000
0003
0000
1000
0001
2000
0010
,
0000
3010
0200
0001
0000
0301
0020
0100
,
0000
0130
2000
0001
0000
3001
1000
0010
,
0001
0010
1000
0000
0000
0100
1000
0100
,
0001
0001
0200
0000
0300
1000
0000
0001
,
0000
0010
0200
1000
0000
1300
0020
0100
,
0000
0130
0002
1000
0000
1003
0001
0010
,
1000
0010
0001
0000
0000
0100
0001
0100
,
1000
0000
1000
0000
0100
0000
0010
0000
0100
0000
0001
1000
0001
0000
0000
0000
,
0100
0001
0010
0000
0010
0001
1000
0001
,
1000
1000
0200
0000
0301
0001
0200
0000
,
0310
0001
1000
0000
0010
1000
0001
1000
,
0001
0001
0200
0000
1300
1000
0200
0000
,
0310
1000
0100
0000
0100
1000
0001
1000
,
0001
0001
0020
0000
1030
1000
0020
0000
,
0130
1000
0001
0000
0010
0001
1000
0001
,
1000
1000
0020
0000
0001
0000
1030
0000
,
0001
1000
0100
1000
0001
0100
0010
1000
,
0100
0010
0100
0000
1100
0000
0011
0000
,
1000
0100
0010
0001
0100
0010
1000
0001
,
0010
0001
0100
0000
0000
0110
0110
0000
,
1000
0001
0100
0001
1000
0100
0010
0001
,
0100
0010
0100
0000
0101
0000
1010
0000
,
0001
0100
0010
1000
0100
0010
0001
1000
,
0010
1000
0100
0000
0000
0110
0110
0002
,
0000
0013
0100
0020
0000
0130
1000
0200
,
0000
1300
0010
2000
0000
3001
0100
0002
,
0000
1003
0100
2000
0000
3100
0010
0200
,
0000
0000
0000
0000
0300
0010
0001
0010
,
0100
0010
0100
0010
0100
1000
0100
1000
,
0010
1000
0010
1000
0010
0100
0010
0100
,
0002
0000
0000
0000
2003
0000
0000
0000
3100
0000
0000
1000
0000
0000
0001
0000
,
0000
1000
0010
0000
0010
0100
0000
0100
,
0001
1000
0100
1000
0001
0100
0010
1000
,
0100
0010
0100
0000
1100
0000
0011
0000
,
1000
0010
0100
0001
0010
0100
1000
0010
,
0001
0000
0001
0000
0010
0000
1000
0000
0100
0000
1000
0001
1000
0000
0000
0000
,
0100
1000
0001
0100
0001
1000
0100
0010
,
0001
0001
0020
0000
1030
1000
0020
0000
,
0130
1000
0001
0010
0001
1000
0010
0100
,
0001
0001
0200
0000
0000
1000
0000
0301
,
0010
0001
1000
0010
1000
0100
0010
0001
,
0100
0010
0100
0001
0010
0100
2000
0000
,
3010
0100
0001
0010
0100
1000
0001
0100
,
0001
0001
0020
0000
0001
0000
1030
0000
,
0202
0000
0000
0303
;

//---------------dance-single - ----------------
#NOTEDATA:;
#CHARTNAME:;
#STEPSTYPE:dance-single;
#DESCRIPTION:;
#CHARTSTYLE:;
#DIFFICULTY:Medium;
#METER:5;
#RADARVALUES:0.260731,0.311898,0.025706,0.265627,0.000000,213.000000,210.000000,3.000000,31.000000,0.000000,0.000000,0.000000,0.000000,0.000000,0.260731,0.311898,0.025706,0.265627,0.000000,213.000000,210.000000,3.000000,31.000000,0.000000,0.000000,0.000000,0.000000,0.000000;
#CREDIT:Alchemy Jones;
#NOTES:
0000
0000
0000
0000
,
0000
0000
0000
0000
,
0000
0000
0000
0000
,
0000
0000
0000
0000
,
0000
0000
1000
0001
2000
0000
0000
3010
,
0000
0000
0000
0000
0001
0010
0001
0000
,
1000
0100
0000
0000
0010
0000
0010
0000
,
0001
0100
0000
0000
0010
0100
0010
0000
,
1000
0000
0000
0001
0200
0000
0000
0301
,
0000
1000
0010
1000
0010
1000
0100
2000
,
0000
0000
3000
0000
0000
0010
0100
0020
,
0000
0030
0000
0000
0001
0010
0001
0010
,
0000
0100
0000
0010
0000
0001
0100
0001
,
0000
1000
0000
0001
0000
1000
0010
1000
,
0000
1001
0000
0000
0000
0010
0100
0020
,
0100
0000
0130
0000
0000
1000
0000
0001
,
0000
1000
0000
0010
0000
0100
0010
0100
,
0000
0001
0000
1000
0000
0001
0010
0001
,
0000
1001
0000
0000
0000
0001
1000
0001
,
0010
0100
0010
0100
,
1000
0000
0010
0000
1000
0001
1000
0001
,
0010
0100
0010
0100
,
0001
0000
0010
0000
0001
1000
0001
1000
,
0010
0100
0010
0100
,
1000
0000
0010
0000
1000
0001
1000
0001
,
0010
0100
0010
0100
,
0001
0000
0010
0000
0001
1000
0001
1000
,
0020
0200
0000
0330
,
2000
0000
0000
3020
0000
0000
0100
0000
,
0100
0130
0000
0000
,
0002
0000
0000
0023
0000
0000
0100
0000
,
0100
0000
0130
0000
0000
0010
0010
0000
,
2000
0000
0000
3200
0000
0000
0010
0000
,
0010
0310
0000
0000
,
0002
0000
0000
0203
0000
0000
0010
0000
,
0010
0000
0310
0000
0000
0100
0100
2000
,
0000
0000
0000
3020
0000
0000
0000
0230
,
0000
0000
0000
0302
0000
0000
0000
0023
,
0000
0000
0000
0230
0000
0000
0000
2300
,
0000
0000
0000
3000
0000
0001
1000
0001
,
1000
1000
0001
0001
,
1000
0010
1000
0010
1000
0100
1000
0000
,
0020
0000
0230
0000
0302
0000
0000
0003
,
0000
1000
0100
0000
0100
0010
0000
0010
,
0002
0000
0000
2003
0000
0000
0010
0000
,
0010
3010
0000
0000
,
2000
0000
0000
3002
0000
0000
0010
0000
,
0013
0100
0010
0100
,
0001
0000
1000
0000
0001
1000
0001
1000
,
0100
0010
0100
0010
,
1000
0000
0001
0000
1000
0001
1000
0001
,
0100
0000
0010
0000
0000
1000
0000
0100
,
0000
0010
0000
0001
0000
0100
0010
0100
,
0000
0001
0000
0010
0000
0100
1000
0100
,
0000
0010
0000
0000
0000
0001
1000
0001
,
0200
0020
0330
0000
,
1001
0000
0000
0000
;

//---------------dance-single - ----------------
#NOTEDATA:;
#CHARTNAME:;
#STEPSTYPE:dance-single;
#DESCRIPTION:;
#CHARTSTYLE:;
#DIFFICULTY:Easy;
#METER:2;
#RADARVALUES:0.168924,0.215929,0.025706,0.214215,0.000000,138.000000,135.000000,3.000000,25.000000,0.000000,0.000000,0.000000,0.000000,0.000000,0.168924,0.215929,0.025706,0.214215,0.000000,138.000000,135.000000,3.000000,25.000000,0.000000,0.000000,0.000000,0.000000,0.000000;
#CREDIT:Alchemy Jones;
#NOTES:
// measure 0
0000
0000
0000
0000
,  // measure 1
0000
0000
0000
0000
,  // measure 2
0000
0000
0000
0000
,  // measure 3
0000
0000
0000
0000
,  // measure 4
0001
0000
0010
0000
,  // measure 5
0100
0000
1000
1000
,  // measure 6
0010
0000
0100
0000
,  // measure 7
1000
0000
0010
0100
,  // measure 8
1000
0000
0100
0000
,  // measure 9
0010
0000
0001
1000
,  // measure 10
0100
0000
0010
0000
,  // measure 11
0001
0000
0100
0010
,  // measure 12
0001
0001
1000
1000
,  // measure 13
0010
0100
0010
0000
,  // measure 14
1001
0000
0000
0010
,  // measure 15
1000
0001
0000
0000
,  // measure 16
1000
1000
0001
0001
,  // measure 17
0010
0100
0010
0000
,  // measure 18
1001
0000
0000
0010
,  // measure 19
0001
1000
0001
1000
,  // measure 20
0010
0000
0100
0000
,  // measure 21
0001
1000
0001
1000
,  // measure 22
0100
0000
0010
0000
,  // measure 23
1000
0001
1000
0001
,  // measure 24
0010
0000
0100
0000
,  // measure 25
0001
1000
0001
1000
,  // measure 26
0100
0000
0010
0000
,  // measure 27
1000
0001
0000
0000
,  // measure 28
2000
3000
0020
0030
,  // measure 29
0001
0001
0000
0000
,  // measure 30
2000
3000
0200
0300
,  // measure 31
0001
0001
0000
0000
,  // measure 32
0002
0003
0020
0030
,  // measure 33
1000
1000
0000
0000
,  // measure 34
0002
0003
0200
0300
,  // measure 35
1000
1000
0000
0000
,  // measure 36
0020
0030
2000
3000
,  // measure 37
0002
0003
0200
0300
,  // measure 38
0002
0003
0020
0030
,  // measure 39
0200
0000
0300
1000
,  // measure 40
0010
1000
0010
0100
,  // measure 41
0001
0100
0001
0010
,  // measure 42
0100
0010
0200
0000
,  // measure 43
0020
0000
0330
0000
,  // measure 44
2000
3000
0200
0300
,  // measure 45
0001
0001
0000
0000
,  // measure 46
2000
3000
0020
0030
,  // measure 47
0001
1000
0001
1000
,  // measure 48
0010
0000
0100
0000
,  // measure 49
0001
1000
0001
1000
,  // measure 50
0100
0000
0010
0000
,  // measure 51
1000
0001
0000
0000
,  // measure 52
1000
0100
0010
0001
,  // measure 53
0100
0010
1000
0100
,  // measure 54
0020
0030
0002
0003
,  // measure 55
2000
0002
3003
0000
,  // measure 56
1001
0000
0000
0000
;
