#TITLE:TELL IT TO MY HEART;
#SUBTITLE:(Ian Van Dahl Remix);
#ARTIST:KELLY LLORENNA;
#TITLETRANSLIT:;
#SUBTITLETRANSLIT:;
#ARTISTTRANSLIT:;
#GENRE:;
#CREDIT:;
#BANNER:TELL IT TO MY HEART (Ian Van Dahl Remix) - BN.png;
#BACKGROUND:TELL IT TO MY HEART (Ian Van Dahl Remix) - BG.png;
#LYRICSPATH:;
#CDTITLE:;
#MUSIC:TELL IT TO MY HEART (Ian Van Dahl Remix).ogg;
#OFFSET:-0.329000;
#SAMPLESTART:73.778412;
#SAMPLELENGTH:15.000000;
#SELECTABLE:YES;
#BPMS:0.000000=142.014008
;
#STOPS:
;
#BGCHANGES:7.750=TELL IT TO MY HEART (Ian Van Dahl Remix).avi=1.000=0=0=0=StretchNoLoop==CrossFade_Fastest==,
239.500=TELL IT TO MY HEART (Ian Van Dahl Remix) - BG.png=1.000=0=0=1===CrossFade_Fastest==,
99999=-nosongbg-=1.000=0=0=0 // don't automatically add -songbackground-
;
#KEYSOUNDS:;
#ATTACKS:;

//---------------dance-single - ----------------
#NOTES:
     dance-single:
     :
     Hard:
     7:
     0.462287,0.527007,0.490024,0.406812,0.013869,350.000000,297.000000,53.000000,44.000000,0.000000,0.000000,0.462287,0.527007,0.490024,0.406812,0.013869,350.000000,297.000000,53.000000,44.000000,0.000000,0.000000:
// measure 0
0000
0000
0000
0000
,  // measure 1
0000
0000
0000
0000
,  // measure 2
0000
0000
0000
0000
,  // measure 3
0000
0000
0000
0000
,  // measure 4
1001
0000
0001
0000
0100
0000
0010
1000
,  // measure 5
0000
0100
1000
0100
0000
0100
0010
0100
,  // measure 6
0000
0010
0001
1000
0001
0000
1000
0010
,  // measure 7
1000
0002
0000
0000
0003
0200
0000
0000
,  // measure 8
0300
0000
0001
0000
0010
0000
0100
1000
,  // measure 9
0000
0001
0010
0001
0000
0100
0001
0100
,  // measure 10
0000
0001
1000
0002
0000
0000
1000
1003
,  // measure 11
0000
2200
0000
0000
0000
0000
3300
0000
,  // measure 12
0010
0000
0000
1000
0000
0000
0001
0000
0100
0000
0000
0000
1001
0000
0000
0000
,  // measure 13
0010
0000
0000
0001
0000
0000
1000
0000
0100
0000
0000
0000
1001
0000
0000
0000
,  // measure 14
0000
0000
0001
0000
0000
1000
0000
0000
0100
0000
0000
0000
1000
0000
0001
0000
,  // measure 15
0000
2000
0000
0000
0000
3002
0000
0000
,  // measure 16
0003
0000
1000
0000
0010
0000
0100
0001
,  // measure 17
0000
1000
0100
1000
0000
0100
0010
0200
,  // measure 18
0000
0000
0000
0000
0000
0000
0000
0002
,  // measure 19
0000
0000
0000
0303
0100
1000
0010
0100
,  // measure 20
1001
1000
0100
0010
0000
0001
0100
0010
,  // measure 21
0100
0001
0010
0100
0000
0010
0001
0100
,  // measure 22
1001
0000
1001
0000
0110
0000
0001
0010
,  // measure 23
0100
0010
0001
0000
0100
0001
0010
0100
,  // measure 24
1001
1000
0010
0100
0000
0010
0100
0001
,  // measure 25
0101
0100
1100
1000
0000
0001
0100
0010
,  // measure 26
0120
0000
0130
0210
0000
0310
0120
0000
,  // measure 27
0130
2002
0000
0000
0000
0000
0000
3003
,  // measure 28
0100
0100
0010
1000
0000
0001
0010
0100
,  // measure 29
0010
0010
0001
1000
0000
0010
0100
0001
,  // measure 30
1002
0000
1003
2001
0000
3001
1002
0000
,  // measure 31
1003
2002
0000
3003
0011
0000
1010
0000
,  // measure 32
0101
0001
1000
0100
0000
1000
0001
0100
,  // measure 33
0011
0001
1010
1000
0000
0001
0010
0100
,  // measure 34
1200
0000
1300
2100
0000
3100
1200
0000
,  // measure 35
1300
2002
0000
0000
0000
0000
0000
3003
,  // measure 36
0100
1000
0100
0010
0000
0010
0001
1000
,  // measure 37
0001
0100
0010
0100
0000
0010
1000
0002
,  // measure 38
2000
0000
3000
0020
0000
0030
0200
0000
,  // measure 39
0300
0020
0000
0030
1000
0000
1003
0000
,  // measure 40
0001
0100
0001
0010
0000
0100
1000
0001
,  // measure 41
1000
0010
0100
0010
0000
0100
0010
2000
,  // measure 42
0002
0000
0003
0020
0000
0030
0200
0000
,  // measure 43
0300
0020
0000
3030
1000
0100
0010
0001
,  // measure 44
1001
0010
0100
1000
0000
1000
0010
0100
,  // measure 45
0010
1000
0100
0010
0000
0001
0100
0010
,  // measure 46
1001
0000
1001
0000
0110
0000
0001
0100
,  // measure 47
0010
0100
0001
0000
0100
0010
1000
0001
,  // measure 48
0110
1000
0100
0010
0000
0100
1000
0010
,  // measure 49
1010
1000
0011
0001
0000
1000
0100
0010
,  // measure 50
1002
0000
1003
2001
0000
3001
1002
0000
,  // measure 51
1003
0220
0000
0330
0001
1000
0010
0100
,  // measure 52
1001
0001
0010
0100
0000
1000
0001
0010
,  // measure 53
0001
1000
0010
1000
0000
0001
0010
0100
,  // measure 54
1100
0101
1001
1001
,  // measure 55
0110
0000
1001
0000
0001
1000
0010
0100
,  // measure 56
1001
1000
0001
0100
0000
0001
0010
0100
,  // measure 57
1100
0100
0101
0001
0000
1000
0001
0100
,  // measure 58
0210
0000
0310
0120
0000
0130
0210
0000
,  // measure 59
0310
2002
0000
0000
0000
0000
0000
0000
,  // measure 60
3003
0000
0000
0000
;

//---------------dance-single - ----------------
#NOTES:
     dance-single:
     :
     Medium:
     5:
     0.323601,0.416058,0.517761,0.157177,0.000000,245.000000,189.000000,56.000000,17.000000,0.000000,0.000000,0.323601,0.416058,0.517761,0.157177,0.000000,245.000000,189.000000,56.000000,17.000000,0.000000,0.000000:
0000
0000
0000
0000
,
0000
0000
0000
0000
,
0000
0000
0000
0000
,
0000
0000
0000
0000
,
0000
0000
0010
0000
0001
0000
0100
0001
,
0000
1000
0000
2000
0000
0000
3000
0000
,
0000
0000
0001
0000
1000
0000
0010
0100
,
0010
0110
0000
1001
,
0000
0000
0100
0000
1000
0000
0010
1000
,
0000
0000
1000
0200
0000
0000
0000
0300
,
0000
0010
0001
0020
0000
0000
0001
0001
,
0000
0002
0000
0000
0000
0000
0033
0000
,
0001
0000
0100
0010
0100
0000
0000
0000
,
0010
0000
1000
0100
2000
0000
0000
0000
,
3000
0000
0001
0010
0002
0000
1000
0000
,
1003
1001
0000
0110
,
0000
0001
0010
0001
,
0100
0000
0010
0000
1000
0000
0100
2000
,
0000
0000
0000
0000
0000
0000
0000
0020
,
0000
0000
3030
0000
0100
0010
0100
0000
,
0110
0000
0000
0000
0001
0010
0001
0000
,
0100
0001
0100
0000
0010
0000
0010
0000
,
1001
1001
0110
1001
,
0110
0000
0000
0000
0010
0100
0010
0000
,
0110
0000
0000
0000
1000
0010
1000
0000
,
0100
1000
0100
0000
0000
0000
0000
0000
,
1001
0000
0000
1001
0000
0000
1001
0000
,
0000
2002
0000
0000
0000
0000
3003
0000
,
0010
1000
0010
1000
0000
1000
0010
0000
,
0100
0001
0100
0001
0000
0001
0100
0000
,
0110
0000
0000
0110
0000
0000
0110
0000
,
0000
0110
0000
0000
1001
0000
1001
0000
,
0110
0000
0000
0000
0010
1000
0010
0000
,
1000
0100
1000
0000
0000
0000
0000
0000
,
1001
0000
0000
0110
0000
0000
1001
0000
,
0000
0110
0000
0000
0001
0010
0001
0010
,
0200
0000
0000
0300
,
0020
0000
0000
0030
,
0110
0000
0000
1001
0000
0000
0110
0000
,
0000
2001
0000
0000
0001
0000
3001
0000
,
0020
0000
0000
0030
,
0200
0000
0000
0300
,
0110
0000
0000
1001
0000
0000
0110
0000
,
0000
1001
0000
0000
0010
0100
0010
0000
,
0110
0000
0000
0000
1000
0100
1000
0000
,
0010
1000
0010
0000
0100
0000
0100
0000
,
1001
1001
0110
1001
,
0110
0000
0000
0000
0100
0010
0100
0000
,
0110
0000
0000
0000
0001
0100
0001
0000
,
0010
0001
0010
0000
0000
0000
0000
0000
,
1001
0000
0000
1001
0000
0000
1001
0000
,
0000
1001
0000
0000
0100
0010
0100
0000
,
0110
0000
0000
0000
0001
0010
0001
0000
,
0100
0001
0100
0000
0010
0000
0010
0000
,
1001
1001
0110
1001
,
0110
0000
0000
0000
0010
0100
0010
0000
,
0110
0000
0000
0000
1000
0010
1000
0000
,
0100
1000
0100
0000
0000
0000
0000
0000
,
1001
0000
0000
1001
0000
0000
1001
0000
,
0000
2002
0000
0000
0000
0000
0000
0000
,
3003
0000
0000
0000
;

//---------------dance-single - ----------------
#NOTES:
     dance-single:
     :
     Easy:
     3:
     0.210010,0.277372,0.286618,0.258881,0.000000,159.000000,128.000000,31.000000,28.000000,0.000000,0.000000,0.210010,0.277372,0.286618,0.258881,0.000000,159.000000,128.000000,31.000000,28.000000,0.000000,0.000000:
0000
0000
0000
0000
,
0000
0000
0000
0000
,
0000
0000
0000
0000
,
0000
0000
0000
0000
,
0000
1000
0100
0010
,
0002
0000
2003
0000
,
3000
0001
0010
0100
,
2000
0000
3002
0000
,
0003
1000
0010
0100
,
0002
0000
2003
0000
,
3000
0001
0100
0010
,
2000
0000
0000
3000
,
0001
0100
0001
0000
,
1000
0100
1000
0000
,
1001
0000
1001
0000
,
1001
0000
0000
0000
,
0000
0001
0100
0001
,
0200
0000
0320
0000
,
2030
0000
0000
0000
,
0002
3003
1000
0001
,
1001
0000
0001
0001
,
0100
0100
0010
1000
,
1001
0000
0110
0000
,
1001
0000
0001
1000
,
1001
0000
0010
0100
,
0010
0100
0000
0000
,
1001
0000
0110
0000
,
2002
0000
3003
0000
,
2000
0000
0000
0000
,
3002
0000
0000
0000
,
0203
0000
0320
0000
,
0230
0000
0301
1000
,
1001
0000
0100
0010
,
0100
0010
0000
0000
,
1001
0000
0110
0000
,
1001
0000
0001
0001
,
0002
0000
0000
0000
,
0023
0000
0000
0000
,
0230
0000
0000
2300
,
0000
0000
0001
3001
,
0200
0000
0000
0000
,
0320
0000
0000
0000
,
2030
0000
0000
3002
,
0000
0000
1000
1003
,
1001
0000
1000
1000
,
0010
0010
0100
0001
,
1001
0000
0110
0000
,
1001
0000
0010
0100
,
0110
0000
0001
1000
,
0001
1000
0000
0000
,
0110
0000
1001
0000
,
0110
0000
0001
1000
,
1001
0000
0100
0100
,
0010
0010
1000
0001
,
1001
0000
0110
0000
,
1001
0000
0100
0010
,
0110
0000
1000
0001
,
1000
0001
0000
0000
,
1001
0000
0110
0000
,
2002
0000
0000
0000
,
3003
0000
0000
0000
;
