#TITLE:TALKING TO YOURSELF;
#SUBTITLE:;
#ARTIST:CARLY RAE JEPSEN;
#TITLETRANSLIT:;
#SUBTITLETRANSLIT:;
#ARTISTTRANSLIT:;
#GENRE:;
#CREDIT:;
#BANNER:TALKING TO YOURSELF.png;
#BACKGROUND:TALKING TO YOURSELF-bg.png;
#LYRICSPATH:;
#CDTITLE:;
#MUSIC:TALKING TO YOURSELF.ogg;
#OFFSET:-3.976000;
#SAMPLESTART:34.439110;
#SAMPLELENGTH:12.000000;
#SELECTABLE:YES;
#BPMS:0.000000=124.000000
;
#STOPS:61.500000=0.484000,
94.500000=0.484000,
109.500000=0.484000,
156.500000=0.484000,
171.500000=0.484000
;
#BGCHANGES:-8.467=TALKING TO YOURSELF.avi=1.000=0=0=0=StretchNoLoop==CrossFade_Fastest==,
187.000=TALKING TO YOURSELF-bg.png=1.000=0=0=1===CrossFade_Faster==,
99999=-nosongbg-=1.000=0=0=0 // don't automatically add -songbackground-
;
#KEYSOUNDS:;
#ATTACKS:;

//---------------dance-single - ----------------
#NOTES:
     dance-single:
     :
     Hard:
     7:
     0.452982,0.452331,0.314048,0.172220,0.091175,313.000000,282.000000,31.000000,17.000000,0.000000,0.000000,0.452982,0.452331,0.314048,0.172220,0.091175,313.000000,282.000000,31.000000,17.000000,0.000000,0.000000:
0100
0000
0010
0001
0000
0001
1000
0000
,
0100
1000
0001
0000
0001
1000
0010
0000
,
0100
0000
0010
1000
0000
1000
0001
0010
,
0000
0010
0001
0000
0001
1000
0010
0100
,
0010
2000
0000
3001
0000
1000
0100
0010
,
0000
0001
0010
0100
1000
0001
1000
0010
,
0100
0002
0000
0100
0000
1003
0200
0010
,
0000
1000
0000
0301
0000
1000
0100
0010
,
0001
0000
0010
0100
1000
0000
0001
0000
1000
0000
0020
0000
0000
0000
0030
0000
,
1000
0000
0010
0100
0001
0000
1000
0000
0001
0000
0020
0000
0000
0000
0030
0000
,
0001
0000
0100
0010
1000
0000
0001
0000
1000
0000
0100
0000
0000
0100
0010
0000
,
0001
0000
0001
1000
0000
1000
0010
0100
,
0001
0000
0010
0100
1000
0000
0001
0000
1000
0000
0020
0000
0000
0000
0030
0000
,
1000
0000
0010
0100
0001
0000
1000
0000
0001
0000
0010
0000
0000
0010
0100
0000
,
1000
0000
1000
0001
0000
0001
0100
0010
,
0000
0010
1000
0000
0000
0000
1100
0000
0100
0000
0010
0000
0001
0000
0001
0000
,
1000
0010
0000
0010
1000
0200
0000
0310
,
0001
1000
0001
0000
0001
0010
0110
0000
,
1100
0100
0000
0100
1000
0020
0000
0130
,
0010
1000
0002
0000
0013
0100
1000
1000
,
0001
0010
0000
0010
0001
0200
0000
0310
,
1000
0001
1000
0000
1000
0010
0110
0000
,
0101
0000
1001
0000
1000
0000
1100
0100
,
1000
0001
0000
0001
0100
0010
1010
0000
,
1000
0000
1001
0000
1000
0100
0010
0001
,
0000
0001
0100
0010
1010
0000
0101
0000
,
1001
0000
1000
0000
1100
0100
1000
0010
,
0000
0010
0100
0001
0010
0001
0000
0001
,
1000
0000
1000
0100
0000
0100
1000
0010
,
0200
0000
0000
0301
0010
0001
0100
0001
0100
0010
0100
0010
,
1000
0100
0010
0002
0000
0000
0000
0000
0000
2000
0000
0000
,
0000
3003
0000
0000
,
0000
0000
0000
0000
0000
0000
0010
0000
0000
1000
0000
0000
0001
0000
0000
0100
,
0000
0000
0110
0000
0101
0100
0000
0100
,
0001
0020
0000
0130
0010
0001
2000
0000
,
3010
0100
0001
0001
1000
0010
0000
0010
,
1000
0200
0000
0310
0001
1000
0001
0000
,
0001
0010
0110
0000
1100
0000
1001
0000
,
0001
0000
0101
0100
0001
1000
0000
1000
,
0100
0010
0011
0001
0000
0001
1001
0000
,
0010
1000
0001
0010
0000
0010
0100
1000
,
1010
0101
1001
1000
,
1100
0100
1000
0001
0000
0001
0100
0010
,
1010
1000
0000
1000
1001
0000
0010
0001
,
1000
0010
0000
0010
0100
0001
0011
0000
,
1100
0000
1001
0000
0001
0000
0101
0100
,
0001
1000
0000
1000
0100
0010
0002
0000
,
0003
0000
0000
0000
;

//---------------dance-single - ----------------
#NOTES:
     dance-single:
     :
     Medium:
     5:
     0.367595,0.357103,0.263395,0.101306,0.000000,254.000000,228.000000,26.000000,10.000000,0.000000,0.000000,0.367595,0.357103,0.263395,0.101306,0.000000,254.000000,228.000000,26.000000,10.000000,0.000000,0.000000:
// measure 0
0001
0010
0100
0000
,  // measure 1
1000
0000
0001
0000
0100
0010
0100
0000
,  // measure 2
0010
1000
0200
0000
0300
0000
0010
0001
,  // measure 3
0000
0000
1001
0000
0100
1000
0100
0000
,  // measure 4
0010
0100
0020
0000
0030
0000
0001
0000
,  // measure 5
0000
0000
1000
0000
0100
1000
0010
0000
,  // measure 6
0010
0100
0001
0000
0000
0000
0010
0001
,  // measure 7
0000
1000
0000
0001
0000
0100
0000
0000
,  // measure 8
0001
0100
0001
0100
0010
0100
0000
0000
,  // measure 9
1000
0100
1000
0100
0010
0100
0000
0000
,  // measure 10
0001
1000
0001
1000
0010
0200
0000
0000
,  // measure 11
0300
0000
0100
0000
0001
0010
0100
0000
,  // measure 12
1000
0010
1000
0010
0100
0010
0000
0000
,  // measure 13
0001
0010
0001
0010
0100
0020
0000
0000
,  // measure 14
0030
0000
1001
0000
0000
1000
0010
0100
,  // measure 15
0000
0001
0000
1000
0001
0010
0001
1000
,  // measure 16
0100
1000
0000
1000
0010
0100
0000
0100
,  // measure 17
0010
1000
0001
0000
0010
0000
0011
0000
,  // measure 18
1001
0000
1100
0000
1000
0000
0001
0010
,  // measure 19
0100
1000
0001
0000
1000
0010
1000
0001
,  // measure 20
0100
0001
0000
0001
0010
0100
0000
0100
,  // measure 21
0010
0001
1000
0000
0010
0000
1010
0000
,  // measure 22
1001
0101
0100
0010
,  // measure 23
1000
0000
0001
0010
0100
1000
1001
0000
,  // measure 24
0100
0000
1001
0000
0001
0100
0001
0000
,  // measure 25
1000
0100
0010
0001
1000
0000
0001
0000
,  // measure 26
1001
0010
1001
0100
,  // measure 27
0001
0010
0100
1000
0010
1000
0000
1000
,  // measure 28
0001
0000
0001
0010
0000
0100
0000
0100
,  // measure 29
1000
2000
0000
3002
,  // measure 30
0000
0023
0000
0000
,  // measure 31
0000
0030
0000
0000
,  // measure 32
0000
0000
0000
0002
0000
0000
2000
0000
,  // measure 33
3003
1100
1001
0011
,  // measure 34
0001
0000
1000
0100
0010
0001
1000
0000
,  // measure 35
0001
0100
0001
1000
0010
1000
0000
1000
,  // measure 36
0100
0010
0000
0010
0100
1000
0001
0000
,  // measure 37
0100
0101
1001
1010
,  // measure 38
0010
0000
0100
0000
0001
0000
1000
0100
,  // measure 39
0010
0001
1001
0000
0010
0000
1001
0000
,  // measure 40
1000
0010
1000
0000
0001
0010
0100
1000
,  // measure 41
0001
1000
1001
0100
,  // measure 42
1001
0000
0010
0000
1000
0100
0010
0001
,  // measure 43
1001
0000
0100
0000
1001
0000
0001
0100
,  // measure 44
0001
0000
1000
0100
0010
0001
1000
0000
,  // measure 45
0001
1001
0010
1001
,  // measure 46
0100
0000
0001
0010
0100
1000
0002
0000
,  // measure 47
0003
0000
0000
0000
;

//---------------dance-single - ----------------
#NOTES:
     dance-single:
     :
     Easy:
     2:
     0.179456,0.214262,0.141828,0.091175,0.000000,124.000000,110.000000,14.000000,9.000000,0.000000,0.000000,0.179456,0.214262,0.141828,0.091175,0.000000,124.000000,110.000000,14.000000,9.000000,0.000000,0.000000:
1000
0000
0010
0000
,
0000
0100
0010
0100
,
0002
0000
0003
1000
,
0000
0001
0010
0100
,
2000
0000
3000
0100
,
0000
0100
0010
0100
,
2000
0000
3000
0000
,
0100
0100
0100
0000
,
1001
0000
0100
0000
,
1001
0000
0100
0000
,
1001
0000
0020
0000
,
0030
0000
0000
0000
,
1001
0000
0010
0000
,
1001
0000
0020
0000
,
0030
0000
0000
0010
,
0001
0100
0000
0100
,
0001
0010
0000
0100
,
0000
0010
0000
0010
,
0001
0100
0000
0010
,
0000
1001
0000
0100
,
1000
0010
0000
0100
,
0000
0010
0000
0010
,
1000
0100
0000
0000
,
0010
0010
0000
1001
,
0000
1001
0000
0010
,
0001
0100
0010
1000
,
0100
0000
1000
0000
,
0001
0001
0001
0000
,
0001
0010
0000
0010
,
0100
1000
0000
0010
,
0000
0200
0000
0000
,
0300
0000
0000
0000
,
0000
0000
0000
2002
0000
0000
0000
0000
,
3003
0010
1000
0100
,
0000
0010
0000
1001
,
0000
0100
0001
0010
,
0000
0100
0000
0010
,
0000
0010
0001
0100
,
0000
0000
0010
0010
,
0000
1001
0000
1001
,
0000
0010
1000
0100
,
0010
0001
0100
0000
,
0100
0000
0010
1000
,
1001
0000
1001
0000
,
0010
0001
0100
0010
,
1000
0100
0000
0100
,
0000
0010
0001
2000
,
3000
0000
0000
0000
;
