#VERSION:0.83;
#TITLE:SUMMERLOVE;
#SUBTITLE:(Scorccio Hot Mix);
#ARTIST:S-CONNECTION featuring ANABELLE;
#TITLETRANSLIT:;
#SUBTITLETRANSLIT:;
#ARTISTTRANSLIT:;
#GENRE:;
#ORIGIN:;
#CREDIT:;
#BANNER:SUMMERLOVE (Scorccio Hot Mix).png;
#BACKGROUND:SUMMERLOVE (Scorccio Hot Mix) - bg.png;
#PREVIEWVID:;
#JACKET:SUMMERLOVE (Scorccio Hot Mix) - jacket.png;
#CDIMAGE:;
#DISCIMAGE:;
#LYRICSPATH:;
#CDTITLE:;
#MUSIC:SUMMERLOVE (Scorccio Hot Mix).ogg;
#OFFSET:-0.556000;
#SAMPLESTART:43.193016;
#SAMPLELENGTH:12.000000;
#SELECTABLE:YES;
#BPMS:0.000=132.000;
#STOPS:;
#DELAYS:;
#WARPS:;
#TIMESIGNATURES:0.000=4=4;
#TICKCOUNTS:0.000=4;
#COMBOS:0.000=1;
#SPEEDS:0.000=1.000=0.000=0;
#SCROLLS:0.000=1.000;
#FAKES:;
#LABELS:0.000=Song Start;
#BGCHANGES:15.750=SUMMERLOVE (Scorccio Hot Mix).avi=1.000=1=0=1===CrossFade==,
237.000=SUMMERLOVE (Scorccio Hot Mix) - bg.png=1.000=1=0=1===CrossFade==,
99999=-nosongbg-=1.000=0=0=0 // don't automatically add -songbackground-
;
#KEYSOUNDS:;
#ATTACKS:
;

//---------------dance-single - ----------------
#NOTEDATA:;
#CHARTNAME:;
#STEPSTYPE:dance-single;
#DESCRIPTION:;
#CHARTSTYLE:;
#DIFFICULTY:Hard;
#METER:9;
#RADARVALUES:0.545679,0.618751,0.255750,0.247500,0.424875,463.000000,432.000000,31.000000,30.000000,0.000000,0.000000,0.000000,0.000000,0.000000,0.545679,0.618751,0.255750,0.247500,0.424875,463.000000,432.000000,31.000000,30.000000,0.000000,0.000000,0.000000,0.000000,0.000000;
#CREDIT:Alchemy Jones;
#NOTES:
0000
0000
0000
0000
,
0000
0000
0000
0000
,
0000
0000
0000
0000
,
0000
0000
0000
0000
,
0001
0010
0001
0100
0000
0010
0000
2000
0000
0000
3001
0000
0000
0000
0000
0000
,
1000
0010
1000
0100
0000
0010
0000
0002
0000
0000
0100
0000
0103
0000
0000
0000
,
0100
0010
0100
0001
0000
1000
0000
0100
0000
0000
0010
0000
0100
0000
1000
0010
,
0100
0000
0000
0100
0001
0000
0000
0001
1000
0000
0000
1000
0100
0000
0000
0100
,
1000
0010
1000
0100
0000
0010
0000
0002
0000
0000
1003
0000
0000
0000
0000
0000
,
0001
0010
0001
0100
0000
0010
0000
2000
0000
0000
0100
0000
3100
0000
0000
0000
,
0100
0010
0100
1000
0000
0001
0000
0100
0000
0000
0001
0000
0010
0000
0100
0000
,
1100
0011
0101
1010
,
0100
0000
1000
0000
0010
0100
0010
0000
1000
0000
0100
0000
0010
0000
1000
0000
,
0010
0100
1000
0010
0100
1000
0100
0010
,
0100
0000
0001
0000
0010
0100
0010
0000
0001
0000
0100
0000
0010
0000
0001
0000
,
0010
0100
0001
0010
0100
0001
0100
0010
,
0100
0000
1000
0000
0010
0100
0010
0000
1000
0000
0100
0000
0010
0000
1000
0000
,
0010
0100
1000
0010
0100
1000
0100
0010
,
0100
0000
0001
0000
0010
0100
0010
0000
0001
0000
0100
0000
0010
0000
0001
0000
,
0010
0100
0001
0010
2001
3100
1002
0103
,
2002
0000
3003
0000
0100
1000
0010
0100
,
0001
0010
0001
0000
1000
1000
0001
0001
,
0100
0000
1001
0000
0001
0010
0100
0010
,
0001
0100
0010
1000
1002
0103
2001
3100
,
2002
0000
3003
0000
0010
0001
0100
0010
,
1000
0100
1000
0000
0001
0001
1000
1000
,
0100
0000
1001
0000
1000
0010
0100
0010
,
1000
0000
0000
1000
0010
0000
0000
0010
0100
0000
0000
0100
0001
0000
0000
0001
,
1000
0010
1000
0100
0000
0010
0000
0002
0000
0000
1003
0000
0000
0000
0000
0000
,
0001
0010
0001
0100
0000
0010
0000
2000
0000
0000
0100
0000
3100
0000
0000
0000
,
0100
0010
0100
1000
0000
0001
0000
0100
0000
0000
0010
0000
0100
0000
0001
0010
,
0100
0000
0000
0100
1000
0000
0000
1000
0001
0000
0000
0001
0100
0000
0000
0100
,
0001
0010
0001
0100
0000
0010
0000
2000
0000
0000
3001
0000
0000
0000
0000
0000
,
1000
0010
1000
0100
0000
0010
0000
0002
0000
0000
0100
0000
0103
0000
0000
0000
,
0100
0010
0100
0001
0000
1000
0000
0100
0000
0000
1000
0000
0010
0000
0100
0000
,
0101
1010
1100
0011
,
0100
0000
0001
0000
0010
0100
0010
0000
0001
0000
0100
0000
0010
0000
0001
0000
,
0010
0100
0001
0010
0100
0001
0100
0010
,
0100
0000
1000
0000
0010
0100
0010
0000
1000
0000
0100
0000
0010
0000
1000
0000
,
0010
0100
1000
0010
0100
1000
0100
0010
,
0100
0000
0001
0000
0010
0100
0010
0000
0001
0000
0100
0000
0010
0000
0001
0000
,
0010
0100
0001
0010
0100
0001
0100
0010
,
0100
0000
1000
0000
0010
0100
0010
0000
1000
0000
0100
0000
0010
0000
1000
0000
,
0010
0100
1000
0010
1002
0103
2001
3100
,
2002
0000
3003
0000
0010
0001
0100
0010
,
1000
0100
1000
0000
0001
0001
1000
1000
,
0100
0000
1001
0000
1000
0100
0010
0100
,
1000
0010
0100
0001
2001
3100
1002
0103
,
2002
0000
3003
0000
0100
1000
0010
0100
,
0001
0010
0001
0000
1000
1000
0001
0001
,
0100
0000
1001
0000
1000
0100
0010
0001
,
0101
1010
1100
0011
,
1000
0010
1000
0100
0000
0010
0000
0002
0000
0000
1003
0000
0000
0000
0000
0000
,
0001
0010
0001
0100
0000
0010
0000
2000
0000
0000
0100
0000
3100
0000
0000
0000
,
0100
0010
0100
1000
0000
0001
0000
0100
0000
0000
0010
0000
0100
0000
0001
0100
,
0001
0010
0001
0000
1000
0100
1000
0000
0010
1000
0010
1000
0001
0100
0001
0100
,
0001
0010
0001
1000
0000
0010
0000
2000
0000
0000
3001
0000
0000
0000
0000
0000
,
1000
0010
1000
0100
0000
0010
0000
0002
0000
0000
0100
0000
0103
0000
0000
0000
,
0100
0010
0100
0001
0000
1000
0000
0100
0000
0000
1000
0000
0010
0000
1000
0100
,
1000
0000
0001
0100
0001
0000
1000
0000
2001
0000
3100
0000
1002
0000
0103
0000
,
1001
0000
0000
0000
;

//---------------dance-single - ----------------
#NOTEDATA:;
#CHARTNAME:;
#STEPSTYPE:dance-single;
#DESCRIPTION:;
#CHARTSTYLE:;
#DIFFICULTY:Medium;
#METER:6;
#RADARVALUES:0.400715,0.420750,0.470250,0.148500,0.000000,340.000000,283.000000,57.000000,18.000000,0.000000,0.000000,0.000000,0.000000,0.000000,0.400715,0.420750,0.470250,0.148500,0.000000,340.000000,283.000000,57.000000,18.000000,0.000000,0.000000,0.000000,0.000000,0.000000;
#CREDIT:Alchemy Jones;
#NOTES:
0000
0000
0000
0000
,
0000
0000
0000
0000
,
0000
0000
0000
0000
,
0000
0000
0000
0000
,
1000
0001
1000
0010
0200
0000
0300
0000
,
0001
1000
0001
0010
0200
0000
0300
0000
,
1000
0010
0100
0001
0020
0000
0130
0000
,
1001
0110
1001
0110
,
0001
1000
0001
0010
0200
0000
0300
0000
,
1000
0001
1000
0010
0200
0000
0300
0000
,
0001
0010
0100
1000
0020
0000
0130
0000
,
1001
0110
1001
0110
,
0001
0000
1000
0000
0100
0010
0001
0000
,
1000
0000
0001
0000
0100
0010
1000
0000
,
0001
0000
1000
0000
0010
0100
0001
0000
,
1000
0000
0001
0000
0010
0100
1000
0000
,
0001
0000
1000
0000
0100
0010
0001
0000
,
1000
0000
0001
0000
0100
0010
1000
0000
,
0001
0000
1000
0000
0010
0100
0001
0000
,
1000
0001
1100
0011
,
1001
0000
0000
0000
0001
0010
0100
1000
,
0100
0010
0001
0000
1010
0000
0101
0000
,
1001
0000
0110
0000
1000
0100
0010
0001
,
0010
0100
1000
0000
0101
0000
1010
0000
,
1001
0000
0000
0000
1000
0010
0100
0001
,
0100
0010
1000
0000
0011
0000
1100
0000
,
1001
0000
0110
0000
0001
0100
0010
1000
,
0010
0100
0001
0000
1001
0000
0110
0000
,
0001
1000
0001
0100
0020
0000
0030
0000
,
1000
0001
1000
0100
0020
0000
0030
0000
,
0001
0100
0010
1000
0200
0000
0310
0000
,
1001
0110
1001
0110
,
1000
0001
1000
0100
0020
0000
0030
0000
,
0001
1000
0001
0100
0020
0000
0030
0000
,
1000
0100
0010
0001
0200
0000
0310
0000
,
1001
0110
1001
0110
,
1000
0000
0001
0000
0010
0100
1000
0000
,
0001
0000
1000
0000
0010
0100
0001
0000
,
1000
0000
0001
0000
0100
0010
1000
0000
,
0001
0000
1000
0000
0100
0010
0001
0000
,
1000
0000
0001
0000
0010
0100
1000
0000
,
0001
0000
1000
0000
0010
0100
0001
0000
,
1000
0000
0001
0000
0100
0010
1000
0000
,
0001
1000
0011
1100
,
1001
0000
0000
0000
1000
0100
0010
0001
,
0010
0100
1000
0000
0101
0000
1010
0000
,
1001
0000
0110
0000
0001
0010
0100
1000
,
0100
0010
0001
0000
1010
0000
0101
0000
,
1001
0000
0000
0000
0001
0100
0010
1000
,
0010
0100
0001
0000
1100
0000
0011
0000
,
1001
0000
0110
0000
1000
0010
0100
0001
,
0100
0010
1000
0000
1001
0000
0110
0000
,
0001
1000
0001
0100
0020
0000
0030
0000
,
1000
0001
1000
0100
0020
0000
0030
0000
,
0001
0100
0010
1000
0200
0000
0310
0000
,
1001
0110
1001
0110
,
1000
0001
1000
0100
0020
0000
0030
0000
,
0001
1000
0001
0100
0020
0000
0030
0000
,
1000
0100
0010
0001
0200
0000
0310
0000
,
1001
0110
0101
1010
,
1001
0000
0000
0000
;

//---------------dance-single - ----------------
#NOTEDATA:;
#CHARTNAME:;
#STEPSTYPE:dance-single;
#DESCRIPTION:;
#CHARTSTYLE:;
#DIFFICULTY:Easy;
#METER:3;
#RADARVALUES:0.205072,0.247500,0.041250,0.148500,0.000000,174.000000,169.000000,5.000000,18.000000,0.000000,0.000000,0.000000,0.000000,0.000000,0.205072,0.247500,0.041250,0.148500,0.000000,174.000000,169.000000,5.000000,18.000000,0.000000,0.000000,0.000000,0.000000,0.000000;
#CREDIT:Alchemy Jones;
#NOTES:
// measure 0
0000
0000
0000
0000
,  // measure 1
0000
0000
0000
0000
,  // measure 2
0000
0000
0000
0000
,  // measure 3
0000
0000
0000
0000
,  // measure 4
0020
0000
0031
0000
,  // measure 5
0200
0000
0310
0000
,  // measure 6
0002
0000
0103
0000
,  // measure 7
1000
0100
0010
1000
,  // measure 8
0200
0000
0310
0000
,  // measure 9
2000
0000
3100
0000
,  // measure 10
0020
0000
1030
0000
,  // measure 11
0100
0001
0010
0100
,  // measure 12
0001
0010
1000
1000
,  // measure 13
0100
0001
0010
0010
,  // measure 14
0001
0100
1000
1000
,  // measure 15
0010
0001
0100
0100
,  // measure 16
1000
0100
0001
0001
,  // measure 17
0010
1000
0100
0100
,  // measure 18
1000
0010
0001
0001
,  // measure 19
0100
1000
0010
0001
,  // measure 20
1001
0000
0010
1000
,  // measure 21
0100
0000
0100
0001
,  // measure 22
0010
0000
0100
0000
,  // measure 23
0010
0000
0001
1000
,  // measure 24
1001
0000
0010
0001
,  // measure 25
0100
0000
0100
1000
,  // measure 26
0010
0000
0100
0000
,  // measure 27
0010
0000
0001
1000
,  // measure 28
0020
0000
1030
0000
,  // measure 29
0200
0000
0310
0000
,  // measure 30
2000
0000
3100
0000
,  // measure 31
0001
0100
0010
0001
,  // measure 32
0200
0000
0310
0000
,  // measure 33
0002
0000
0103
0000
,  // measure 34
0020
0000
0031
0000
,  // measure 35
0100
1000
0010
0100
,  // measure 36
1000
0010
0001
0001
,  // measure 37
0100
1000
0010
0010
,  // measure 38
1000
0100
0001
0001
,  // measure 39
0010
1000
0100
0100
,  // measure 40
0001
0100
1000
1000
,  // measure 41
0010
0001
0100
0100
,  // measure 42
0001
0010
1000
1000
,  // measure 43
0100
0001
0010
1000
,  // measure 44
1001
0000
0010
0001
,  // measure 45
0100
0000
0100
1000
,  // measure 46
0010
0000
0100
0000
,  // measure 47
0010
0000
1000
0001
,  // measure 48
1001
0000
0010
1000
,  // measure 49
0100
0000
0100
0001
,  // measure 50
0010
0000
0100
0000
,  // measure 51
0010
0000
1000
0001
,  // measure 52
0200
0000
1300
0000
,  // measure 53
0020
0000
0130
0000
,  // measure 54
2000
0000
3010
0000
,  // measure 55
0001
0010
0100
0001
,  // measure 56
0020
0000
0130
0000
,  // measure 57
0002
0000
0013
0000
,  // measure 58
0200
0000
0301
0000
,  // measure 59
0010
1000
0100
0010
,  // measure 60
0110
0000
0000
0000
;
