#TITLE:SOMETHING ABOUT YOUR LOVE;
#SUBTITLE:;
#ARTIST:SG LEWIS;
#TITLETRANSLIT:;
#SUBTITLETRANSLIT:;
#ARTISTTRANSLIT:;
#GENRE:;
#CREDIT:;
#BANNER:SOMETHING ABOUT YOUR LOVE.png;
#BACKGROUND:SOMETHING ABOUT YOUR LOVE-bg.png;
#LYRICSPATH:;
#CDTITLE:;
#MUSIC:SOMETHING ABOUT YOUR LOVE.ogg;
#OFFSET:-0.049000;
#SAMPLESTART:51.185825;
#SAMPLELENGTH:12.000000;
#SELECTABLE:YES;
#BPMS:0.000000=122.000000
;
#STOPS:102.000000=0.246000,
102.500000=0.246000
;
#BGCHANGES:-0.100=SOMETHING ABOUT YOUR LOVE.avi=1.000=1=0=1===CrossFade==,
199.000=SOMETHING ABOUT YOUR LOVE-bg.png=1.000=1=0=1===CrossFade==,
99999=-nosongbg-=1.000=0=0=0 // don't automatically add -songbackground-
;
#KEYSOUNDS:;
#ATTACKS:;

//---------------dance-single - ----------------
#NOTES:
     dance-single:
     :
     Hard:
     6:
     0.362406,0.407396,0.116191,0.522861,0.000000,262.000000,250.000000,12.000000,54.000000,0.000000,0.000000,0.362406,0.407396,0.116191,0.522861,0.000000,262.000000,250.000000,12.000000,54.000000,0.000000,0.000000:
0000
0000
0000
0000
,
0000
0000
0000
0000
,
2000
0000
3010
0100
0002
0000
0103
0010
,
2000
0001
0010
3100
,
0002
0000
0013
0100
2000
0000
3100
0010
,
0002
1000
0100
0013
,
0200
0000
0310
0001
2000
0000
3001
0010
,
0200
0010
0001
1300
,
0020
0000
0130
0001
2000
0000
3001
0100
,
0020
0100
0001
2030
,
3100
0010
0101
1000
,
0010
1000
0100
0000
0010
1000
0100
0000
,
0010
0101
0010
1100
,
0010
0001
0100
0000
0010
0001
0100
0000
,
0010
1000
0001
0000
0011
0000
0001
1000
,
0100
0000
0001
1000
0100
0000
0012
0000
,
2003
0000
3001
0000
1100
0000
0010
0001
,
1000
0000
0010
0001
1000
0000
0102
0000
,
0103
1200
2300
0000
,
0020
3000
0002
0030
,
0200
0000
0003
0000
0000
0000
1300
0010
,
0100
0001
0010
0100
1000
0000
2100
0000
,
3100
0201
0302
0000
,
0020
0003
2000
0030
,
0200
3000
0001
0010
,
0001
0000
1300
0000
0110
1001
1000
0010
,
0100
0010
2000
0000
3001
0100
0010
1000
,
0010
0200
1000
0000
0301
0010
0200
0000
,
0310
0001
1000
0000
0001
0010
0100
1000
,
0100
0020
0001
0000
1030
0000
0001
0010
,
0100
0010
0002
0000
1003
0100
0010
0001
,
0010
0200
0001
0000
1300
0010
0200
0000
,
0310
1000
0002
0000
1003
0010
0100
0001
,
0100
0020
1000
0000
0031
0000
1000
0100
,
0010
0001
0200
0000
1000
0000
0302
0000
,
0010
2003
0001
3200
,
1000
0320
0001
0130
,
1000
0002
0010
0000
0100
0000
1003
0000
,
0010
1000
0200
0000
0001
0000
2300
0000
,
0010
3002
1000
0203
,
0001
0320
1000
0130
,
0001
2000
0010
0000
0001
0000
3100
1000
,
0010
1000
0200
0000
0310
0100
1000
0010
,
0100
0002
0010
0000
0103
0010
0100
0001
,
0010
0001
1000
0000
0010
0100
0001
0100
,
0010
2000
0001
0000
3100
0000
0010
0001
,
0100
0001
0020
0000
0130
0010
0001
0100
,
0010
2000
0100
0000
3010
0100
0010
1000
,
0100
1000
0001
0000
0010
0100
1000
0100
,
0010
0002
1000
0000
0103
0000
0000
0000
;

//---------------dance-single - ----------------
#NOTES:
     dance-single:
     :
     Medium:
     4:
     0.260047,0.311538,0.116191,0.445400,0.000000,188.000000,176.000000,12.000000,46.000000,0.000000,0.000000,0.260047,0.311538,0.116191,0.445400,0.000000,188.000000,176.000000,12.000000,46.000000,0.000000,0.000000:
0000
0000
0000
0000
,
0000
0000
0000
0000
,
1001
0000
0002
0000
,
0023
0000
0230
0000
,
2300
0000
3000
0010
,
1000
0100
1001
0110
,
1001
0000
2000
0000
,
3020
0000
0230
0000
,
0302
0000
0003
0010
,
0001
0100
1001
0110
,
2000
0000
0000
0000
3000
0001
0000
0010
,
0000
0100
1000
0001
0000
0000
0000
0000
,
0002
0000
0000
0000
0000
1003
0000
0010
,
0000
0100
0001
1000
0000
0010
0000
0200
,
0000
0000
0300
0000
0000
0010
1000
0002
,
0000
0000
0000
0003
0000
0010
0001
1000
,
0000
0000
0000
0000
0000
0010
0100
0001
,
0000
0010
0100
2000
0000
3010
0000
0002
,
0000
0013
0000
0000
0002
0000
0000
0000
,
0023
0000
0230
0000
,
2300
0000
0000
0000
3000
0100
0010
0001
,
0000
0010
0100
1000
0000
0001
0000
2002
,
0000
3003
2000
0000
,
3020
0000
0230
0000
,
0302
0000
2003
3100
,
0002
0000
0103
0000
1001
0110
0002
0000
,
0000
0013
0000
0100
1000
0001
0000
1000
,
0010
0200
0000
0300
0001
0100
0010
0000
,
0100
0001
1000
0000
0001
0000
1000
0010
,
0100
0002
0000
0000
0103
0000
2000
0000
,
0000
3010
0000
0100
0001
1000
0000
0001
,
0010
0200
0000
0300
1000
0100
0010
0000
,
0100
1000
0001
0000
1000
0000
0001
0010
,
0100
2000
0000
0000
3100
0000
1000
0100
,
0010
0001
2000
0000
0000
0000
3020
0000
,
0000
0230
0000
0302
,
0000
1003
0010
1000
,
0100
0001
0010
1001
,
0000
0002
0000
0023
,
0000
0230
0000
2300
,
0000
3001
0010
0001
,
0100
0110
1001
2000
,
0000
3100
0000
0010
0001
1000
0000
0001
,
0100
0020
0000
0030
1000
0010
0100
0000
,
0010
1000
0001
0000
1000
0000
0001
0100
,
0010
2000
0000
0000
3100
0000
0002
0000
,
0000
0103
0000
0010
1000
0001
0000
1000
,
0100
0020
0000
0030
0001
0010
0100
0000
,
0010
0001
1000
0000
0001
0000
1000
0100
,
0010
0002
0000
0000
0103
0000
0000
0000
;

//---------------dance-single - ----------------
#NOTES:
     dance-single:
     :
     Easy:
     2:
     0.188119,0.287573,0.038730,0.377622,0.000000,136.000000,132.000000,4.000000,39.000000,0.000000,0.000000,0.188119,0.287573,0.038730,0.377622,0.000000,136.000000,132.000000,4.000000,39.000000,0.000000,0.000000:
// measure 0
0000
0000
0000
0000
,  // measure 1
0000
0000
0000
0000
,  // measure 2
1001
0000
0020
0030
,  // measure 3
0002
0003
0200
0300
,  // measure 4
2000
3000
0010
0000
,  // measure 5
0100
0000
0010
0000
,  // measure 6
0200
0300
2000
3000
,  // measure 7
0020
0030
0002
0003
,  // measure 8
0100
0000
0010
0000
,  // measure 9
0100
0000
0010
0010
,  // measure 10
0100
0000
1000
0000
,  // measure 11
0001
0000
0200
0300
,  // measure 12
0001
0000
1000
0000
,  // measure 13
0100
1000
0001
0100
,  // measure 14
0020
0030
0000
1000
,  // measure 15
2000
0000
3000
0001
,  // measure 16
0002
0003
0000
0001
,  // measure 17
0100
0010
0001
0100
,  // measure 18
0020
0030
0200
0300
,  // measure 19
2000
3000
0020
0030
,  // measure 20
0002
0003
0000
0100
,  // measure 21
1000
0001
0100
0010
,  // measure 22
0200
0300
0002
0003
,  // measure 23
0020
0030
2000
3000
,  // measure 24
0100
0001
1000
0100
,  // measure 25
0010
0000
0100
0000
1000
1000
1000
0000
,  // measure 26
0010
0100
0001
1000
,  // measure 27
0000
0200
0300
0010
,  // measure 28
0001
1000
0000
1000
,  // measure 29
0100
0020
0031
0001
,  // measure 30
0010
0100
1000
0001
,  // measure 31
0000
0200
0300
0010
,  // measure 32
1000
0001
0000
0001
,  // measure 33
0100
0020
1030
2000
,  // measure 34
3000
0200
0300
2000
,  // measure 35
3000
0020
0030
0002
,  // measure 36
0003
0100
1000
0001
,  // measure 37
0100
0001
0001
0002
,  // measure 38
0003
0200
0300
0002
,  // measure 39
0003
0020
0030
2000
,  // measure 40
3000
0100
0001
1000
,  // measure 41
0100
1000
1000
1001
,  // measure 42
0110
1001
1000
0001
,  // measure 43
0000
0020
0030
0100
,  // measure 44
1000
0001
0000
0001
,  // measure 45
0010
0200
1300
1000
,  // measure 46
0100
0010
0001
1000
,  // measure 47
0000
0020
0030
0100
,  // measure 48
0001
1000
0000
1000
,  // measure 49
0010
0200
0300
0000
;
