#TITLE:SOMEONE TO CALL MY LOVER;
#SUBTITLE:(Hex Hector/Mac Quayle Club Mix);
#ARTIST:JANET JACKSON;
#TITLETRANSLIT:;
#SUBTITLETRANSLIT:;
#ARTISTTRANSLIT:;
#GENRE:;
#CREDIT:;
#BANNER:Someone To Call My Lover (Hex Hector Mac Quayle Club Mix).png;
#BACKGROUND:Someone To Call My Lover (Hex Hector Mac Quayle Club Mix) - bg.png;
#LYRICSPATH:;
#CDTITLE:;
#MUSIC:Someone To Call My Lover (Hex Hector Mac Quayle Club Mix).ogg;
#OFFSET:-0.511000;
#SAMPLESTART:38.000458;
#SAMPLELENGTH:15.000000;
#SELECTABLE:YES;
#BPMS:0.000000=127.905991
;
#STOPS:
;
#BGCHANGES:16.000=Someone To Call My Lover (Hex Hector Mac Quayle Club Mix).avi=1.000=1=0=0=StretchNoLoop==CrossFade==,
176.000=Someone To Call My Lover (Hex Hector Mac Quayle Club Mix) - bg.png=1.000=0=0=1=====,
99999=-nosongbg-=1.000=0=0=0 // don't automatically add -songbackground-
;
#KEYSOUNDS:;
#ATTACKS:;

//---------------dance-single - ----------------
#NOTES:
     dance-single:
     :
     Hard:
     7:
     0.480844,0.543033,0.605863,0.000000,0.016830,300.000000,246.000000,54.000000,0.000000,0.000000,0.000000,0.480844,0.543033,0.605863,0.000000,0.016830,300.000000,246.000000,54.000000,0.000000,0.000000,0.000000:
0000
0000
0000
0000
,
0000
0000
0000
0000
,
0000
0000
0000
0000
,
0000
0000
0000
0000
,
0011
0000
0011
0000
1000
0010
0100
0000
,
1000
0010
0100
0001
0010
0001
0100
0000
,
0010
1000
0001
1000
0100
0000
1001
0000
,
0010
1000
0100
0000
1100
0000
0000
0000
,
1010
0000
1010
0000
0001
0010
0100
0000
,
0001
0010
0100
1000
0010
1000
0100
0000
,
0010
0001
1000
0001
0100
0001
1000
0000
,
0000
0011
1001
0000
,
1100
0000
0100
0000
1000
0000
0001
0000
0100
0000
0001
0010
0001
0000
0000
0000
,
0000
1000
0010
1000
0001
1000
0001
0000
,
0101
0000
0100
0000
0001
0000
1000
0000
0100
0000
1000
0010
1000
0000
0000
0000
,
0000
0001
0010
0001
1000
1000
0100
0100
,
1100
1000
0010
0100
0001
0010
0001
0000
,
0000
0001
0010
0001
0100
0010
0100
0000
,
0110
0000
1000
0000
0010
0000
1000
0000
0001
0000
0100
0010
0100
0000
0000
0000
,
0001
0100
0001
0010
0011
0000
0101
0000
,
1001
0000
1100
0000
0001
1000
0010
1000
,
0001
0000
1100
1000
0000
0101
0001
1000
,
1010
0000
1001
0000
0001
1000
0001
0010
,
0100
1000
0100
0000
1000
0010
0100
0001
,
0011
0000
1001
0000
0001
0100
0001
0010
,
0100
0000
1010
0010
0000
0011
0010
0001
,
1001
0000
0101
0000
1000
0100
1000
0010
,
0100
0001
0100
0000
0001
0010
0100
0010
,
1001
0000
1000
0100
0001
0000
1000
0100
,
0001
0000
1100
0100
0000
0101
0100
0001
,
0010
0000
0001
0100
1000
0000
0001
0100
,
1000
0000
0101
0100
0000
1100
0100
1000
,
0010
0000
1000
0010
0001
0000
1000
0010
,
0001
0000
1010
0010
0000
0011
0010
0001
,
0100
0000
0001
0010
1000
0000
0001
0010
,
1000
0000
0101
0001
0000
1100
1000
0010
,
0110
0000
0110
0000
0100
0001
1000
0100
,
0110
0000
0110
0000
0100
1000
0001
0100
,
0110
0000
0110
0000
0010
1000
0001
0010
,
0110
0000
0110
0000
0010
0001
1000
0010
,
1010
0000
1100
0000
1000
0100
0001
0000
,
0011
0000
0101
0000
0001
0100
1000
0000
,
1001
1000
0100
1001
0001
0100
1001
0010
,
1001
1000
0010
0100
0101
0000
1001
0000
,
1010
0000
0000
0000
;

//---------------dance-single - ----------------
#NOTES:
     dance-single:
     :
     Medium:
     6:
     0.362236,0.419617,0.224394,0.000000,0.000000,226.000000,206.000000,20.000000,0.000000,0.000000,0.000000,0.362236,0.419617,0.224394,0.000000,0.000000,226.000000,206.000000,20.000000,0.000000,0.000000,0.000000:
// measure 0
0000
0000
0000
0000
,  // measure 1
0000
0000
0000
0000
,  // measure 2
0000
0000
0000
0000
,  // measure 3
0000
0000
0000
0000
,  // measure 4
1010
0000
1010
0000
0010
1000
0100
0000
,  // measure 5
1000
0000
0001
0000
0100
0001
0010
0000
,  // measure 6
0001
0010
0100
1000
0100
0000
1000
0000
,  // measure 7
0000
0001
0100
0000
0100
0000
0000
0000
,  // measure 8
0011
0000
0011
0000
0010
0001
0100
0000
,  // measure 9
0001
0000
1000
0000
0100
1000
0010
0000
,  // measure 10
1000
0100
0010
0000
0010
0001
0100
0000
,  // measure 11
0000
0001
1000
0000
,  // measure 12
0000
0001
0100
0001
0010
0100
0010
0000
,  // measure 13
0000
0100
1000
0100
0010
0100
0010
0000
,  // measure 14
0000
1000
0010
1000
0100
0010
0100
0000
,  // measure 15
0000
0010
0001
0100
0001
0001
1000
1000
,  // measure 16
0000
0000
0010
1000
0010
0100
0010
0000
,  // measure 17
0000
0000
0100
0001
0100
0010
0100
0000
,  // measure 18
0000
0000
0001
0010
0001
1000
0100
0000
,  // measure 19
0110
1001
0101
1010
,  // measure 20
0011
0000
0011
0000
0001
1000
0001
0000
,  // measure 21
1000
0000
0100
0000
0001
0000
0010
1000
,  // measure 22
0010
0000
0100
0000
0001
0010
0001
0000
,  // measure 23
0100
0001
0100
0000
0010
0100
0010
0000
,  // measure 24
1010
0000
1010
0000
1000
0001
1000
0000
,  // measure 25
0001
0100
1000
0010
,  // measure 26
0110
0000
0110
0000
1000
0010
1000
0000
,  // measure 27
0100
1000
0100
0000
0010
0100
0010
0001
,  // measure 28
0000
0001
0100
1000
,  // measure 29
0010
0000
0001
0100
0000
0100
0010
0000
,  // measure 30
1000
0100
0001
0010
,  // measure 31
1000
0000
0100
1000
0000
1000
0010
0100
,  // measure 32
0001
0100
1000
0010
,  // measure 33
0001
0000
0100
0010
0000
0010
1000
0000
,  // measure 34
0100
0001
0010
1000
,  // measure 35
0100
0000
0010
0100
0000
0100
1000
0001
,  // measure 36
1000
0000
1000
0000
0001
0100
0001
0000
,  // measure 37
0010
0000
0010
0000
1000
0100
1000
0000
,  // measure 38
0010
0000
0010
0000
0100
0001
0100
0010
,  // measure 39
0100
0000
0100
0000
0001
0010
0001
0000
,  // measure 40
0110
0000
0110
0000
1000
0010
1000
0000
,  // measure 41
0110
0000
0110
0000
0001
0010
0001
0000
,  // measure 42
1000
0100
1000
0001
0100
0001
1000
0100
,  // measure 43
0010
0001
0010
0100
0010
0000
0110
0000
,  // measure 44
0110
0000
0000
0000
;

//---------------dance-single - ----------------
#NOTES:
     dance-single:
     :
     Easy:
     4:
     0.242025,0.345567,0.201954,0.000000,0.000000,151.000000,133.000000,18.000000,0.000000,0.000000,0.000000,0.242025,0.345567,0.201954,0.000000,0.000000,151.000000,133.000000,18.000000,0.000000,0.000000,0.000000:
0000
0000
0000
0000
,
0000
0000
0000
0000
,
0000
0000
0000
0000
,
0000
0000
0000
0000
,
1000
0010
0100
0100
,
1000
0010
0100
0100
,
1000
0010
0001
0001
,
0000
0000
0110
0000
,
0001
0100
0010
0010
,
0001
0100
0010
0010
,
0001
0100
1000
1000
,
0000
0000
0110
0000
,
1001
0000
1000
0000
,
0001
0000
0100
0100
,
0110
0000
0001
0000
,
1000
0000
0010
0010
,
0110
0000
1000
0000
,
0110
0000
0001
0000
,
0110
0000
1000
0000
,
0001
0010
0100
1000
,
1001
1001
0100
0000
,
0100
0001
0010
0000
,
0100
0100
1000
1000
,
0010
0001
0100
0100
,
1001
1001
0010
0000
,
0100
1000
0010
0000
,
0010
0010
0001
0001
,
0100
1000
0010
0001
,
0000
0100
0100
1000
,
1000
0010
0001
0100
,
0000
0100
0100
0001
,
0001
0010
1000
0100
,
0000
0010
0010
0001
,
0001
0100
1000
0010
,
0000
0010
0010
1000
,
1000
0100
0001
0010
,
1000
1000
0001
0001
,
0100
0100
0010
0010
,
0100
0100
0001
0001
,
1000
1000
0010
0001
,
0100
0100
0001
0010
,
0100
0100
1000
0010
,
1001
0000
0000
0110
0000
0000
1001
0000
,
1001
0000
0110
1001
,
0110
0000
0000
0000
;
