#TITLE:SHELTER;
#SUBTITLE:;
#ARTIST:FLOWIDUS;
#TITLETRANSLIT:;
#SUBTITLETRANSLIT:;
#ARTISTTRANSLIT:;
#GENRE:;
#CREDIT:;
#BANNER:Shelter - bn.png;
#BACKGROUND:Shelter - bg.png;
#LYRICSPATH:;
#CDTITLE:;
#MUSIC:Shelter.ogg;
#OFFSET:-0.021000;
#SAMPLESTART:49.839378;
#SAMPLELENGTH:12.000000;
#SELECTABLE:YES;
#BPMS:0.000000=87.011002
,40.000000=174.022003
;
#STOPS:
;
#BGCHANGES:8.000=shelter.avi=1.000=0=0=0=StretchNoLoop==CrossFade_Fastest==,
228.500=Shelter - bg.png=1.000=0=0=1===CrossFade_Fastest==,
99999=-nosongbg-=1.000=0=0=0 // don't automatically add -songbackground-
;
#KEYSOUNDS:;
#ATTACKS:;

//---------------dance-single - ----------------
#NOTES:
     dance-single:
     :
     Hard:
     7:
     0.494921,0.489739,0.228972,0.129419,0.114486,348.000000,325.000000,23.000000,13.000000,0.000000,0.000000,0.494921,0.489739,0.228972,0.129419,0.114486,348.000000,325.000000,23.000000,13.000000,0.000000,0.000000:
// measure 0
0000
0000
0000
0000
,  // measure 1
0000
0000
0000
0000
,  // measure 2
0020
0000
0000
0001
0000
0000
0100
0000
0000
0001
0000
0000
1000
0000
0000
0100
,  // measure 3
0000
0000
0001
0000
0000
0130
0000
0000
1000
0010
1000
0000
0000
0000
0000
0000
,  // measure 4
0200
0000
0000
1000
0000
0000
0010
0000
0000
1000
0000
0000
0001
0000
0000
0010
,  // measure 5
0000
0000
0001
0000
0000
1300
0000
0000
0001
0100
0001
0000
0000
0000
0000
0000
,  // measure 6
1010
0000
0000
0101
0000
0000
0000
0001
0010
0000
0100
0000
1000
0000
0010
0100
,  // measure 7
0000
0001
0000
0000
0000
0000
0000
1000
0100
0000
0010
0000
0001
0000
0100
0010
,  // measure 8
0000
0000
0000
0000
0000
0000
0000
1000
0001
0000
0100
0000
0010
0000
1000
0001
,  // measure 9
0000
1000
0000
0000
0000
0000
0000
0100
1000
0000
0001
0000
0010
0001
0100
0001
,  // measure 10
0000
0000
1000
0010
0000
0100
0001
1000
,  // measure 11
0100
0000
1010
0000
1100
0000
0001
1000
,  // measure 12
0000
0101
0000
0000
0000
0010
0001
1000
,  // measure 13
0010
0000
0100
0000
0110
0000
0001
1000
,  // measure 14
0000
0001
1000
0100
0000
1000
0001
0100
,  // measure 15
0001
0000
0010
0000
0011
0000
1000
0100
,  // measure 16
0000
0110
0000
0000
0000
0001
1000
0001
,  // measure 17
0100
0000
1001
0000
0010
0100
1000
0010
,  // measure 18
0100
0000
0001
0010
0000
0100
1000
0100
,  // measure 19
0010
0000
0110
0000
0001
0010
0001
0100
,  // measure 20
0000
1001
0000
0000
0000
0010
1000
0001
,  // measure 21
1000
0000
1100
0000
1000
0001
0100
0010
,  // measure 22
0000
0100
0001
0010
0000
0100
1000
0001
,  // measure 23
0010
0000
0011
0000
1000
0000
0100
1000
,  // measure 24
0001
0100
0001
0010
0001
0010
0100
1000
,  // measure 25
0100
1000
0001
1000
0010
0100
0010
0100
,  // measure 26
0001
0000
0010
0001
0000
0001
1000
0010
,  // measure 27
1000
0000
0100
1000
0000
1000
0001
0010
,  // measure 28
0001
0000
0001
0100
0000
0100
0010
0100
,  // measure 29
1001
0000
1000
1100
0000
0001
0101
0000
,  // measure 30
1001
0000
1000
0010
0000
0010
0100
0001
,  // measure 31
0010
0000
0001
0100
0000
0100
0010
1000
,  // measure 32
0100
0000
0010
0100
0000
0100
1000
0010
,  // measure 33
1010
0000
0001
0012
0000
0000
1000
0000
,  // measure 34
1003
0000
0010
1000
0000
1000
0001
0100
,  // measure 35
0001
0000
0100
0010
0000
0010
1000
0001
,  // measure 36
1000
0000
0100
0010
0000
0010
0001
1000
,  // measure 37
1001
0000
0100
1100
0000
0100
0101
0000
,  // measure 38
0010
1000
0001
0100
0010
1000
0001
0000
,  // measure 39
1000
0100
0010
0001
0100
0010
1000
0000
,  // measure 40
0001
0010
0001
0100
0010
1000
0100
0010
,  // measure 41
0100
0000
1000
0000
0001
0100
0001
0000
0010
0000
0100
0000
1000
0000
0000
0000
,  // measure 42
1000
0000
0001
1000
0000
1000
0001
2000
,  // measure 43
0100
0000
0010
0000
0001
0000
3002
0010
,  // measure 44
0000
0103
0010
1000
0000
0100
0010
0002
,  // measure 45
1000
0000
1000
0000
0100
0000
0013
0100
,  // measure 46
0000
1000
0010
0100
0000
0001
0100
0020
,  // measure 47
1000
0000
1000
0000
0100
0000
0130
0001
,  // measure 48
0000
0001
1000
0100
0000
1000
0001
0200
,  // measure 49
0010
0000
1000
0000
0301
0010
0100
1000
,  // measure 50
0000
0100
1000
0010
0000
0100
0001
0020
,  // measure 51
0100
0000
1000
0000
0001
0000
0130
1000
,  // measure 52
0000
0010
1000
0001
0000
1000
0001
0200
,  // measure 53
0010
0000
0010
0000
0301
0010
0001
1000
,  // measure 54
0000
0100
0010
0001
0000
0010
0001
2000
,  // measure 55
0010
0000
0010
0000
0100
0000
3002
0100
,  // measure 56
0000
0200
0000
0000
0303
0000
0000
1000
,  // measure 57
0100
0000
1100
0000
0010
1000
0001
0100
;

//---------------dance-single - ----------------
#NOTES:
     dance-single:
     :
     Medium:
     6:
     0.315725,0.432122,0.228972,0.049777,0.044799,222.000000,199.000000,23.000000,5.000000,0.000000,0.000000,0.315725,0.432122,0.228972,0.049777,0.044799,222.000000,199.000000,23.000000,5.000000,0.000000,0.000000:
0000
0000
0000
0000
,
0000
0000
0000
0000
,
1000
0000
0000
1000
0000
0000
1000
0000
0000
1000
0000
0000
0010
0000
0000
0010
,
0000
0000
0010
0000
0000
0010
0000
0000
0200
0000
0000
0000
0300
0000
0000
0000
,
0001
0000
0000
0001
0000
0000
0001
0000
0000
0001
0000
0000
0100
0000
0000
0100
,
0000
0000
0100
0000
0000
0100
0000
0000
0020
0000
0000
0000
0030
0000
0000
0000
,
1001
0000
0000
0000
0010
0001
1000
0200
,
0000
0000
0000
0000
0300
0000
0000
0000
0001
0000
1000
0000
0001
0000
1000
0010
,
0000
0000
0000
0000
1000
0010
0100
0002
,
0000
0000
0003
0000
0010
0100
2000
0000
,
3000
0000
0000
0000
0000
0000
0000
1000
,
0100
0000
0010
0000
0001
0000
0100
0010
,
0000
1000
0000
0000
0000
0000
0000
0001
,
0010
0000
0100
0000
1000
0000
0010
0100
,
0000
0000
0000
0000
0000
0000
0000
0001
,
1000
0000
0001
0000
0010
0000
0100
0010
,
0000
0100
0000
0000
0000
0000
0000
1000
,
0001
0000
0100
0000
0010
1000
0100
1000
,
0000
0000
0000
0000
0000
0000
0000
0001
,
0010
0000
0100
0000
1000
0000
0010
0100
,
0000
0001
0000
0000
0000
0000
0000
1000
,
0100
0000
0010
0000
0001
0000
0100
0010
,
0000
0000
0000
0000
0000
0000
0000
1000
,
0001
0000
1000
0000
0100
0000
0010
0100
,
0000
0010
0000
0000
0000
0000
0000
0001
,
1000
0000
0010
0000
0100
0001
0010
0001
,
0000
0000
1000
0010
0000
1010
0000
0000
,
0000
0000
0001
0010
0000
0011
0000
0000
,
0000
0000
1000
0001
0000
0100
0000
0000
,
0101
0000
0000
1001
0000
0000
1100
0000
,
0000
0000
1000
0010
0000
1010
0000
0000
,
0000
0000
0001
0010
0000
0011
0000
0000
,
0000
0000
1000
0001
0000
1000
0000
0000
,
1010
0000
0000
0101
0000
0000
0110
0000
,
1001
0000
0001
0100
0000
0101
0000
0000
,
0000
0000
1000
0100
0000
1100
0000
0000
,
0000
0000
0010
0100
0000
0010
0000
0000
,
1010
0000
0000
0011
0000
0000
1001
0000
,
0000
0000
0100
0010
0000
1001
0000
0000
,
0000
0000
1000
0001
0000
0110
0000
0000
,
0000
0000
0001
1000
0000
1001
0000
0000
,
0100
1000
0010
1000
0010
0100
0001
0100
,
0001
0000
0000
1100
0000
0000
1001
0000
,
1001
0000
0100
0000
1000
0000
0010
0100
,
0000
0001
0000
0000
0000
0000
0000
1000
,
0100
0000
0010
0000
0001
0000
0100
0010
,
0000
0000
0000
0000
0000
0000
0000
1000
,
0001
0000
1000
0000
0100
0000
0010
0100
,
0000
0010
0000
0000
0000
0000
0000
0001
,
1000
0000
0010
0000
0100
0001
0010
0001
,
0000
0000
0000
0000
0000
0000
0000
1000
,
0100
0000
0010
0000
0001
0000
0100
0010
,
0000
1000
0000
0000
0000
0000
0000
0001
,
0010
0000
0100
0000
1000
0000
0010
0100
,
0000
0000
0000
0000
0000
0000
0000
0001
,
1000
0000
0001
0000
0010
0000
0100
0010
,
0000
0100
0000
0000
0000
0000
0000
1000
,
0001
0000
0100
0000
0010
1000
0100
1000
;

//---------------dance-single - ----------------
#NOTES:
     dance-single:
     :
     Easy:
     3:
     0.193417,0.346444,0.119464,0.179195,0.000000,136.000000,124.000000,12.000000,18.000000,0.000000,0.000000,0.193417,0.346444,0.119464,0.179195,0.000000,136.000000,124.000000,12.000000,18.000000,0.000000,0.000000:
0000
0000
0000
0000
,
0000
0000
0000
0000
,
2000
0000
0000
0000
,
0000
0000
0002
3003
,
0200
0000
0000
0000
,
0000
0000
0020
0330
,
1001
0000
0001
0100
,
0010
0000
1000
0001
,
0010
0000
0100
1000
,
0001
0000
1000
0010
,
0100
0000
0000
0000
,
0100
0001
0100
0020
,
0000
0030
0000
0000
,
1000
0100
0010
0100
,
0000
0000
0000
0000
,
1000
0010
0100
0020
,
0000
0030
0000
0000
,
0100
0001
2000
0000
,
3000
0000
0000
0000
,
0100
0001
1000
0200
,
0000
0300
0000
0000
,
0010
0001
1000
0010
,
0000
0000
0000
0000
,
0010
1000
0001
0020
,
0000
0030
0000
0000
,
0001
1000
0200
0000
,
0300
1000
0010
0100
,
0000
0001
1000
0100
,
0000
0010
0001
1000
,
1001
0000
0110
0000
,
0000
0100
0001
1000
,
0000
0001
0010
0100
,
0000
0010
1000
0001
,
1001
0000
0110
1001
,
1001
0010
1000
0001
,
0000
0010
0001
1000
,
0000
0100
1000
0001
,
1001
0000
0110
0000
,
0000
0001
0010
0100
,
0000
1000
0100
0010
,
0000
0010
0001
1000
,
2002
0000
0000
3003
,
1001
0000
0110
0000
,
0010
1000
0010
0200
,
0000
0300
0000
0000
,
0001
0010
0100
0010
,
0000
0000
0000
0000
,
0001
0100
0010
0200
,
0000
0300
0000
0000
,
0010
1000
0002
0000
,
0003
0000
0000
0000
,
0010
1000
0001
0020
,
0000
0030
0000
0000
,
0100
1000
0001
0100
,
0000
0000
0000
0000
,
0100
0001
1000
0200
,
0000
0300
0000
0000
,
1000
0001
0020
0000
,
0030
0000
0000
0000
;
