#TITLE:SEVEN SISTERS;
#SUBTITLE:;
#ARTIST:REAL LIES;
#TITLETRANSLIT:;
#SUBTITLETRANSLIT:;
#ARTISTTRANSLIT:;
#GENRE:;
#CREDIT:;
#BANNER:Seven Sisters - bn.png;
#BACKGROUND:Seven Sisters - bg.png;
#LYRICSPATH:;
#CDTITLE:;
#MUSIC:Seven Sisters.ogg;
#OFFSET:0.000000;
#SAMPLESTART:64.464645;
#SAMPLELENGTH:12.000000;
#SELECTABLE:YES;
#BPMS:0.000000=119.988998
;
#STOPS:
;
#BGCHANGES:15.750=Seven Sisters.avi=1.000=0=0=0=StretchNoLoop==CrossFade_Fastest==,
191.000=Seven Sisters - bg.png=1.000=0=0=1===CrossFade_Fastest==,
99999=-nosongbg-=1.000=0=0=0 // don't automatically add -songbackground-
;
#KEYSOUNDS:;
#ATTACKS:;

//---------------dance-single - ----------------
#NOTES:
     dance-single:
     :
     Hard:
     7:
     0.418944,0.433866,0.220950,0.020086,0.000000,292.000000,270.000000,22.000000,2.000000,0.000000,0.000000,0.418944,0.433866,0.220950,0.020086,0.000000,292.000000,270.000000,22.000000,2.000000,0.000000,0.000000:
// measure 0
0000
0000
0000
0000
,  // measure 1
0000
0000
0000
0000
,  // measure 2
0000
0000
0000
0000
,  // measure 3
0000
0000
0000
0000
,  // measure 4
1000
0010
1000
0000
0001
0000
0010
0000
,  // measure 5
0001
0100
0001
0000
1000
0000
0100
0000
,  // measure 6
0010
0001
1000
0001
0100
0000
0010
0000
,  // measure 7
1000
0100
1000
0001
0100
0010
1000
0000
,  // measure 8
0010
0000
1000
0000
0100
0010
0100
0000
,  // measure 9
0010
0000
0001
0000
1000
0001
1000
0000
,  // measure 10
0010
0000
0100
0000
0001
0010
0001
0000
,  // measure 11
1000
0000
0001
0000
0100
0010
0100
0000
,  // measure 12
1000
0010
1000
0001
1000
0100
1000
0000
,  // measure 13
0001
0010
0001
1000
0001
0100
0001
0000
,  // measure 14
1000
0010
1000
0000
0001
0100
0001
0000
,  // measure 15
0210
0000
0010
0310
,  // measure 16
1000
0100
1000
0100
1000
0010
1000
0010
,  // measure 17
0100
1000
0100
0001
0100
1000
0100
0000
,  // measure 18
0001
0010
0001
0010
0001
0100
0001
0100
,  // measure 19
0010
0001
0010
1000
0010
0001
0010
0000
,  // measure 20
0100
0010
0100
0010
1000
0010
1000
0010
,  // measure 21
0100
0001
0100
1000
0000
0100
0010
0000
,  // measure 22
1000
0001
1000
0001
1000
0100
1000
0100
,  // measure 23
0010
0001
0100
0010
0000
1010
0000
1010
,  // measure 24
0001
0100
0001
0100
0001
1000
0001
1000
,  // measure 25
0100
0001
0100
1000
0100
0001
0100
0000
,  // measure 26
1000
0010
1000
0010
1000
0001
1000
0001
,  // measure 27
0100
1000
0100
0001
0100
1000
0100
0000
,  // measure 28
0001
0010
0001
0010
0001
0100
0001
0100
,  // measure 29
0010
1000
0010
0001
0010
1000
0010
0000
,  // measure 30
0010
1000
0010
1000
0001
1000
0001
0000
,  // measure 31
1000
0100
0010
0001
0000
0001
0010
0100
,  // measure 32
1100
0000
1001
0000
0001
0100
0000
1100
,  // measure 33
0000
1001
0000
0101
0100
0001
1000
0100
,  // measure 34
1000
0000
1001
0000
0010
0001
0100
0000
,  // measure 35
0010
1000
0010
0100
0000
0001
0010
0100
,  // measure 36
1000
0000
1001
0000
0010
0001
0000
1010
,  // measure 37
0000
1001
0000
0011
0010
0001
1000
0010
,  // measure 38
1000
0000
0110
0000
0100
0001
0010
0000
,  // measure 39
0001
0010
0001
1000
0010
1000
0001
0100
,  // measure 40
1001
0000
1000
0001
0000
0001
0100
0000
,  // measure 41
1100
0000
1000
0001
0010
0000
0100
0000
,  // measure 42
0011
0000
1000
0010
0000
0010
0100
0000
,  // measure 43
1001
0000
0010
0100
1000
0000
0001
0000
,  // measure 44
0110
0000
0001
1000
0000
1000
0010
0000
,  // measure 45
0101
0000
0010
1000
0100
0000
0010
0000
,  // measure 46
1010
0010
0100
0000
0010
1000
0001
0000
,  // measure 47
0210
0000
1000
0010
,  // measure 48
0301
0000
0000
0000
;

//---------------dance-single - ----------------
#NOTES:
     dance-single:
     :
     Medium:
     5:
     0.258253,0.337451,0.160691,0.090389,0.000000,180.000000,164.000000,16.000000,9.000000,0.000000,0.000000,0.258253,0.337451,0.160691,0.090389,0.000000,180.000000,164.000000,16.000000,9.000000,0.000000,0.000000:
0000
0000
0000
0000
,
0000
0000
0000
0000
,
0000
0000
0000
0000
,
0000
0000
0000
0000
,
1000
0010
0100
0100
,
0001
0010
0100
0100
,
1000
0001
0100
0100
,
0001
1000
0001
1000
0100
0000
0100
0000
,
1000
0100
0001
0000
,
0001
0010
1000
0000
,
0110
0000
1001
0000
,
0010
0001
0100
0000
,
0001
0100
1000
0000
,
1000
0010
0001
0000
,
0001
0100
0001
0000
1000
0100
1000
0000
,
2002
0000
0000
3003
,
0000
0000
0010
0002
0000
0003
0000
0001
,
0100
0000
0010
1000
0010
0000
1010
0000
,
0000
0000
0100
2000
0000
3000
0000
1000
,
0010
0000
0100
0001
0100
0000
0101
0000
,
0000
0000
0010
2000
0000
3000
0000
1000
,
0100
0000
0000
1001
0000
0000
0000
0000
,
0010
0001
0100
0000
0100
0001
0010
0000
,
0100
1000
0100
1000
0000
1100
0000
1100
,
0000
0000
0010
0002
0000
0003
0000
0001
,
0100
0000
0010
1000
0010
0000
1010
0000
,
0000
0000
0100
2000
0000
3000
0000
1000
,
0010
0000
0100
0001
0100
0000
0101
0000
,
0000
0000
0001
2000
0000
3000
0000
1000
,
0001
0100
0001
1000
0000
0000
0000
0000
,
0000
0000
0110
0000
0100
0010
0000
0000
,
0100
0001
0100
0000
0001
0000
1000
0000
,
0000
0000
1001
0000
0001
0100
0000
0010
,
0000
0010
0000
0010
1000
0000
0100
1000
,
0100
0000
1001
0000
1000
0100
0000
0000
,
1000
0010
1000
0000
0001
0000
0100
0000
,
0000
0000
1001
0000
1000
0010
0000
0100
,
0000
0100
0000
0100
0001
0000
0010
0001
,
0010
0000
1001
0000
0001
0010
0000
0000
,
0001
0100
0001
0000
1000
0000
1000
0000
,
0001
0000
0000
0100
0000
0000
0000
0000
,
0010
0000
0000
0100
0000
0000
0000
0000
,
1000
0000
0000
0100
0000
0000
0000
0000
,
0010
0000
0000
0100
0000
0000
0000
0000
,
0001
0000
0000
1000
0000
0000
0000
0000
,
0010
0000
0000
0100
0000
0000
0000
0000
,
0001
0010
0001
0000
1000
0010
1000
0000
,
0120
0000
0100
0100
,
0130
0000
0000
0000
;

//---------------dance-single - ----------------
#NOTES:
     dance-single:
     :
     Easy:
     2:
     0.186516,0.241036,0.190821,0.010043,0.000000,130.000000,111.000000,19.000000,1.000000,0.000000,0.000000,0.186516,0.241036,0.190821,0.010043,0.000000,130.000000,111.000000,19.000000,1.000000,0.000000,0.000000:
0000
0000
0000
0000
,
0000
0000
0000
0000
,
0000
0000
0000
0000
,
0000
0000
0000
0000
,
1000
0000
1000
0000
,
0001
0000
0001
0000
,
0100
0000
0100
0000
,
0010
0010
0010
0000
,
0100
0000
0100
0000
,
0001
0000
0001
0000
,
1000
0000
1000
0000
,
0010
0010
0010
0000
,
0010
1000
0100
0000
,
0010
0001
0100
0000
,
0001
0000
0001
0000
,
1001
0000
0000
0000
,
1001
0000
0001
0000
,
1000
1000
1000
0000
,
1001
0000
1000
0000
,
0001
0001
0001
0000
,
1001
0000
0001
0000
,
1000
1000
1000
0000
,
0001
1000
0001
1000
,
0010
0100
0010
0100
,
0110
0000
0010
0000
,
0100
0100
0100
0000
,
0110
0000
0100
0000
,
0010
0010
0010
0000
,
0110
0000
1001
0000
,
0001
0001
0001
0000
,
1000
0010
1000
0000
,
0001
0010
0001
0000
,
1001
0000
1001
0000
,
1000
0100
0001
0000
,
1001
0000
1001
0000
,
0001
0100
1000
0000
,
1001
0000
1001
0000
,
1000
0010
0001
0000
,
1001
0000
1001
0000
,
0001
0010
1000
0000
,
1000
0000
0100
0000
,
0001
0000
0100
0000
,
1000
0000
0010
0000
,
0001
0000
0010
0000
,
1000
0100
0001
0000
,
0001
0010
1000
0000
,
1001
0000
0110
0000
,
1002
0000
1000
1000
,
1003
0000
0000
0000
;
