#TITLE:SACRIFICE;
#SUBTITLE:;
#ARTIST:THE WEEKND;
#TITLETRANSLIT:;
#SUBTITLETRANSLIT:;
#ARTISTTRANSLIT:;
#GENRE:;
#CREDIT:;
#BANNER:SACRIFICE.png;
#BACKGROUND:SACRIFICE - bg.png;
#LYRICSPATH:;
#CDTITLE:;
#MUSIC:SACRIFICE.ogg;
#OFFSET:-0.120000;
#SAMPLESTART:61.856792;
#SAMPLELENGTH:12.000000;
#LASTBEATHINT:228.000000;
#SELECTABLE:YES;
#BPMS:0.000000=122.000000
;
#STOPS:
;
#BGCHANGES:0.000=SACRIFICE.avi=1.000=1=0=1===CrossFade==,
228.000=SACRIFICE - bg.png=1.000=1=0=1===CrossFade==,
99999=-nosongbg-=1.000=0=0=0 // don't automatically add -songbackground-
;
#KEYSOUNDS:;
#ATTACKS:;

//---------------dance-single - ----------------
#NOTES:
     dance-single:
     :
     Hard:
     8:
     0.426735,0.497576,0.304638,0.160781,0.342718,353.000000,317.000000,36.000000,19.000000,0.000000,0.000000,0.426735,0.497576,0.304638,0.160781,0.342718,353.000000,317.000000,36.000000,19.000000,0.000000,0.000000:
0000
0000
0000
0000
,
0000
0000
0000
0000
,
0000
0000
0000
0000
,
0000
0000
0000
0000
0000
0000
0000
0000
0000
0000
0000
0000
1000
0000
0000
2000
,
0000
0000
0000
0000
3010
0000
0100
0000
0010
0000
0000
0000
1000
0000
0000
0001
,
0000
0010
0000
0000
0100
0000
0010
0000
0100
0000
0000
0000
0110
0000
0000
0000
,
0001
0010
0000
0001
0000
1000
0000
0001
0000
1000
0000
0100
0000
1000
0000
0002
,
0000
0000
0000
0000
0103
0000
0010
0000
0100
0000
0000
0000
0001
0000
0000
0002
,
0000
0000
0000
0000
0013
0000
0100
0000
0010
0000
0000
0000
0001
0000
0000
1000
,
0000
0010
0000
0000
0100
0000
0010
0000
0100
0000
0000
0000
0110
0000
0000
0000
,
1000
0010
0000
1000
0000
0001
0000
1000
0000
0001
0000
0100
0000
0001
0000
0000
,
0110
0000
0100
0010
0100
0000
0101
0000
,
1010
0000
0000
0000
0001
0000
0100
0000
1000
0000
0000
0000
0100
0000
0000
0010
,
0000
0000
1000
0100
0001
0000
1100
0000
,
0011
0000
0000
0000
1000
0000
0010
0000
0001
0000
0000
0000
0010
0000
0000
0100
,
0000
0000
0000
0000
0001
0000
0010
0000
1000
0000
0010
0000
0001
0000
0000
0002
,
0000
0000
0000
0000
0103
0000
0010
0000
0100
0000
0000
0000
0001
0000
0000
1000
,
0000
0100
0000
0000
0010
0000
0100
0000
0010
0000
0000
0000
0110
0000
0000
0000
,
1000
0100
0000
1000
0000
0001
0000
1000
0000
0001
0000
0010
0000
0001
0000
2000
,
0000
0000
0000
0000
3010
0000
0100
0000
0010
0000
0000
0000
1000
0000
0000
2000
,
0000
0000
0000
0000
3100
0000
0010
0000
0100
0000
0000
0000
1000
0000
0000
0001
,
0000
0100
0000
0000
0010
0000
0100
0000
0010
0000
0000
0000
0110
0000
0000
0000
,
0001
0100
0000
0001
0000
1000
0000
0001
0000
1000
0000
0010
0000
1000
0000
0000
,
0002
0000
0013
0100
0010
0000
0101
0000
,
1100
0000
1000
0000
0010
0000
1000
0010
0100
0000
0010
0000
0100
0000
0010
0100
,
0001
0100
0001
1000
0001
0000
1100
0000
,
0101
0000
0001
0000
0010
0000
0001
0010
0100
0000
0010
0000
0100
0000
0010
0100
,
1000
0100
1000
0001
1000
0000
0110
0000
,
1001
0000
1000
0000
0010
0000
1000
0001
0010
0000
0100
0000
0010
0000
0001
1000
,
0010
0000
0100
0000
0010
0000
1000
0000
1100
0000
0000
0000
0101
0000
0000
0120
,
0000
0000
0200
0000
,
0330
0000
0000
0000
,
0001
0000
0000
0000
0010
0000
0100
0000
1000
0000
0000
0000
0010
0000
0000
0100
,
0000
0001
1000
0000
0010
0000
1000
0000
1100
0000
0000
0000
0001
0000
0000
1100
,
0000
0000
0000
0000
0010
0000
0100
0000
0001
0000
0000
0000
0010
0000
0000
0100
,
0000
1000
0001
0000
0010
0000
0001
0000
0101
0000
0000
0000
1000
0000
0000
0101
,
0000
0000
0000
0000
0010
0000
1000
0000
0001
0000
0000
0000
0010
0000
0000
0100
,
0000
1000
0010
0000
0100
0000
0001
0000
0011
0000
0000
0000
1000
0000
0000
0011
,
0000
0000
0000
0000
0100
0000
0010
0000
1000
0000
0000
0000
2000
0000
0000
0200
,
0000
3300
1001
1100
,
0011
0000
0001
0100
0010
1000
0200
0000
,
0010
0000
1300
0000
1000
0100
0010
0001
,
0200
0000
0000
0000
0010
0000
0000
0000
0301
0000
0000
0000
0002
0000
0000
0020
,
0000
0000
0000
0000
0033
0000
0000
0000
0101
0000
0000
0000
1010
0000
0000
1000
,
0001
0000
0001
0010
0100
1000
0020
0000
,
0100
0000
1030
0000
1000
0010
0100
0001
,
0020
0000
0000
0000
0100
0000
0000
0000
0031
0000
0000
0000
0002
0000
0000
2000
,
0000
0000
3003
1001
,
0100
0000
1000
0000
0010
0000
0100
0000
0001
0000
0010
0000
0100
0000
1000
0100
,
0000
1000
0001
0000
0100
0000
0001
0000
0010
0000
0100
1000
0000
0001
0000
0100
,
0000
0010
0100
0000
0001
0000
1000
0000
0100
0000
1000
0000
0001
0000
0010
0001
,
0000
1000
0001
0000
1000
0000
0010
0000
0101
0000
0000
0000
1100
0000
0000
0101
,
0000
0000
0001
0000
0010
0000
0100
0000
1000
0000
0010
0000
0100
0000
0001
0100
,
0000
0001
1000
0000
0100
0000
1000
0000
0010
0000
0100
0001
0000
1000
0000
0100
,
0000
0010
0100
0000
1000
0000
0001
0000
0100
0000
0001
0000
1000
0000
0010
1000
,
0000
0001
1000
0000
0001
0000
0010
0000
1100
0000
0000
0000
0101
0000
0000
0000
,
1010
0000
0000
0000
;

//---------------dance-single - ----------------
#NOTES:
     dance-single:
     :
     Medium:
     5:
     0.282878,0.331717,0.236941,0.313100,0.000000,234.000000,206.000000,28.000000,37.000000,0.000000,0.000000,0.282878,0.331717,0.236941,0.313100,0.000000,234.000000,206.000000,28.000000,37.000000,0.000000,0.000000:
0000
0000
0000
0000
,
0000
0000
0000
0000
,
0000
0000
0000
0000
,
0000
0000
0000
0000
0000
0000
1000
0010
,
2000
0000
0000
0000
3000
0000
0001
0100
,
0002
0000
0000
0003
,
1000
0000
0100
0000
0010
0001
1000
0001
,
0020
0000
0000
0000
0030
0000
0001
0010
,
0002
0000
0000
0000
0003
0000
1000
0100
,
2000
0000
0000
3000
,
0001
0000
0100
0000
0010
1000
0001
1000
,
0020
0000
0030
0110
,
1001
0000
1000
0000
0100
0000
0010
0001
,
0010
0100
0110
0110
,
1001
0000
0001
0000
0100
0000
0010
1000
,
0010
0000
0100
0000
0110
0000
0001
0100
,
0002
0000
0000
0000
0003
0000
1000
0100
,
2000
0000
0000
3000
,
0001
0000
0010
0000
0100
1000
0001
1000
,
0200
0000
0000
0000
0300
0000
1000
0010
,
2000
0000
0000
0000
3000
0000
0001
0010
,
0002
0000
0000
0003
,
1000
0000
0010
0000
0100
0001
1000
0001
,
0200
0000
0300
0001
,
1000
0010
1000
0100
2000
0000
0001
0000
,
0002
3003
0110
1001
,
0001
0010
0001
0100
0002
0000
1000
0000
,
2000
3003
0110
1001
,
1000
0100
1000
0010
2000
0000
0001
0000
,
0002
3003
1100
1010
,
0012
0000
0200
0000
,
0303
0000
0000
0000
,
0020
0100
0130
0002
,
0200
0303
0101
1100
,
0101
0000
0001
0100
0010
0000
2000
0000
,
0200
0000
3300
0000
0010
0001
0100
0001
,
0020
0100
0130
2000
,
0200
3300
1100
0101
,
1100
0000
1000
0100
0010
0000
0002
0000
,
0200
0000
0303
0110
,
1001
0000
0001
1000
0100
1000
0002
0000
,
0003
0000
0000
0001
0010
0001
0010
0001
,
0200
0000
0000
0010
,
0020
0330
1001
0110
,
1001
0000
1000
0001
0100
0001
2000
0000
,
3200
0000
0300
1000
0010
1000
0010
1000
,
0200
0000
0000
0010
,
0020
0000
0330
1001
,
0001
0010
1000
0100
,
0010
0100
0010
0000
1000
0100
1000
0001
,
1000
0010
0001
0100
,
0010
0100
0010
0000
0001
0100
0001
1000
,
0001
0100
1000
0010
,
0100
0010
0100
0000
1000
0010
1000
0001
,
1000
0100
0001
0010
,
0100
0010
0100
0000
0110
0000
0110
0000
,
1001
0000
0000
0000
;

//---------------dance-single - ----------------
#NOTES:
     dance-single:
     :
     Easy:
     2:
     0.153528,0.213247,0.093084,0.169243,0.000000,127.000000,116.000000,11.000000,20.000000,0.000000,0.000000,0.153528,0.213247,0.093084,0.169243,0.000000,127.000000,116.000000,11.000000,20.000000,0.000000,0.000000:
// measure 0
0000
0000
0000
0000
,  // measure 1
0000
0000
0000
0000
,  // measure 2
0000
0000
0000
0000
,  // measure 3
0000
0000
0000
0000
,  // measure 4
2000
0000
3000
0010
,  // measure 5
0200
0000
0000
0300
,  // measure 6
0001
0000
0010
0001
,  // measure 7
0200
0000
0000
0300
,  // measure 8
0002
0000
0003
0010
,  // measure 9
0200
0000
0300
0000
,  // measure 10
1000
0000
0010
1000
,  // measure 11
0200
0000
0300
0110
,  // measure 12
0110
0000
0001
0010
,  // measure 13
1000
0000
0000
0110
,  // measure 14
0110
0000
1000
0010
,  // measure 15
0001
0000
1000
0001
,  // measure 16
2000
0000
3000
0100
,  // measure 17
0020
0000
0000
0030
,  // measure 18
0001
0000
0100
0001
,  // measure 19
0020
0000
0030
0000
,  // measure 20
0002
0000
0003
0100
,  // measure 21
0020
0000
0030
0000
,  // measure 22
1000
0000
0100
1000
,  // measure 23
0020
0000
0030
0100
,  // measure 24
0001
1000
0001
0000
,  // measure 25
1000
0000
0000
0100
,  // measure 26
1000
0001
1000
0000
,  // measure 27
0001
0000
0010
0100
,  // measure 28
0010
0000
0100
0000
,  // measure 29
0010
0000
1000
0001
,  // measure 30
2000
0000
0002
0000
,  // measure 31
3003
0000
0000
0000
,  // measure 32
2000
0000
3000
0001
,  // measure 33
0001
0000
0010
0100
,  // measure 34
0110
0000
0001
0000
,  // measure 35
1000
0000
0010
0100
,  // measure 36
0002
0000
0003
1000
,  // measure 37
1000
0000
0010
0100
,  // measure 38
0110
0000
1000
0000
,  // measure 39
0001
0000
0000
0110
,  // measure 40
0110
0000
1000
0000
,  // measure 41
0001
0000
1000
0010
,  // measure 42
2000
0000
3000
0001
,  // measure 43
0200
0000
0301
1000
,  // measure 44
1001
0000
0001
0000
,  // measure 45
1000
0000
0001
0010
,  // measure 46
0002
0000
0003
1000
,  // measure 47
0200
0000
0300
0000
,  // measure 48
0001
0000
0100
0000
,  // measure 49
1000
0000
0010
0001
,  // measure 50
1000
0000
0100
0000
,  // measure 51
0001
0000
0010
1000
,  // measure 52
0001
0000
0010
0000
,  // measure 53
1000
0000
0100
0001
,  // measure 54
1000
0000
0100
0000
,  // measure 55
0001
0000
0000
0110
,  // measure 56
0110
0000
0000
0000
;
