#TITLE:ROX 300;
#SUBTITLE:;
#ARTIST:ANAMANAGUCHI;
#TITLETRANSLIT:;
#SUBTITLETRANSLIT:;
#ARTISTTRANSLIT:;
#GENRE:;
#CREDIT:;
#BANNER:ROX 300.png;
#BACKGROUND:ROX 300 - bg.png;
#LYRICSPATH:;
#CDTITLE:;
#MUSIC:ROX 300.ogg;
#OFFSET:-0.239000;
#SAMPLESTART:21.948000;
#SAMPLELENGTH:11.000000;
#SELECTABLE:YES;
#BPMS:0.000000=187.938995
;
#STOPS:
;
#BGCHANGES:21.750=ROX 300.avi=1.000=0=0=0=StretchNoLoop==CrossFade_Faster==,
286.000=ROX 300 - bg.png=1.000=0=0=1===CrossFade_Fastest==,
99999=-nosongbg-=1.000=0=0=0 // don't automatically add -songbackground-
;
#KEYSOUNDS:;
#ATTACKS:;

//---------------dance-single - ----------------
#NOTES:
     dance-single:
     :
     Hard:
     9:
     0.677602,0.793334,0.398766,0.419754,0.188889,452.000000,414.000000,38.000000,40.000000,0.000000,0.000000,0.677602,0.793334,0.398766,0.419754,0.188889,452.000000,414.000000,38.000000,40.000000,0.000000,0.000000:
0000
0000
0000
0000
,
0000
0000
0000
0000
,
0000
0000
0000
0000
,
0000
0000
0000
0000
,
0001
0100
0010
0100
0000
0011
0000
0000
,
1000
0100
0010
0100
0000
1010
0000
0000
,
0002
0023
0230
2300
,
3020
0000
0000
0000
0030
0000
0100
0001
2000
0000
0000
0000
0000
0000
3000
0000
,
0010
0100
0010
1000
0010
0100
0010
1000
,
0100
0010
0100
1000
0001
0010
0100
1000
,
0001
0010
0001
0100
0001
0010
0001
0100
,
0010
1000
0010
0100
0001
0010
0100
1000
,
0100
0010
0100
1000
0100
0010
0100
1000
,
0010
0100
0010
1000
0001
0010
0100
1000
,
0010
1000
0001
0100
0010
1000
0001
0100
,
0020
0230
0302
2000
,
0000
0000
3003
1001
,
0100
0001
1000
0100
0000
0110
0000
0000
,
0100
0000
1000
0000
0001
0000
0100
0000
0000
0000
0110
0000
0000
0000
0000
0010
,
1000
0000
0000
1000
0001
0000
0000
0001
0010
0000
0000
0010
0100
0000
0110
0000
,
0000
1100
0000
0011
0000
0101
0000
0000
,
0010
1000
0001
0010
0000
0110
0000
0000
,
0010
0001
1000
0010
0000
0110
0000
0000
,
1100
0000
0101
0000
1001
0000
0110
1001
,
0000
0101
0000
1010
0000
0011
0000
0000
,
1000
0100
0010
0000
0001
0100
0010
1000
,
0010
0100
0000
0110
0000
0000
0000
1000
,
0100
1000
0020
0000
0230
0000
0301
2000
,
0000
3100
0010
0001
0000
0010
0100
1000
,
0001
0100
0001
0000
0010
0000
0100
0000
1000
0001
1000
0000
0010
0000
0100
0000
,
0001
0010
0001
0000
1000
0010
1000
0000
0001
0000
0100
0000
0010
0000
1000
0000
,
0200
0000
0000
0000
,
1300
0000
0000
1000
0100
0000
0000
0100
0010
0000
0000
0010
0001
0000
0000
0001
,
1000
0000
0100
0010
0001
0000
0100
0010
1000
0000
0100
0010
0001
0000
0100
0010
,
1000
0001
0100
0010
0100
0001
1000
0000
,
0001
1000
0100
0010
0100
1000
0001
0000
,
2000
3200
0320
0032
,
0203
0000
0000
0000
0300
0000
0010
1000
0002
0000
0000
0000
0000
0000
0003
0000
,
0100
0010
1000
0010
0100
0010
1000
0000
,
0100
0010
0001
0010
0100
0010
0001
0000
,
2000
3020
0230
0302
,
2003
0000
0000
0000
3000
0000
0100
1000
0002
0000
0000
0000
0000
0000
0003
0000
,
0100
0010
0100
0001
0100
0010
0100
0001
,
0010
0100
0010
0001
1000
0100
0010
0001
,
1000
0100
1000
0010
1000
0100
1000
0010
,
0100
0001
0100
0010
1000
0100
0010
0001
,
0010
0100
0010
0001
0010
0100
0010
0001
,
0100
0010
0100
0001
1000
0100
0010
0001
,
1000
0010
0100
0001
1000
0010
0100
0001
,
0020
0230
2300
0002
,
0000
0000
3003
1001
,
0010
1000
0001
0010
0000
0110
0000
0000
,
0010
0000
0001
0000
1000
0000
0010
0000
0000
0000
0110
0000
0000
0000
0000
0100
,
0001
0000
0000
0001
1000
0000
0000
1000
0100
0000
0000
0100
0010
0000
0110
0000
,
0000
1100
0000
1010
0000
0011
0000
0000
,
0100
0001
1000
0100
0000
0110
0000
0000
,
0100
1000
0001
0100
0000
0110
0000
0000
,
0011
0000
1010
0000
1001
0000
0110
1001
,
0000
1010
0000
0101
0000
0011
0000
0000
,
0001
0010
0100
0000
1000
0010
0100
0001
,
0100
0010
0000
0110
0000
0000
0000
0001
,
0010
0001
0200
0000
0320
0000
1030
0002
,
0000
0013
0100
1000
0000
0100
0010
0001
,
1000
0010
1000
0000
0100
0000
0010
0000
0001
1000
0001
0000
0100
0000
0010
0000
,
1000
0100
1000
0000
0001
0100
0001
0000
1000
0000
0010
0000
0100
0000
0001
0000
,
0020
0000
0000
0000
,
0031
0000
0000
0001
0010
0000
0000
0010
0100
0000
0000
0100
1000
0000
0000
1000
,
0001
0000
0100
0010
1000
0000
0100
0010
0001
0000
0100
0010
1000
0000
0100
0010
,
0001
1000
0100
0010
0100
1000
0001
0000
,
1000
0001
0100
0010
0100
0001
1000
0000
,
0002
0023
0230
2300
,
3002
0000
0000
0000
0003
0000
0100
0010
0200
0000
0000
0000
0000
0000
0000
0000
,
0300
0000
0000
0000
;

//---------------dance-single - ----------------
#NOTES:
     dance-single:
     :
     Medium:
     7:
     0.473722,0.528890,0.377778,0.587655,0.000000,316.000000,280.000000,36.000000,56.000000,0.000000,0.000000,0.473722,0.528890,0.377778,0.587655,0.000000,316.000000,280.000000,36.000000,56.000000,0.000000,0.000000:
// measure 0
0000
0000
0000
0000
,  // measure 1
0000
0000
0000
0000
,  // measure 2
0000
0000
0000
0000
,  // measure 3
0000
0000
0000
0000
,  // measure 4
1000
0010
1000
0001
0000
0100
0000
0000
,  // measure 5
0001
0010
0001
1000
0000
0100
0000
0000
,  // measure 6
0002
2003
3020
0230
,  // measure 7
0302
0000
0020
0033
,  // measure 8
0100
1000
0010
0100
,  // measure 9
0001
0000
0010
0000
0100
1000
0010
0100
,  // measure 10
0010
1000
0100
0010
,  // measure 11
0001
0000
0100
0000
0010
1000
0100
0010
,  // measure 12
0100
1000
0001
0100
,  // measure 13
0010
0000
1000
0000
0001
0010
0100
0010
,  // measure 14
0002
0000
2003
0000
,  // measure 15
3002
0023
0230
2300
,  // measure 16
0000
0000
3000
1001
,  // measure 17
0001
0010
0200
1000
0000
1300
0000
0000
,  // measure 18
1000
0010
0200
0001
0000
0301
0000
0000
,  // measure 19
1001
0000
1001
0000
0011
0000
0010
0100
,  // measure 20
0000
0100
0000
1100
0000
1001
0000
0000
,  // measure 21
1000
0100
0020
0001
0000
0031
0000
0000
,  // measure 22
0001
0100
0020
1000
0000
1030
0000
0000
,  // measure 23
1001
0000
1001
0000
1010
0000
0010
0100
,  // measure 24
0000
0100
0000
0101
0000
1001
0000
0000
,  // measure 25
0000
0001
0010
0000
0100
1000
0001
0100
,  // measure 26
0010
0100
0000
0110
0000
0000
0000
0000
,  // measure 27
0010
1000
1001
0001
,  // measure 28
2002
0000
0000
0000
3003
0000
1000
0010
,  // measure 29
1000
0000
0001
0100
0001
0000
1000
0100
,  // measure 30
1000
0002
0023
0230
,  // measure 31
2300
0000
0000
3000
,  // measure 32
1000
0010
0100
0001
,  // measure 33
1001
1100
1001
0101
,  // measure 34
0001
1000
0001
0100
0000
0010
0000
0000
,  // measure 35
1000
0001
1000
0100
0000
0010
0000
0000
,  // measure 36
0002
0023
0230
2300
,  // measure 37
3020
0000
0200
0330
,  // measure 38
0001
0010
0001
1000
0000
0100
0000
0000
,  // measure 39
1000
0010
1000
0001
0000
0100
0000
0000
,  // measure 40
2000
3002
0023
0230
,  // measure 41
2300
0000
0020
3030
,  // measure 42
0100
0001
0010
0100
,  // measure 43
1000
0000
0010
0000
0100
0001
0010
0100
,  // measure 44
0010
0001
0100
0010
,  // measure 45
1000
0000
0100
0000
0010
0001
0100
0010
,  // measure 46
0100
0001
1000
0100
,  // measure 47
0010
0000
0001
0000
1000
0010
0100
0010
,  // measure 48
2000
0000
3002
0000
,  // measure 49
2003
3200
0320
0032
,  // measure 50
0000
0000
0003
1001
,  // measure 51
1000
0010
0200
0001
0000
0301
0000
0000
,  // measure 52
0001
0010
0200
1000
0000
1300
0000
0000
,  // measure 53
1001
0000
1001
0000
1010
0000
0010
0100
,  // measure 54
0000
0100
0000
0101
0000
1001
0000
0000
,  // measure 55
0001
0100
0020
1000
0000
1030
0000
0000
,  // measure 56
1000
0100
0020
0001
0000
0031
0000
0000
,  // measure 57
1001
0000
1001
0000
0011
0000
0010
0100
,  // measure 58
0000
0100
0000
1100
0000
1001
0000
0000
,  // measure 59
0000
1000
0010
0000
0100
0001
1000
0100
,  // measure 60
0010
0100
0000
0110
0000
0000
0000
0000
,  // measure 61
0010
0001
1001
1000
,  // measure 62
2002
0000
0000
0000
3003
0000
0001
0010
,  // measure 63
0001
0000
1000
0100
1000
0000
0001
0100
,  // measure 64
0001
2000
3020
0230
,  // measure 65
0302
0000
0000
0003
,  // measure 66
0001
0010
0100
1000
,  // measure 67
1001
0101
1001
1100
,  // measure 68
1000
0001
1000
0010
0000
0100
0000
0000
,  // measure 69
0001
1000
0001
0010
0000
0100
0000
0000
,  // measure 70
2000
3200
0320
0032
,  // measure 71
0203
0000
0020
0000
,  // measure 72
0330
0000
0000
0000
;

//---------------dance-single - ----------------
#NOTES:
     dance-single:
     :
     Easy:
     4:
     0.263845,0.340000,0.020988,0.335803,0.000000,176.000000,174.000000,2.000000,32.000000,0.000000,0.000000,0.263845,0.340000,0.020988,0.335803,0.000000,176.000000,174.000000,2.000000,32.000000,0.000000,0.000000:
0000
0000
0000
0000
,
0000
0000
0000
0000
,
0000
0000
0000
0000
,
0000
0000
0000
0000
,
0010
0000
1000
0000
,
0010
0000
0100
0000
,
0001
0010
0100
1000
,
0200
0000
0020
0330
,
0001
0000
0100
0000
,
0010
0000
1000
0000
,
0001
0000
0010
0000
,
0100
0000
1000
0001
,
1000
0000
0100
0000
,
0010
0000
0001
1000
,
0002
0000
2000
3003
,
0002
0023
0230
2300
,
3000
0000
0000
1001
,
0001
0000
0001
0000
,
1000
0000
1000
0000
,
0010
0010
1000
1000
,
0100
0010
0100
0010
,
1000
0000
1000
0000
,
0001
0000
0001
0000
,
0010
0010
0001
0001
,
0100
0010
0100
0010
,
1000
0000
0001
0000
,
1000
0000
0100
0000
,
0010
0010
0001
0100
,
0020
0000
0030
1000
,
2000
0000
3002
0000
,
1003
0100
0010
0002
,
2000
0000
0000
3003
,
0020
0000
0000
0030
,
1000
0010
0100
0001
,
0100
0000
0010
0000
,
1000
0000
0001
0000
,
1000
0100
0010
0001
,
0020
0000
0200
0330
,
1000
0000
0001
0000
,
0010
0000
0100
0000
,
1000
0010
0100
0001
,
0200
0000
0020
0330
,
1000
0000
0100
0000
,
0010
0000
0001
0000
,
1000
0000
0010
0000
,
0100
0000
0001
1000
,
0001
0000
0100
0000
,
0010
0000
1000
0001
,
2000
0000
0002
3003
,
2000
3020
0230
0302
,
0003
0000
0000
1001
,
1000
0000
1000
0000
,
0001
0000
0001
0000
,
0010
0010
0001
0001
,
0100
0010
0100
0010
,
0001
0000
0001
0000
,
1000
0000
1000
0000
,
0010
0010
1000
1000
,
0100
0010
0100
0010
,
0001
0000
1000
0000
,
0001
0000
0100
0000
,
0010
0010
1000
0100
,
0020
0000
0030
0001
,
0002
0000
2003
0000
,
3001
0100
0010
2000
,
0002
0000
0000
3003
,
0020
0000
0000
0030
,
0001
0010
0100
1000
,
0100
0000
0010
0000
,
0001
0000
1000
0000
,
0001
0100
0010
1000
,
0020
0000
0200
0000
,
0330
0000
0000
0000
;
