#VERSION:0.83;
#TITLE:READY 2 DANCE;
#SUBTITLE:;
#ARTIST:MARTIN IKIN & BISCITS ft. ANELISA LAMOLA;
#TITLETRANSLIT:;
#SUBTITLETRANSLIT:;
#ARTISTTRANSLIT:;
#GENRE:;
#ORIGIN:;
#CREDIT:;
#BANNER:READY 2 DANCE bn.png;
#BACKGROUND:READY 2 DANCE bg.png;
#PREVIEWVID:;
#JACKET:READY 2 DANCE - jacket.jpg;
#CDIMAGE:;
#DISCIMAGE:;
#LYRICSPATH:;
#CDTITLE:;
#MUSIC:READY 2 DANCE.ogg;
#OFFSET:-0.261000;
#SAMPLESTART:29.066402;
#SAMPLELENGTH:12.000000;
#SELECTABLE:YES;
#BPMS:0.000=125.772;
#STOPS:;
#DELAYS:;
#WARPS:;
#TIMESIGNATURES:0.000=4=4;
#TICKCOUNTS:0.000=4;
#COMBOS:0.000=1;
#SPEEDS:0.000=1.000=0.000=0;
#SCROLLS:0.000=1.000;
#FAKES:;
#LABELS:0.000=Song Start;
#BGCHANGES:16.000=ready 2 dance.avi=1.000=0=0=0=StretchNoLoop==CrossFade_Fastest==,
200.000=READY 2 DANCE bg.png=1.000=0=0=1===CrossFade_Fastest==,
99999=-nosongbg-=1.000=0=0=0 // don't automatically add -songbackground-
;
#KEYSOUNDS:;
#ATTACKS:
;

//---------------dance-single - ----------------
#NOTEDATA:;
#CHARTNAME:;
#STEPSTYPE:dance-single;
#DESCRIPTION:;
#CHARTSTYLE:;
#DIFFICULTY:Hard;
#METER:8;
#RADARVALUES:0.471023,0.616852,0.494099,0.019004,0.660383,347.000000,295.000000,52.000000,2.000000,0.000000,0.000000,0.000000,0.000000,0.000000,0.471023,0.616852,0.494099,0.019004,0.660383,347.000000,295.000000,52.000000,2.000000,0.000000,0.000000,0.000000,0.000000,0.000000;
#CREDIT:Alchemy Jones;
#NOTES:
// measure 0
0000
0000
0000
0000
,  // measure 1
0000
0000
0000
0000
,  // measure 2
0000
0000
0000
0000
,  // measure 3
0000
0000
0000
0000
,  // measure 4
0001
0000
0000
0001
0000
0000
0011
0000
0000
0010
0000
0000
0011
0000
0000
0100
,  // measure 5
0000
1000
0000
0000
1000
0000
0000
0010
0000
0100
0000
0000
0010
0000
1000
0000
,  // measure 6
0100
0000
0000
0100
0000
0000
1100
0000
0000
1000
0000
0000
1100
0000
0000
0010
,  // measure 7
0000
0001
0000
0000
0001
0000
0000
0010
0000
0100
0000
0000
0010
0000
0001
0000
,  // measure 8
0100
0000
0000
0100
0000
0000
0110
0000
0000
0010
0000
0000
0110
0000
0000
1000
,  // measure 9
0000
0001
0000
0000
0001
0000
0000
1000
0000
0100
0000
0000
0010
0000
0001
0000
,  // measure 10
1000
0000
0000
1000
0000
0000
1010
0000
0000
0010
0000
0000
1010
0000
0000
0100
,  // measure 11
0000
0001
0000
0000
0001
0000
0000
0010
0000
0100
0000
0000
1000
0000
1000
0010
,  // measure 12
1000
0000
0001
0000
0010
0001
0010
0000
0100
0000
1000
0100
0000
1000
0100
1000
,  // measure 13
0001
0000
0100
0000
0010
0000
1000
0000
0100
0000
0010
0001
0000
0001
0100
0001
,  // measure 14
0100
0010
1000
0010
1000
0000
0001
0100
0001
0100
0001
0100
0010
0100
0010
0000
,  // measure 15
1001
0000
0000
0000
,  // measure 16
1000
0000
0000
1000
0000
0000
1100
0000
0000
0100
0000
0000
0101
0000
0000
0100
,  // measure 17
0000
0001
0000
0000
1000
0000
0000
0100
0000
0010
0000
0000
0100
0000
1000
0000
,  // measure 18
0010
0000
0000
0010
0000
0000
1001
0000
0000
0100
0000
0000
1001
0000
0000
0001
,  // measure 19
0000
0010
0000
0000
0100
0000
0000
1000
0000
0001
0000
0000
0100
0000
0001
0000
,  // measure 20
0010
0000
0000
0010
0000
0000
0011
0000
0000
0010
0000
0000
1010
0000
0000
1000
,  // measure 21
0000
0100
0000
0000
1000
0000
0000
0001
0000
0100
0000
0000
0010
0000
1000
0000
,  // measure 22
0001
0000
0000
0001
0000
0000
0110
0000
0000
1000
0000
0000
0110
0000
0000
0001
,  // measure 23
0000
0010
0000
0000
0001
0000
0000
1000
0000
0100
0000
0000
0010
0000
0001
0000
,  // measure 24
0100
0000
0000
0100
0000
0000
1100
0000
0000
1000
0000
0000
1010
0000
0000
0100
,  // measure 25
0000
0010
0000
0000
0110
0000
0000
0001
0000
0100
0000
0000
0010
0000
1000
0000
,  // measure 26
0001
0000
0000
0001
0000
0000
0101
0000
0000
0100
0000
0000
1001
0000
0000
1000
,  // measure 27
0000
0100
0000
0000
1001
0000
0000
0100
0000
0001
0000
0000
0100
0000
0001
0000
,  // measure 28
0010
0000
0000
0010
0000
0000
0011
0000
0000
0001
0000
0000
0101
0000
0000
0100
,  // measure 29
0000
0010
0000
0000
1001
0000
0000
1000
0000
0100
0000
0000
0010
0000
0001
0000
,  // measure 30
0101
0000
0000
0101
0000
0000
0202
0000
0000
0000
0000
0000
0303
0000
0000
0000
,  // measure 31
1000
0010
0000
1000
0010
1000
0000
0001
0000
0100
0000
0001
0010
0001
0100
0001
,  // measure 32
0000
0000
1100
0000
0000
1100
0000
0000
0000
0000
0000
0000
0010
0001
0000
1000
,  // measure 33
0000
0000
0100
1000
0000
0000
0001
0000
0000
0000
0010
0000
0001
0000
0010
0000
,  // measure 34
0000
0000
0110
0000
0000
0110
0000
0000
0000
0000
1000
0000
0001
0100
0000
0010
,  // measure 35
0000
0000
1000
0100
0000
0000
1000
0000
0000
0000
0100
0000
0010
0000
0100
0000
,  // measure 36
0000
0000
0011
0000
0000
0011
0000
0000
0000
0000
0000
0000
1000
0010
0000
0100
,  // measure 37
0000
0000
0001
1000
0000
0000
0100
0000
0000
0000
1000
0000
0010
0000
1000
0000
,  // measure 38
0000
0000
1001
0000
0000
1001
0000
0000
0000
0000
0100
0000
0001
1000
0000
0100
,  // measure 39
0000
0000
1000
0010
0000
0000
0100
0000
0110
0000
0000
0000
0110
0000
0000
0000
,  // measure 40
0000
0000
1000
0000
0001
0100
0000
1000
0000
0100
0000
0000
0000
0000
0000
0000
,  // measure 41
0000
0000
0001
0010
0000
0001
0010
0000
0110
0000
0000
0000
0110
0000
0000
0000
,  // measure 42
0100
0000
0000
0100
0000
0000
1001
0000
0000
0100
0000
0000
1001
0000
0000
1000
,  // measure 43
0000
0100
0000
0000
0101
0000
0000
0001
0000
1000
0000
0000
0100
0000
1000
0000
,  // measure 44
0010
0000
0000
0010
0000
0000
1001
0000
0000
0100
0000
0000
1001
0000
0000
0001
,  // measure 45
0000
0010
0000
0000
1100
0000
0000
1000
0000
0001
0000
0000
0100
0000
0001
0000
,  // measure 46
0010
0000
0000
0010
0000
0000
1010
0000
0000
1000
0000
0000
1100
0000
0000
1000
,  // measure 47
0000
0001
0000
0000
0110
0000
0000
0001
0000
0100
0000
0000
0010
0000
1000
0000
,  // measure 48
0100
0000
0000
0100
0000
0000
1100
0000
0000
0001
0000
0000
0101
0000
0000
0100
,  // measure 49
0001
1000
0000
1000
0010
1000
0100
1000
0000
0010
0000
0100
0001
0100
0001
0100
;

//---------------dance-single - ----------------
#NOTEDATA:;
#CHARTNAME:;
#STEPSTYPE:dance-single;
#DESCRIPTION:;
#CHARTSTYLE:;
#DIFFICULTY:Medium;
#METER:6;
#RADARVALUES:0.331209,0.380076,0.161532,0.123525,0.052261,244.000000,227.000000,17.000000,13.000000,0.000000,0.000000,0.000000,0.000000,0.000000,0.331209,0.380076,0.161532,0.123525,0.052261,244.000000,227.000000,17.000000,13.000000,0.000000,0.000000,0.000000,0.000000,0.000000;
#CREDIT:Alchemy Jones;
#NOTES:
0000
0000
0000
0000
,
0000
0000
0000
0000
,
0000
0000
0000
0000
,
0000
0000
0000
0000
,
1010
0000
1001
0000
0010
0001
0100
0000
,
1000
0100
0001
0000
1000
0100
0010
0100
,
1000
0000
1001
0000
0001
0100
1000
0000
,
0100
0001
0010
0000
0100
1000
0010
1000
,
0100
0000
0110
0000
1000
0010
0001
0000
,
0010
1000
0100
0000
0010
0001
0100
0001
,
0010
0000
0110
0000
0001
0100
1000
0000
,
0100
0001
0010
0000
0001
0010
0100
0010
,
0001
0000
1001
0000
1000
0100
0010
0100
,
1000
0000
1001
0000
0001
0100
0010
0100
,
0001
1000
0001
1000
0010
0100
0010
0000
,
1001
0000
0000
0000
,
0001
0000
0000
0001
0000
0000
0002
0000
0000
0000
0000
0000
0003
0000
0000
0000
,
1000
0100
0001
0000
0100
1000
0001
0100
,
0010
0000
0000
0010
0000
0000
0020
0000
0000
0000
0000
0000
0030
0000
0000
0000
,
1000
0100
0001
0000
0100
1000
0001
0100
,
0010
0000
0000
0010
0000
0000
0020
0000
0000
0000
0000
0000
0030
0000
0000
0000
,
0100
0001
1000
0000
0100
1000
0010
1000
,
0100
0000
0000
0100
0000
0000
0200
0000
0000
0000
0000
0000
0300
0000
0000
0000
,
0010
0001
1000
0000
0100
0010
0001
0010
,
0100
0000
0000
0100
0000
0000
0200
0000
0000
0000
0000
0000
0300
0000
0000
0000
,
1000
0100
0001
0000
0100
0010
0001
0100
,
0010
0000
0000
0010
0000
0000
0020
0000
0000
0000
0000
0000
0030
0000
0000
0000
,
0100
0001
0010
0000
0001
0100
1000
0100
,
0001
0000
0000
0001
0000
0000
0002
0000
0000
0000
0000
0000
0003
0000
0000
0000
,
1000
0010
0001
0000
0010
1000
0001
0010
,
0200
0000
0000
0300
,
0011
1100
1010
0101
,
0000
1001
0000
0000
0000
0000
0001
0100
,
1000
0100
0000
0000
,
0000
1001
0000
0000
0000
0000
1000
0100
,
0001
0000
0100
0000
0000
1000
0100
0010
,
0000
0001
0100
0010
0000
1000
0001
0010
,
0000
0100
1000
0001
0000
0100
0010
1000
,
0000
0001
0010
0100
0000
1000
0001
0100
,
0000
0010
1000
0001
0100
0000
0110
0000
,
0000
1000
0100
0010
0002
0000
0003
0000
,
0000
0000
1100
0101
,
1000
0000
0000
1000
0000
0000
2000
0000
0000
0000
0000
0000
3000
0000
0000
0000
,
0001
0010
1000
0000
0010
0001
1000
0010
,
0100
0000
0000
0100
0000
0000
0200
0000
0000
0000
0000
0000
0300
0000
0000
0000
,
0001
0010
1000
0000
0010
0001
1000
0010
,
0100
0000
0000
0100
0000
0000
0200
0000
0000
0000
0000
0000
0300
0000
0000
0000
,
0010
1000
0001
0000
0010
0001
0100
0001
,
0010
0000
0000
0010
0000
0000
0020
0000
0000
0000
0000
0000
0030
0000
0000
0000
,
0100
1000
0001
0010
0100
1000
0100
0010
,
0001
0000
0000
0000
;

//---------------dance-single - ----------------
#NOTEDATA:;
#CHARTNAME:;
#STEPSTYPE:dance-single;
#DESCRIPTION:;
#CHARTSTYLE:;
#DIFFICULTY:Easy;
#METER:4;
#RADARVALUES:0.226688,0.332567,0.190038,0.171034,0.000000,167.000000,147.000000,20.000000,18.000000,0.000000,0.000000,0.000000,0.000000,0.000000,0.226688,0.332567,0.190038,0.171034,0.000000,167.000000,147.000000,20.000000,18.000000,0.000000,0.000000,0.000000,0.000000,0.000000;
#CREDIT:Alchemy Jones;
#NOTES:
0000
0000
0000
0000
,
0000
0000
0000
0000
,
0000
0000
0000
0000
,
0000
0000
0000
0000
,
1000
0100
0020
0000
,
1030
0100
0020
0000
,
0130
0001
0020
0000
,
0130
0001
0020
0000
,
1030
0100
0002
0000
,
1003
0100
0002
0000
,
1003
0100
0020
0000
,
1030
0100
0020
0030
,
1001
0100
1001
0010
,
1001
0100
1001
0010
,
2002
3003
0220
0330
,
1001
0000
0000
0000
,
0010
1000
0100
0100
,
0010
0001
0100
0100
,
1000
0100
0001
0001
,
0010
1000
0010
0010
,
0010
1000
0100
0100
,
0001
0010
0100
0100
,
0001
0010
0100
0100
,
2002
0000
0000
3003
,
1000
0100
0001
0001
,
1000
0010
0001
0001
,
0100
0001
0010
0010
,
1000
0100
0001
0001
,
0001
0100
1000
1000
,
0010
0001
1000
1000
,
0010
0001
0100
1000
,
1001
0100
1001
0220
,
0330
0000
0000
1000
,
0000
0100
0000
0010
,
0000
0001
0000
0100
,
0000
0010
0000
1000
,
0000
0010
0000
0100
,
0000
0001
0000
0010
,
0000
0100
0000
1000
,
0000
0001
1001
1001
,
0000
0200
0000
0000
,
0000
0300
0110
1001
,
0100
0001
0010
0010
,
0100
1000
0010
0010
,
0001
0010
1000
1000
,
0100
0001
0100
0100
,
0100
0001
0010
0010
,
1000
0100
0010
0010
,
1000
0100
0020
0030
,
1001
0110
1001
0110
,
1001
0000
0000
0000
;
