#TITLE:PUMPER;
#SUBTITLE:;
#ARTIST:MAI LAN;
#TITLETRANSLIT:;
#SUBTITLETRANSLIT:;
#ARTISTTRANSLIT:;
#GENRE:;
#CREDIT:;
#BANNER:PUMPER.png;
#BACKGROUND:PUMPER-bg.png;
#LYRICSPATH:;
#CDTITLE:;
#MUSIC:PUMPER.ogg;
#OFFSET:-0.112000;
#SAMPLESTART:53.019352;
#SAMPLELENGTH:12.000000;
#SELECTABLE:YES;
#BPMS:0.000000=112.042999
;
#STOPS:
;
#BGCHANGES:-0.213=PUMPER.avi=1.000=0=0=0=StretchNoLoop==CrossFade_Fastest==,
178.750=PUMPER-bg.png=1.000=0=0=1===CrossFade_Fastest==,
99999=-nosongbg-=1.000=0=0=0 // don't automatically add -songbackground-
;
#KEYSOUNDS:;
#ATTACKS:;

//---------------dance-single - ----------------
#NOTES:
     dance-single:
     :
     Hard:
     7:
     0.482489,0.428007,0.393193,0.070573,0.241965,335.000000,296.000000,39.000000,7.000000,0.000000,0.000000,0.482489,0.428007,0.393193,0.070573,0.241965,335.000000,296.000000,39.000000,7.000000,0.000000,0.000000:
0000
0000
0000
0000
,
0001
0010
0110
0000
1100
0000
1000
0010
,
0100
0000
0010
0000
1000
0000
0000
1000
0100
0000
0000
0000
0010
0000
0001
0000
,
2000
0000
3010
0000
1010
0000
0000
1000
,
0001
0000
0010
0000
0100
0000
0000
0100
1000
0000
0000
0000
0011
0000
0000
0000
,
1000
0010
0110
0000
0101
0000
0001
0010
,
0100
0000
0010
0000
0001
0000
0000
0001
0100
0000
0000
0000
0010
0000
1000
0000
,
0002
0000
0013
0000
0011
0000
0000
0001
,
1000
0000
0010
0000
0100
0000
0000
0100
0001
0000
0010
0000
0010
0000
0000
0000
,
0001
0000
0010
0000
0100
0010
0000
0001
0000
1000
0000
0010
0000
0100
0010
1000
,
0100
0000
1000
0000
0010
0100
0000
0001
0000
1000
0000
0100
0000
0000
1000
0000
,
0001
0000
0010
0000
0100
0010
0000
0001
0000
1000
0000
0010
0000
0000
0100
0000
,
0001
0000
1000
0000
0100
1000
0000
0001
0000
0000
1000
0000
1000
0000
0000
0000
,
1000
0000
0100
0000
1000
0000
0100
0010
0001
0000
1000
0000
0001
0000
0000
0000
,
0001
0000
0100
0000
0001
0000
0100
0010
1000
0000
0001
0000
1000
0000
0000
0000
,
1000
0100
0010
0001
1000
0010
0100
0000
,
0001
0010
0100
1000
0001
0100
0020
0000
,
1030
0000
0010
0000
1000
0000
0010
0100
0001
0000
1000
0000
0001
0000
0000
0000
,
0001
0000
0010
0000
0001
0000
0010
0100
1000
0000
0001
0000
1000
0000
0000
0000
,
1010
0000
0101
0000
0110
0010
1010
0000
,
0011
0000
1100
0000
0110
0010
0011
0000
,
1000
1000
1000
1000
1000
1000
1000
1000
,
1010
0000
1001
0000
1100
0100
0110
0000
,
0001
0001
0001
0001
0001
0001
0001
0001
,
0202
0000
0000
0000
0000
0000
0000
0000
0303
0000
0000
0000
1000
0100
1000
0100
,
1000
0010
0110
0000
0101
0000
0001
0010
,
0100
0000
0010
0000
0001
0000
0000
0001
0100
0000
0000
0000
0010
0000
1000
0000
,
0001
0001
0010
0010
0200
0000
0300
1000
,
0001
0000
1000
0000
0010
0000
0000
0010
0100
0000
0000
0000
1010
0000
0000
0000
,
0001
0010
0110
0000
1100
0000
1000
0010
,
0100
0000
0010
0000
1000
0000
0000
1000
0100
0000
0000
0000
0010
0000
0001
0000
,
1000
1000
0010
0010
0200
0000
0300
0001
,
1000
0000
0001
0000
0010
0000
0000
0010
0100
0000
0000
0000
1000
0000
0010
0000
,
0100
0100
0001
0001
1000
1000
0010
0010
,
1000
1000
0001
0001
0010
0010
0100
1000
,
1100
1001
0011
1001
,
1010
0000
1001
0000
0101
0000
0001
0010
,
0100
0100
1000
1000
0001
0001
0010
0010
,
0001
0001
1000
1000
0010
0010
0100
0001
,
0101
1001
1010
1001
,
0011
0000
1001
0000
1100
0000
0010
0001
,
1000
0000
0010
0000
0100
0010
0000
1000
0000
0001
0000
0010
0000
0100
0010
0001
,
0100
0000
0001
0000
0010
0100
0000
1000
0000
0001
0000
0100
0000
0000
0001
0000
,
1000
0000
0010
0000
0100
0010
0000
1000
0000
0001
0000
0010
0000
0000
0100
0000
,
1000
0000
0001
0000
0100
0001
0000
1000
0000
0100
0000
0001
0000
0000
0000
0000
;

//---------------dance-single - ----------------
#NOTES:
     dance-single:
     :
     Medium:
     6:
     0.385991,0.383489,0.282292,0.100819,0.000000,268.000000,240.000000,28.000000,10.000000,0.000000,0.000000,0.385991,0.383489,0.282292,0.100819,0.000000,268.000000,240.000000,28.000000,10.000000,0.000000,0.000000:
0000
0000
0000
0000
,
0100
2000
0010
0000
3100
0000
1000
0010
,
1000
0100
0010
0000
0110
0000
0001
0100
,
0020
1000
0130
0000
,
0001
0100
0001
0000
0110
0000
1001
0000
,
0100
0002
0010
0000
0103
0000
0001
0010
,
0001
0100
0010
0000
0110
0000
1000
0100
,
0020
0001
0130
0000
,
1000
0100
1000
0000
0110
0000
1001
0000
,
0001
0100
0010
0000
0100
0010
1000
0000
,
0010
0100
0001
0000
0100
0001
1000
0000
,
1000
0100
0010
0000
0100
0010
0001
0000
,
0010
0100
1000
0000
0100
1000
0001
0000
,
0010
0000
1001
0000
0100
0001
0100
0000
,
0010
0000
1001
0000
0100
1000
0100
0000
,
0010
0000
1001
0000
1000
0001
1000
0000
,
0100
1000
0100
1000
0010
1000
0020
0000
,
0130
0000
1001
0000
0010
1000
0010
0000
,
0100
0000
1001
0000
0010
0001
0010
0000
,
0100
0000
1001
0000
0001
1000
0010
0000
,
0100
0000
1001
0000
1000
0001
0010
0000
,
0001
0100
0001
0100
0001
0100
0001
0100
,
0001
0000
1001
0000
0001
1000
0001
0000
,
1000
0100
1000
0100
1000
0100
1000
0100
,
2000
0000
0000
0000
3000
0000
1000
0100
,
0010
0002
0100
0000
0013
0000
0001
0100
,
0001
0010
0100
0000
0110
0000
1000
0010
,
0200
0001
0310
0000
,
1000
0010
1000
0000
0110
0000
1001
0000
,
0010
2000
0100
0000
3010
0000
1000
0100
,
1000
0010
0100
0000
0110
0000
0001
0010
,
0200
1000
0310
0000
,
0001
0010
0001
0000
0110
0000
1001
0000
,
1000
0010
1000
0010
1000
0001
1000
0001
,
1000
0100
1000
0100
1000
0000
0001
1000
,
0100
1001
0100
1001
,
0100
1001
0100
1001
,
0001
0010
0001
0010
0001
1000
0001
1000
,
0001
0100
0001
0100
0001
0000
1000
0001
,
0010
1001
0010
1001
,
0010
1001
0010
1001
,
1000
0010
0100
0000
0010
0100
0001
0000
,
0100
0010
1000
0000
0010
1000
0001
0000
,
0001
0010
0100
0000
0010
0100
1000
0000
,
0100
0010
0001
0000
0010
0001
1000
0000
;

//---------------dance-single - ----------------
#NOTES:
     dance-single:
     :
     Easy:
     3:
     0.214600,0.203024,0.040327,0.080655,0.000000,149.000000,145.000000,4.000000,8.000000,0.000000,0.000000,0.214600,0.203024,0.040327,0.080655,0.000000,149.000000,145.000000,4.000000,8.000000,0.000000,0.000000:
// measure 0
0000
0000
0000
0000
,  // measure 1
0010
1000
0100
0000
,  // measure 2
0010
0001
1000
0000
,  // measure 3
0010
0000
0100
0000
,  // measure 4
0001
1000
0100
0000
,  // measure 5
0010
0001
0100
0000
,  // measure 6
0010
1000
0001
0000
,  // measure 7
0010
0000
0100
0000
,  // measure 8
1000
0001
0100
0000
,  // measure 9
0010
0010
2000
3000
,  // measure 10
0010
0010
0200
0300
,  // measure 11
0010
0010
2000
3000
,  // measure 12
0001
0100
0010
0000
,  // measure 13
1000
0001
0100
0100
,  // measure 14
0001
1000
0100
0100
,  // measure 15
0001
0100
1000
0010
,  // measure 16
1000
0100
0001
0010
,  // measure 17
0001
1000
0100
0100
,  // measure 18
1000
0001
0100
0100
,  // measure 19
1000
0100
0001
0010
,  // measure 20
1000
0010
0001
0100
,  // measure 21
1000
1000
1000
1000
,  // measure 22
0100
0010
0100
0010
,  // measure 23
0001
0001
0001
0001
,  // measure 24
0020
0000
0030
0000
,  // measure 25
0001
1000
1001
0000
,  // measure 26
0100
0010
0110
0000
,  // measure 27
0010
0000
0001
0000
,  // measure 28
1000
0010
0001
0000
,  // measure 29
0010
0100
0110
0000
,  // measure 30
1000
0001
1001
0000
,  // measure 31
0010
0000
1000
0000
,  // measure 32
0001
0010
1000
0000
,  // measure 33
0010
0010
0010
0010
,  // measure 34
0001
0001
0001
0010
,  // measure 35
0001
0010
1000
0100
,  // measure 36
0001
0010
1000
0100
,  // measure 37
0010
0010
0010
0010
,  // measure 38
1000
1000
1000
0010
,  // measure 39
1000
0010
0001
0100
,  // measure 40
1000
0010
0001
0100
,  // measure 41
0010
0010
0002
0003
,  // measure 42
0010
0010
0200
0300
,  // measure 43
0010
0010
0002
0003
,  // measure 44
1000
0100
0020
0030
;
