#TITLE:PLEASE;
#SUBTITLE:;
#ARTIST:JESSIE WARE;
#TITLETRANSLIT:;
#SUBTITLETRANSLIT:;
#ARTISTTRANSLIT:;
#GENRE:;
#CREDIT:;
#BANNER:PLEASE.png;
#BACKGROUND:PLEASE-bg.png;
#LYRICSPATH:;
#CDTITLE:;
#MUSIC:PLEASE.ogg;
#OFFSET:-0.004000;
#SAMPLESTART:39.348339;
#SAMPLELENGTH:12.000000;
#SELECTABLE:YES;
#BPMS:0.000000=120.000000
;
#STOPS:
;
#BGCHANGES:0.000=PLEASE.avi=1.000=0=0=0=StretchNoLoop==CrossFade_Fastest==,
214.000=PLEASE-bg.png=1.000=0=0=1===CrossFade_Faster==,
99999=-nosongbg-=1.000=0=0=0 // don't automatically add -songbackground-
;
#KEYSOUNDS:;
#ATTACKS:;

//---------------dance-single - ----------------
#NOTES:
     dance-single:
     :
     Hard:
     7:
     0.456615,0.440127,0.332564,0.193995,0.207852,346.000000,310.000000,36.000000,21.000000,0.000000,0.000000,0.456615,0.440127,0.332564,0.193995,0.207852,346.000000,310.000000,36.000000,21.000000,0.000000,0.000000:
// measure 0
0000
0000
0000
0000
,  // measure 1
0000
0000
0000
0000
,  // measure 2
0000
0000
0000
0000
,  // measure 3
0000
0000
0000
0000
,  // measure 4
1000
0000
0000
0000
0010
0000
0100
0001
0000
0000
1000
0000
0000
0100
1000
0000
,  // measure 5
0001
0000
0000
0000
0100
0000
0010
1000
0000
0000
0001
0000
1000
0100
1000
0000
,  // measure 6
0000
0000
0010
0000
0000
1000
0000
0000
0100
0000
0000
0001
0000
0000
0100
0000
,  // measure 7
1000
0000
0000
0000
0001
0000
1000
0010
0000
0000
0100
0000
0001
0010
0001
0000
,  // measure 8
0100
0000
0000
0000
0010
0000
1000
0100
0000
0000
0010
0000
0000
0001
1000
0000
,  // measure 9
0010
0000
0000
0000
0100
0000
0001
0010
0000
0000
0100
0000
1000
0010
1000
0000
,  // measure 10
0100
0000
1001
0000
0000
1010
0000
0000
0021
0000
0000
0031
0000
0000
1000
0000
,  // measure 11
0010
0000
0000
0000
0100
0000
0001
1000
0000
0000
0010
0000
0100
0001
0100
0000
,  // measure 12
1000
0100
0001
0000
1000
0100
0001
0100
,  // measure 13
1000
0000
0000
0001
0000
0000
1000
0000
0000
0000
0110
0000
0000
0000
2000
0000
,  // measure 14
0010
0000
0010
0000
3010
0000
0001
0100
0001
0000
0000
0000
0000
0000
0002
0000
,  // measure 15
0010
0000
0010
0000
0013
0000
1000
0100
1000
0000
0000
0000
1001
0000
0000
0000
,  // measure 16
1000
0010
0001
0000
0010
1000
0100
0001
,  // measure 17
0200
0000
0000
2300
0000
0000
3002
0000
0000
0000
1003
0000
0000
0000
0002
0000
,  // measure 18
0100
0000
0100
0000
0103
0000
1000
0010
1000
0000
0000
0000
0000
0000
2000
0000
,  // measure 19
0100
0000
0100
0000
3100
0000
0001
0010
0001
0000
0000
0000
1100
0000
0000
0000
,  // measure 20
0010
0201
1300
0011
,  // measure 21
0001
0010
0001
0100
0010
2000
0100
0000
,  // measure 22
3100
0000
0021
0000
1030
0000
0101
0100
,  // measure 23
0000
0010
1000
0100
1000
0010
0100
0000
,  // measure 24
0001
0000
0000
0001
0010
0000
0000
0010
1000
0000
0000
0000
0011
0000
0001
0000
,  // measure 25
0000
1000
0100
1000
0010
0200
0001
0000
,  // measure 26
0301
1020
0031
1100
,  // measure 27
0001
0010
0001
1000
0100
2000
0010
0000
,  // measure 28
3010
0201
1300
0011
,  // measure 29
1000
0100
1000
0010
0100
0002
0010
0000
,  // measure 30
0013
0000
1200
0000
0301
0000
0011
0001
,  // measure 31
0000
0010
0100
1000
0010
0100
0001
0000
,  // measure 32
1000
0000
0000
1000
0010
0000
0000
0010
0001
0000
0000
0000
1010
0000
0010
0000
,  // measure 33
0000
0100
0001
1000
0100
1000
0001
0000
,  // measure 34
0011
0000
0000
1010
0000
0000
0101
0000
0000
1100
0000
0000
0000
0000
0000
0000
,  // measure 35
0001
0010
0001
0100
0010
1000
0100
0000
,  // measure 36
0020
0000
0001
0000
0000
0001
0000
0000
0001
0000
0000
0001
0000
0000
0031
0000
,  // measure 37
2000
0000
0010
0000
0000
0010
0000
0000
3010
0000
0101
0000
0000
1010
0000
0000
,  // measure 38
1100
0000
0010
0000
0000
0001
0000
0000
0100
0000
0000
1000
0000
0000
0100
0000
,  // measure 39
0001
0010
0000
0100
1000
0010
0000
0100
,  // measure 40
0002
0000
0010
0000
0000
0010
0000
0000
0010
0000
0000
0010
0000
0000
0013
0000
,  // measure 41
2000
0000
0010
0000
0000
0010
0000
0000
3010
0000
0110
0000
0000
0110
0000
0000
,  // measure 42
1001
0000
1000
0000
0000
0010
0000
0000
0001
0000
0000
0010
0000
0000
1000
0000
,  // measure 43
0001
0100
0001
1000
0010
1000
0100
0001
,  // measure 44
0000
0001
0100
1000
0010
0100
0001
0010
,  // measure 45
0000
0010
0100
1000
0010
0100
0001
0010
,  // measure 46
0000
0010
0001
0100
0010
1000
0100
0000
,  // measure 47
0101
0000
1010
0000
1001
0000
0011
1000
,  // measure 48
0000
1000
0010
1000
0100
0010
0001
0100
,  // measure 49
0000
0100
0001
0010
0100
1000
0010
0100
,  // measure 50
0000
0100
0010
1000
0100
1000
0010
0000
,  // measure 51
0101
1010
1100
1001
,  // measure 52
0000
0000
0001
0010
0000
0001
1000
0000
0010
1000
0000
0100
1000
0000
0001
0100
;

//---------------dance-single - ----------------
#NOTES:
     dance-single:
     :
     Medium:
     5:
     0.296932,0.391686,0.166282,0.230947,0.000000,225.000000,207.000000,18.000000,25.000000,0.000000,0.000000,0.296932,0.391686,0.166282,0.230947,0.000000,225.000000,207.000000,18.000000,25.000000,0.000000,0.000000:
0000
0000
0000
0000
,
0000
0000
0000
0000
,
0000
0000
0000
0000
,
0000
0000
0000
0000
,
0100
0000
0100
1000
0001
0000
0000
0000
,
0000
0000
0010
0000
0010
0001
1000
0000
,
0200
0000
0000
0300
,
0010
0000
0001
0000
1000
0010
0100
0000
,
0010
0000
0010
0100
0001
0000
0000
0000
,
0010
0000
0100
0000
1000
0001
0100
0001
,
1000
0000
0100
0010
0001
0000
0022
0000
,
0033
0000
0001
0000
0100
0000
0010
1000
,
0010
0000
1000
0000
0001
0010
0001
0100
,
0001
1000
0100
0000
,
0010
1000
0010
1000
0010
0000
0000
0000
,
0010
0001
0010
0001
0010
0000
0000
0000
,
0000
0001
0100
0000
0010
1000
0100
1000
,
0020
0000
1030
0000
,
0001
0010
0001
0010
0001
0000
0000
0000
,
1000
0010
1000
0010
1000
0000
1010
0000
,
1000
1100
0200
0300
,
0010
0001
0100
0000
1000
0100
0001
0000
,
0001
0011
0020
0030
,
0100
1000
0010
0000
0010
1000
0100
0000
,
0002
0023
2030
3000
,
0001
0100
1000
0000
0010
0001
0100
0000
,
1000
1010
0020
0030
,
1000
0100
0001
0000
0010
0001
0100
0000
,
0100
0101
0002
0003
,
0010
1000
0001
0000
0010
0001
1000
0000
,
0100
1100
2000
3000
,
0010
1000
0100
0000
0010
0001
0100
0000
,
2000
3020
0032
0003
,
1000
0100
0001
0000
0001
0010
1000
0000
,
0110
1001
0110
1001
,
0001
0100
0001
0010
0100
1000
0100
0000
,
0020
0000
0000
0000
,
0002
0000
0033
0110
,
0110
0000
1000
0000
,
0001
0100
0001
0000
0001
0010
0001
0000
,
2000
0000
0000
0000
,
0020
0000
3030
0110
,
0110
0000
0001
0000
,
1000
0010
1000
0100
0010
0001
0010
0000
,
0001
0000
0100
0000
0010
1000
0100
0000
,
1000
0000
0010
0000
0100
0001
0010
0000
,
0001
0100
1000
0000
0010
0000
0100
0000
,
0110
0000
0000
0000
1000
0100
1000
0001
,
0100
0000
0010
0000
0100
0001
0010
0000
,
0100
0000
1000
0000
0010
1000
0100
0000
,
0001
0000
0010
0000
1000
0100
0001
0000
,
0220
0330
2002
3003
,
0000
0020
0000
0000
0200
0000
0000
0000
,
0330
0000
0000
0000
;

//---------------dance-single - ----------------
#NOTES:
     dance-single:
     :
     Easy:
     2:
     0.146486,0.216166,0.073903,0.092379,0.000000,111.000000,103.000000,8.000000,10.000000,0.000000,0.000000,0.146486,0.216166,0.073903,0.092379,0.000000,111.000000,103.000000,8.000000,10.000000,0.000000,0.000000:
0000
0000
0000
0000
,
0000
0000
0000
0000
,
0000
0000
0000
0000
,
0000
0000
0000
0000
,
0000
0100
0100
0000
,
0000
0001
0000
1000
,
0000
0001
0000
0000
,
0100
0010
0100
0000
,
0000
0001
0001
0000
,
0000
1000
1000
0001
,
0001
0000
0000
0020
,
0030
0000
0000
0000
,
0100
0000
1000
0000
,
0010
0000
0001
0000
,
0100
1000
0100
0000
,
0100
0001
0100
0000
,
0100
0000
0010
0000
,
0200
0000
0000
0300
,
0001
0100
0001
0000
,
1000
0100
1000
0000
,
0001
1001
1000
0000
,
1000
0000
0001
0000
,
1000
1001
0001
0000
,
0010
1000
0010
1000
,
0020
0000
0030
0000
,
0100
0000
0010
0000
,
0100
0110
0010
0000
,
0010
0000
0100
0000
,
0010
0110
0100
0000
,
0100
1000
0010
0000
,
0100
0110
0010
0000
,
0010
0000
1000
0000
,
0002
0000
0003
0000
,
0001
0000
1000
0000
,
1001
0110
1001
0000
,
0001
0000
0001
0000
,
2000
0000
0000
0000
,
0020
0000
3030
0010
,
0010
0000
1000
0000
,
0001
0000
1000
0000
,
0002
0000
0000
0000
,
0020
0000
0033
0010
,
0010
0000
0001
0000
,
0010
1000
0100
0000
,
0010
0000
0100
0000
,
0001
0000
1000
0000
,
0100
0000
0010
0000
,
0100
0000
0000
0000
,
0010
0000
0100
0000
,
1000
0000
0001
0000
,
0100
0000
0010
0000
,
0200
0000
0020
0000
,
0330
0000
0000
0000
;
