#TITLE:PLATONIC PLANET;
#SUBTITLE:;
#ARTIST:koto;
#TITLETRANSLIT:;
#SUBTITLETRANSLIT:;
#ARTISTTRANSLIT:;
#GENRE:;
#CREDIT:;
#BANNER:PLATONIC PLANET - bn.png;
#BACKGROUND:PLATONIC PLANET - bg.png;
#LYRICSPATH:;
#CDTITLE:;
#MUSIC:platonic planet.ogg;
#OFFSET:-0.024000;
#SAMPLESTART:43.829365;
#SAMPLELENGTH:12.000000;
#LASTBEATHINT:468.000031;
#SELECTABLE:YES;
#DISPLAYBPM:*;
#BPMS:0.000000=164.000000
,24.000000=328.000000
,88.000000=82.000000
,104.000000=164.000000
,136.000000=328.000000
,200.000000=164.000000
,220.000000=328.000000
,284.000000=82.000000
,300.000000=328.000000
,364.000000=164.000000
,376.000000=123.000000
,377.500000=41.000000
,378.000000=164.000000
,382.000000=328.000000
;
#STOPS:
;
#BGCHANGES:0.000=PLATONIC PLANET.avi=1.000=1=0=0=StretchNoLoop==CrossFade==,
469.000=PLATONIC PLANET - bg.png=1.000=0=0=1===CrossFade_Fastest==,
99999=-nosongbg-=1.000=0=0=0 // don't automatically add -songbackground-
;
#KEYSOUNDS:;
#ATTACKS:;

//---------------dance-single - ----------------
#NOTES:
     dance-single:
     :
     Hard:
     10:
     0.843373,1.783133,0.281125,0.096386,0.465863,735.000000,700.000000,35.000000,12.000000,0.000000,0.000000,0.843373,1.783133,0.281125,0.096386,0.465863,735.000000,700.000000,35.000000,12.000000,0.000000,0.000000:
0000
0000
0000
0000
,
0000
0000
0000
0000
,
0000
0000
0000
0000
,
0000
0000
0000
0000
,
0000
0000
0000
0000
,
0010
0001
0010
0000
0001
0100
0001
0000
1000
0010
0000
0010
0000
1000
0100
1000
,
0020
0000
0130
0001
0000
0001
0000
1000
,
0010
0010
1000
0001
,
0010
0001
0000
0001
0000
1000
0000
0010
,
0100
0001
0100
0000
0001
1000
0001
0000
,
0020
0000
0130
1000
0000
1000
0000
0001
,
0010
0010
0001
1000
,
0010
1000
0000
1000
0000
0001
0000
0010
,
0100
1000
0100
0000
1000
0001
1000
0000
,
0200
0000
0310
0001
0000
0001
0000
1000
,
0100
0100
1000
0001
,
0100
0001
0000
0001
0000
1000
0000
0100
,
0010
0001
0010
0000
0001
1000
0001
0000
,
0200
0000
0310
1000
0000
1000
0000
0001
,
0100
0100
0001
1000
,
0010
1000
0000
0010
0100
0000
0010
1000
,
0000
0010
0100
0000
0001
0010
0100
1000
,
0000
0010
0100
0000
0101
0000
0001
1000
0000
0010
1000
0001
0011
0000
0101
0000
,
0000
1000
0001
1000
0010
0000
0010
0100
0000
0100
0001
1000
0100
1000
0010
0000
,
0000
1000
0001
1000
0010
0000
0010
0100
0000
0100
0001
1000
0010
1000
0100
0000
,
0000
0000
0010
0000
0001
0000
0010
0000
0001
0000
1000
0000
0001
0000
1000
0000
0110
0000
0000
0000
1001
0000
0000
0000
0110
0000
0001
0010
0100
0010
0001
0000
,
1001
0000
1000
0010
1000
0000
0001
0010
0001
0000
0000
0000
0101
0000
1000
0000
,
1100
0000
0001
0000
0000
0000
0110
0000
0000
0000
0001
0100
0001
0000
0000
0000
,
1001
0000
0001
0010
0001
0000
1000
0010
1000
0000
0000
0000
1100
0000
0001
0000
,
0101
0000
1000
0000
0000
0000
0110
0000
0000
0000
1000
0100
1000
0000
0000
0000
,
1001
0000
1000
0100
1000
0000
0001
0100
0001
0000
0000
0000
0011
0000
1000
0000
,
1010
0000
0001
0000
0000
0000
0110
0000
0000
0000
0010
0001
0010
0000
0100
0000
,
1000
0010
1000
0010
1000
0100
1000
0100
1000
0010
1000
0010
1000
0001
1000
0000
,
0101
0000
0000
1001
0000
0000
1100
0000
0110
0000
1000
0010
1000
0001
0100
0000
,
0010
0000
0010
1000
0000
1000
0001
0000
,
0010
0000
0010
0001
0000
0001
1000
0000
,
0100
1000
0001
0100
,
0010
0000
1000
0100
1000
0010
0100
0001
,
0010
0000
0010
0100
0000
0100
1000
0000
,
0010
0000
0010
0100
0000
0100
0001
0000
,
0010
0001
1000
0010
,
0100
0000
0001
0010
0001
0100
0010
1000
,
0100
0000
0100
1000
0000
1000
0001
0000
,
0100
0000
0100
0001
0000
0001
1000
0000
,
0010
0000
0010
1000
0000
1000
0001
0000
,
0001
0000
0100
0001
1000
0010
1000
0001
,
0100
0000
0100
0001
0000
0001
1000
0000
,
0100
0000
0100
1000
0000
1000
0001
0000
,
1000
0100
0010
0001
1000
0100
0010
0001
,
1000
0100
0010
0001
1000
0010
0100
0001
,
0010
0000
0001
1000
0000
0001
0010
0000
1001
0000
0000
0000
0110
0000
0000
0000
,
0010
0000
1000
0001
0000
1000
0010
0000
1001
0000
0000
0000
0110
0000
0000
0000
,
0010
1000
0010
0100
0001
0010
0001
0100
,
0010
1000
0010
0000
1000
0000
0001
0000
0010
0001
0010
0000
0001
0000
1000
0000
,
0001
0010
0001
0010
0001
0100
0001
0100
0001
0010
0001
0010
0001
1000
0001
1000
,
0020
0000
0130
0001
0000
0001
0000
1000
,
0001
0010
0100
1000
,
0010
1000
0000
1000
0000
0001
0000
0010
,
0100
1000
0100
0000
0100
0010
0100
0000
,
0020
0000
0130
1000
0000
1000
0000
0001
,
1000
0100
0010
0001
,
0100
0001
0000
0001
0000
1000
0000
0100
,
0010
0001
0010
0000
0010
0100
0010
0000
,
0200
0000
0310
0001
0000
0001
0000
1000
,
0001
0100
0010
1000
,
0100
1000
0000
1000
0000
0001
0000
0100
,
0010
1000
0010
0000
0010
0100
0010
0000
,
0100
0001
0000
0010
0000
0100
0000
0010
,
0100
1000
0000
0010
0000
0100
0000
0001
,
0010
0001
0000
0001
1000
0001
0000
1000
,
0100
0010
0001
0100
0010
1000
0001
0010
,
0000
0000
0001
0000
0000
0100
0000
0001
0000
0000
1000
0000
0000
0100
0000
1000
0000
0000
0000
0000
0000
0000
0010
0000
0000
0010
0000
1000
0010
0100
0000
0001
,
0000
0000
1000
0000
0000
0100
0000
1000
0000
0000
0001
0000
0000
0100
0000
0001
0000
0000
0000
0000
0000
0000
0010
0000
0000
0010
0000
0001
0010
0100
0000
1000
,
0010
0000
0100
0001
0000
1000
0001
0000
0010
0000
0100
1000
0000
0001
1000
0000
0000
0000
1010
0000
0000
0011
0000
0000
1001
0000
0000
1100
0000
0000
0101
0000
,
0100
0000
0010
1000
0000
0001
1000
0000
0100
0000
0010
0001
0000
1000
0001
0000
0100
0000
0000
0010
0000
0010
0000
1000
0001
0000
0000
0000
1001
0000
0000
0000
,
0100
0000
0001
0010
0001
0000
1000
0000
,
0100
0000
0010
0100
0010
0000
0001
0000
,
0010
0000
0100
1000
0100
0000
0010
0000
,
0100
0000
1000
0100
0010
0100
1000
0001
,
1000
0000
0001
0100
0001
0100
0001
0000
,
0100
0000
0010
0100
0010
0100
0010
0000
,
1000
0000
0100
1000
0100
1000
0100
0000
,
1000
0010
0100
0001
1000
0010
0100
0001
,
0010
0000
0010
0001
0000
0001
1000
0000
,
0010
0000
0010
1000
0000
1000
0001
0000
,
0100
0000
0100
0001
0000
0001
1000
0000
,
1000
0000
0010
1000
0001
0100
0001
1000
,
0010
0000
0010
1000
0000
1000
0001
0000
,
0010
0000
0010
0001
0000
0001
1000
0000
,
0001
0010
0100
1000
0001
0010
0100
1000
,
0001
0010
0100
1000
0001
0100
0010
0000
,
1000
0000
0010
1000
0000
0010
0100
0000
0001
0000
0000
0000
1001
0000
0000
0000
,
0001
0000
0010
0001
0000
0010
0100
0000
1000
0000
0000
0000
1001
0000
0000
0000
,
0010
1000
0010
0100
0010
1000
0100
0010
,
0002
0000
0000
0000
0000
0000
0000
0000
1003
0010
1000
0000
0100
1000
0100
0000
,
1000
0010
0100
0010
1000
0000
0000
0000
0002
0000
0000
0000
0103
0000
0010
0000
,
0000
0010
0000
1000
0001
0000
0010
0000
,
0100
0000
1000
0000
0010
0100
0000
0001
,
0000
0100
0000
0001
0010
0001
0100
0010
,
1000
0010
0100
0001
2000
0000
3100
0010
,
0000
0010
0000
0001
1000
0000
0010
0000
,
0100
0000
0001
0000
0010
0100
0000
1000
,
0000
0100
0000
1000
0010
1000
0100
0010
,
0001
0010
0100
1000
0002
0000
0013
0100
,
0000
0100
0000
1000
0001
0000
0100
0000
,
0010
0000
1000
0000
0100
0010
0000
0001
,
0000
0010
0000
0001
0100
0001
0010
0100
,
1000
0100
0010
0001
2000
0000
3010
0100
,
0000
0100
0000
0001
1000
0000
0100
0000
,
0010
0000
0001
0000
0100
0010
0000
1000
,
0000
0001
0000
1000
0100
0000
0000
0000
,
0011
0000
0000
0000
;

//---------------dance-single - ----------------
#NOTES:
     dance-single:
     :
     Medium:
     9:
     0.564544,1.025301,0.361446,0.224900,0.048193,492.000000,447.000000,45.000000,28.000000,0.000000,0.000000,0.564544,1.025301,0.361446,0.224900,0.048193,492.000000,447.000000,45.000000,28.000000,0.000000,0.000000:
0000
0000
0000
0000
,
0000
0000
0000
0000
,
0000
0000
0000
0000
,
0000
0000
0000
0000
,
0000
0000
0000
0000
,
0010
0000
0001
0000
1000
0010
1000
0100
,
0020
0030
0001
1000
,
0010
1000
0100
0010
,
0001
1000
0001
0100
,
0010
1000
0010
0000
1000
0100
1000
0000
,
0020
0030
1000
0001
,
0010
0001
0100
0010
,
1000
0001
1000
0100
,
0010
0001
0010
0000
0001
0100
0001
0000
,
0020
0030
0001
1000
,
0010
1000
0100
0010
,
0001
1000
0001
0100
,
0010
1000
0010
0000
1000
0100
1000
0000
,
0020
0030
1000
0001
,
0010
0001
0100
0010
,
1000
0001
0000
1000
0001
0000
0100
0010
,
0000
0100
0010
0000
1001
0000
0000
0000
,
1000
0000
0010
0000
0100
0000
0001
0000
1000
0000
0001
0010
0001
0000
0100
0000
,
0000
0000
0001
0000
0100
0000
0010
0000
1000
0000
0100
0000
0010
0001
0010
0000
,
0000
0000
0001
0000
0010
0000
0100
0000
1000
0000
0010
0000
0100
0001
0100
0000
,
0000
0010
1000
0100
0110
1001
0110
1001
,
0011
0000
1010
0000
1100
0000
0010
1000
,
0001
1000
0000
0101
0000
0001
1000
0000
,
1010
0000
1100
0000
0101
0000
0010
0001
,
1000
0001
0000
1100
0000
1000
0001
0000
,
0101
0000
0011
0000
1010
0000
0100
1000
,
0001
1000
0000
0011
0000
0001
1000
0001
,
0011
0011
1010
1010
,
0110
1001
0220
0330
,
0010
0000
0000
1000
0000
0000
0001
0000
,
0010
0000
0000
0001
0000
0000
1000
0000
,
0001
0010
0100
0000
,
1100
0002
0000
0003
,
0010
0000
0000
0001
0000
0000
1000
0000
,
0010
0000
0000
1000
0000
0000
0001
0000
,
1000
0100
0010
0001
,
2000
0000
0200
3300
,
0000
1000
0010
1010
,
0000
1000
0010
1010
,
0000
1000
0010
1010
,
0000
0002
0000
0003
,
0000
0001
0010
0011
,
0000
0001
0010
0100
,
1100
0000
1001
0000
,
2020
0000
0000
3030
,
1000
0000
0000
0100
0000
0000
1000
0000
0001
0000
0000
0000
0010
0000
0000
0000
,
0001
0000
0000
0100
0000
0000
0001
0000
1000
0000
0000
0000
0010
0000
0000
0000
,
0100
0000
0100
0010
1000
0100
1000
0010
,
0200
0000
0002
0303
,
1000
0100
0010
0001
1000
0100
0010
0001
,
0020
0030
0001
0010
,
0100
1000
0100
0010
,
0001
1000
0001
1000
,
0100
1000
0100
0000
1000
0001
1000
0000
,
0020
0030
1000
0100
,
0010
0001
0010
0100
,
1000
0001
1000
0001
,
0100
0001
0100
0000
0001
1000
0001
0000
,
0200
0300
0001
0010
,
0100
1000
0100
0010
,
0001
1000
0001
1000
,
0100
1000
0100
0000
1000
0001
1000
0000
,
0100
0010
0100
0010
,
0001
1000
0001
1000
,
0010
1000
0010
1000
,
0001
0010
0100
1000
,
0000
0000
0010
0000
1000
0000
0100
1000
0001
0000
0000
0000
1000
0000
0100
0010
,
0100
0000
0010
0000
0001
0000
0100
0001
1000
0000
0000
0000
0001
0000
0100
0010
,
0100
0100
0001
0001
0000
1001
0110
1001
,
0100
0000
0100
0000
1000
0000
1000
0001
0010
0000
0010
0000
0110
0000
0110
0000
,
0100
0000
0000
1000
0000
0000
0001
0000
,
0100
0000
0000
0001
0000
0000
1000
0000
,
0001
0100
0010
1000
,
0100
0020
0000
0030
,
0100
0000
0000
1000
0000
0000
0001
0000
,
0100
0000
0000
0001
0000
0000
1000
0000
,
0001
0010
0100
1000
,
0002
0000
0200
0303
,
0000
0001
0010
0011
,
0000
0001
0010
0011
,
0000
0001
0010
0011
,
0000
2000
0000
3000
,
0000
1000
0010
1010
,
0000
1000
0010
0100
,
0101
0000
1001
0000
,
0022
0000
0000
0033
,
1000
0000
0000
0010
0000
0000
1000
0000
0001
0000
0000
0000
0100
0000
0000
0000
,
0001
0000
0000
0010
0000
0000
0001
0000
1000
0000
0000
0000
0100
0000
0000
0000
,
0010
0001
0010
0100
0010
0001
0100
0010
,
2000
0000
0000
0000
3001
0010
0100
1000
,
0001
0010
0100
1000
0020
0000
0030
0000
,
1000
0001
0010
0001
,
0100
0010
1000
0001
,
1000
0000
0100
0000
0010
0001
0010
0000
,
0001
0100
0001
0000
0020
0000
0030
0000
,
0001
1000
0010
1000
,
0100
0010
0001
1000
,
0001
0000
0100
0000
0010
1000
0010
0000
,
1000
0100
1000
0000
0020
0000
0030
0000
,
1000
0001
0010
0001
,
0100
0010
1000
0001
,
1000
0000
0100
0000
0010
0001
0010
0000
,
0001
0100
0001
0000
0020
0000
0030
0000
,
0001
1000
0010
1000
,
0100
0000
0010
0000
0001
0010
0000
0001
,
0000
1000
0000
0010
0100
0000
0000
0000
,
1001
0000
0000
0000
;

//---------------dance-single - ----------------
#NOTES:
     dance-single:
     :
     Easy:
     7:
     0.390132,0.891566,0.297189,0.160643,0.000000,340.000000,303.000000,37.000000,20.000000,0.000000,0.000000,0.390132,0.891566,0.297189,0.160643,0.000000,340.000000,303.000000,37.000000,20.000000,0.000000,0.000000:
// measure 0
0000
0000
0000
0000
,  // measure 1
0000
0000
0000
0000
,  // measure 2
0000
0000
0000
0000
,  // measure 3
0000
0000
0000
0000
,  // measure 4
0000
0000
0000
0000
,  // measure 5
0010
0001
1000
0100
,  // measure 6
2000
0000
3001
0000
,  // measure 7
1000
0000
1000
0000
,  // measure 8
0001
0000
1000
0000
,  // measure 9
0001
0010
0100
1000
,  // measure 10
0002
0000
1003
0000
,  // measure 11
0001
0000
0001
0000
,  // measure 12
1000
0000
0001
0000
,  // measure 13
1000
0100
0010
0001
,  // measure 14
2000
0000
3001
0000
,  // measure 15
0001
0000
1000
0000
,  // measure 16
0001
0000
1000
0000
,  // measure 17
0001
0010
0100
1000
,  // measure 18
0002
0000
1003
0000
,  // measure 19
0001
0000
0001
0000
,  // measure 20
0110
0000
1001
0000
,  // measure 21
0110
0000
1001
0000
,  // measure 22
0000
1000
0000
0010
0000
1000
0001
0010
,  // measure 23
0000
0001
0000
1000
0000
0001
1000
0010
,  // measure 24
0000
1000
0000
0100
0000
1000
0001
0100
,  // measure 25
0000
0001
0000
1000
0100
0100
0100
0100
,  // measure 26
0010
0001
0011
0001
,  // measure 27
0101
0000
0000
1100
0000
0000
0000
0000
,  // measure 28
0010
1000
1010
1000
,  // measure 29
1100
0000
0000
0101
0000
0000
0000
0000
,  // measure 30
1000
0100
1100
1000
,  // measure 31
1010
0000
0000
0011
0000
0000
1000
0000
,  // measure 32
0001
1000
1001
1001
,  // measure 33
0110
0110
2002
3003
,  // measure 34
1000
0000
0100
0000
,  // measure 35
0010
0000
0001
0000
,  // measure 36
1000
0100
1000
0000
,  // measure 37
0001
0000
0000
0000
,  // measure 38
0001
0000
0010
0000
,  // measure 39
0100
0000
1000
0000
,  // measure 40
0001
0000
1000
0100
,  // measure 41
1000
0000
0001
0000
,  // measure 42
0000
1000
0100
1000
,  // measure 43
0000
0100
0010
0100
,  // measure 44
0000
0010
0001
0010
,  // measure 45
0000
0200
0000
0300
,  // measure 46
0000
1000
0010
1000
,  // measure 47
0000
0010
0100
0010
,  // measure 48
0100
0000
0100
0000
,  // measure 49
0101
0000
1100
0000
,  // measure 50
0001
1000
0100
0000
,  // measure 51
1000
0001
0100
0000
,  // measure 52
0010
0100
0001
1000
,  // measure 53
0200
0000
0020
0330
,  // measure 54
1000
0100
0010
0001
,  // measure 55
2000
0000
3010
0000
,  // measure 56
0100
0001
1000
0000
,  // measure 57
0001
0000
0010
0000
,  // measure 58
0001
0100
0001
1000
,  // measure 59
0002
0000
0013
0000
,  // measure 60
0100
1000
0001
0000
,  // measure 61
1000
0000
0010
0000
,  // measure 62
1000
0100
1000
0001
,  // measure 63
2000
0000
3010
0000
,  // measure 64
0100
0001
1000
0000
,  // measure 65
0001
0000
0010
0000
,  // measure 66
0001
0100
0001
1000
,  // measure 67
0002
0000
0000
0003
,  // measure 68
2000
0000
0000
3000
,  // measure 69
1001
0000
0110
0000
,  // measure 70
1001
0000
0110
0000
,  // measure 71
0000
1000
0100
0010
0001
0000
1000
0010
,  // measure 72
0100
0001
0010
0100
1000
0000
0010
0100
,  // measure 73
0001
0001
1000
1000
0000
0001
0010
0001
,  // measure 74
1000
1000
0001
0001
0110
0110
0110
0110
,  // measure 75
1000
0000
0000
0100
0000
0000
0010
0000
,  // measure 76
0001
0000
0000
0010
0000
0000
0100
0000
,  // measure 77
1000
0001
1000
0000
,  // measure 78
1001
0000
0000
0000
,  // measure 79
0001
0000
0000
0010
0000
0000
0100
0000
,  // measure 80
1000
0000
0000
0100
0000
0000
0010
0000
,  // measure 81
0001
1000
0001
0000
,  // measure 82
0110
0000
1001
0000
,  // measure 83
0000
0001
0100
0001
,  // measure 84
0000
0100
0010
0100
,  // measure 85
0000
0010
1000
0010
,  // measure 86
0000
0200
0000
0300
,  // measure 87
0000
0001
0010
0001
,  // measure 88
0000
0010
0100
0010
,  // measure 89
0100
0000
0100
0000
,  // measure 90
1100
0000
0101
0000
,  // measure 91
1000
0001
0100
0000
,  // measure 92
0001
1000
0100
0000
,  // measure 93
0010
0100
1000
0001
,  // measure 94
0200
0000
0310
1000
,  // measure 95
0001
0100
0002
0000
,  // measure 96
1003
0000
0001
0000
,  // measure 97
0001
0000
1000
0000
,  // measure 98
0001
0000
1000
0100
,  // measure 99
0010
0001
2000
0000
,  // measure 100
3001
0000
1000
0000
,  // measure 101
1000
0000
0001
0000
,  // measure 102
1000
0000
0001
0010
,  // measure 103
0100
1000
0002
0000
,  // measure 104
1003
0000
1000
0000
,  // measure 105
0001
0000
1000
0000
,  // measure 106
0001
0000
1000
0100
,  // measure 107
0010
0001
2000
0000
,  // measure 108
3001
0000
1000
0000
,  // measure 109
1000
0000
0110
0000
,  // measure 110
1001
0000
0110
0000
,  // measure 111
1001
0000
0000
0000
;
